#TITLE:Get it Done;
#SUBTITLE:;
#ARTIST:AXEL K.;
#TITLETRANSLIT:;
#SUBTITLETRANSLIT:;
#ARTISTTRANSLIT:;
#CREDIT:Blinded_No_More;
#BANNER:Get it Done.png;
#BACKGROUND:Get it Done-bg.png;
#LYRICSPATH:;
#CDTITLE:;
#MUSIC:Get it Done.mp3;
#OFFSET:-0.071;
#SAMPLESTART:49.580;
#SAMPLELENGTH:18.020;
#SELECTABLE:YES;
#BPMS:0.000=158.000;
#STOPS:;
#BGCHANGES:;

//---------------dance-single - ----------------
#NOTES:
     dance-single:
     :
     Hard:
     8:
     0.652,0.731,0.463,0.528,0.285: // measure 1
0000
0000
0000
0000
,  // measure 2
0000
0000
0000
0000
,  // measure 3
0000
0000
0000
0000
,  // measure 4
0000
0000
0000
0000
,  // measure 5
1001
0000
0000
0001
0000
0000
0100
0000
0020
0000
0000
0000
0130
0000
0000
0000
,  // measure 6
1001
0000
0000
1000
0000
0000
0010
0000
0200
0000
0000
0000
0310
0000
0000
0000
,  // measure 7
1100
0100
0010
0000
0101
0100
0010
0000
,  // measure 8
1000
0000
0100
0000
0001
0000
0100
0000
1000
0001
0000
1000
0000
0010
0100
0010
,  // measure 9
0000
0000
0000
0000
,  // measure 10
2100
0000
0000
0000
3001
0000
0000
0000
1000
0010
0000
1000
0001
0000
0100
0000
,  // measure 11
0102
0000
0000
0000
1003
0000
0000
0000
0001
1000
0000
0010
1000
0000
0100
0000
,  // measure 12
1000
0000
1000
0000
0010
0100
0000
0010
0000
1000
0000
0100
0010
0000
0100
0000
,  // measure 13
1000
0000
0001
0100
0000
0001
0100
0000
0010
1000
0000
0001
0000
1000
0100
0000
,  // measure 14
0012
0000
0000
0000
0103
0000
0000
0000
0001
0010
0000
0001
1000
0000
0010
0000
,  // measure 15
2010
0000
0000
0000
3001
0000
0000
0000
1000
0010
0000
1000
0001
0000
1000
0000
,  // measure 16
0100
0000
0000
0100
0000
0000
0010
0000
0000
0010
0000
0000
0100
0000
1000
0000
,  // measure 17
0001
0100
0001
0100
0001
0000
1000
0000
0010
0100
0000
0001
0000
0100
0010
0000
,  // measure 18
1000
0000
0102
0000
0100
0000
1003
0001
,  // measure 19
2000
3100
0002
0103
,  // measure 20
2000
0010
0100
3001
,  // measure 21
1000
1000
0010
0010
0100
0100
0001
0001
,  // measure 22
0020
0130
0110
1001
,  // measure 23
2000
0000
0001
0001
0000
0100
3100
0000
,  // measure 24
0002
0000
1000
1000
0000
0100
0103
0000
,  // measure 25
0020
0000
0000
0000
1030
0000
0000
0000
0010
0000
0000
0100
0000
0000
0001
0000
,  // measure 26
1002
0000
0010
0000
0100
0000
1003
0001
,  // measure 27
2000
3100
0002
0103
,  // measure 28
2000
0010
0100
3001
,  // measure 29
1000
1000
0010
0010
0100
0100
0001
0001
,  // measure 30
0020
0000
0100
0100
0000
1000
1030
0000
,  // measure 31
0002
0000
0100
0100
0000
1000
1003
0000
,  // measure 32
0020
0000
0100
0100
0000
0001
0031
0000
,  // measure 33
0010
1000
0100
0010
0001
0000
1000
0001
,  // measure 34
0012
1003
2010
3001
,  // measure 35
1000
0010
0001
0100
2000
0000
3001
0000
,  // measure 36
1010
0000
0011
0000
1000
0010
0001
0010
,  // measure 37
1000
0100
0001
0100
2000
0000
3001
1000
,  // measure 38
2100
3001
0102
1003
,  // measure 39
0001
0100
1000
0010
0002
0000
1003
0000
,  // measure 40
1010
0000
0101
0000
1100
0000
0100
0010
,  // measure 41
0001
0000
0000
0001
0000
0000
0001
0000
2000
0000
0000
0000
0010
0000
3010
0000
,  // measure 42
2100
3001
0102
1003
,  // measure 43
0001
0100
1000
0010
0002
0000
1003
0000
,  // measure 44
0101
0000
1100
0000
0001
0100
1000
0100
,  // measure 45
0001
0010
1000
0010
0002
0000
1003
0001
,  // measure 46
0012
1003
2010
3001
,  // measure 47
1000
0010
0001
0100
2000
0000
3001
0000
,  // measure 48
2000
0000
3020
0000
0230
0000
0301
1000
,  // measure 49
1001
1001
0101
0101
0120
0000
1030
0000
,  // measure 50
0012
0000
0000
0000
1003
0000
0000
0000
0001
0100
0000
0001
1000
0000
0010
0000
,  // measure 51
2010
0000
0000
0000
3001
0000
0000
0000
1000
0001
0000
0100
0001
0000
0010
0000
,  // measure 52
0001
0000
0001
0000
0100
0010
0000
0100
0000
0001
0000
0010
0100
0000
0010
0000
,  // measure 53
0001
0000
1000
0010
0000
1000
0010
0000
0100
0001
0000
1000
0000
0001
0010
0000
,  // measure 54
2100
0000
0000
0000
3010
0000
0000
0000
1000
0100
0000
1000
0001
0000
0100
0000
,  // measure 55
0102
0000
0000
0000
1003
0000
0000
0000
0001
0100
0000
0001
1000
0000
0001
0000
,  // measure 56
0010
0000
0000
0010
0000
0000
0100
0000
0000
0100
0000
0000
0010
0000
0001
0000
,  // measure 57
1000
0010
1000
0010
1000
0000
0001
0000
1100
0000
0000
0000
0101
0000
0000
0000
,  // measure 58
0002
0000
0023
0000
0230
0000
1300
0100
,  // measure 59
1100
0110
0011
0101
2002
0000
0000
0000
,  // measure 60
3003
0000
0000
0000
;

//---------------dance-single - ----------------
#NOTES:
     dance-single:
     :
     Beginner:
     2:
     0.138,0.189,0.000,0.000,0.000: // measure 1
0000
0000
0000
0000
,  // measure 2
0000
0000
0000
0000
,  // measure 3
0000
0000
0000
0000
,  // measure 4
0000
0000
0000
0000
,  // measure 5
1000
0000
0000
0000
,  // measure 6
0001
0000
0000
0000
,  // measure 7
0100
0000
0100
0000
,  // measure 8
0010
0000
0010
0010
,  // measure 9
0000
0000
0000
0000
,  // measure 10
1000
0000
1000
0000
,  // measure 11
0001
0000
0001
0000
,  // measure 12
0010
0000
0010
0000
,  // measure 13
0100
0000
0100
0000
,  // measure 14
1000
0000
1000
0000
,  // measure 15
0010
0000
0010
0000
,  // measure 16
0100
0000
0100
0000
,  // measure 17
0001
0000
0001
0000
,  // measure 18
1000
0000
0000
0000
,  // measure 19
0001
0000
0000
0000
,  // measure 20
0100
0000
0000
0000
,  // measure 21
0010
0000
0000
0000
,  // measure 22
1000
0000
0000
0000
,  // measure 23
0001
0000
0000
0000
,  // measure 24
0100
0000
0000
0000
,  // measure 25
0010
0000
0000
0000
,  // measure 26
1000
0000
0000
0000
,  // measure 27
0100
0000
0000
0000
,  // measure 28
0010
0000
0000
0000
,  // measure 29
0001
0000
0000
0000
,  // measure 30
1000
0000
0000
0000
,  // measure 31
0010
0000
0000
0000
,  // measure 32
0100
0000
0000
0000
,  // measure 33
0001
0000
0000
0000
,  // measure 34
1000
0000
1000
0000
,  // measure 35
0001
0000
0001
0000
,  // measure 36
0010
0000
0010
0000
,  // measure 37
0100
0000
0000
0000
,  // measure 38
1000
0000
1000
0000
,  // measure 39
0010
0000
0010
0000
,  // measure 40
0100
0000
0100
0000
,  // measure 41
0001
0000
0000
0000
,  // measure 42
1000
0000
1000
0000
,  // measure 43
0100
0000
0100
0000
,  // measure 44
0010
0000
0010
0000
,  // measure 45
0001
0000
0000
0000
,  // measure 46
1000
0000
1000
0000
,  // measure 47
0010
0000
0010
0000
,  // measure 48
0100
0000
0100
0000
,  // measure 49
0001
0001
0001
0000
,  // measure 50
1000
0000
1000
0000
,  // measure 51
0100
0000
0100
0000
,  // measure 52
0010
0000
0010
0000
,  // measure 53
0001
0000
0001
0000
,  // measure 54
1000
0000
1000
0000
,  // measure 55
0010
0000
0010
0000
,  // measure 56
0100
0000
0100
0000
,  // measure 57
0001
0000
0001
0000
,  // measure 58
1000
0000
0001
0000
,  // measure 59
1000
1000
0001
0000
;

//---------------dance-single - ----------------
#NOTES:
     dance-single:
     :
     Easy:
     4:
     0.360,0.508,0.237,0.248,0.000: // measure 1
0000
0000
0000
0000
,  // measure 2
0000
0000
0000
0000
,  // measure 3
0000
0000
0000
0000
,  // measure 4
0000
0000
0000
0000
,  // measure 5
1000
0010
0200
0300
,  // measure 6
0001
0010
0200
0300
,  // measure 7
1000
0100
0001
0100
,  // measure 8
1000
0000
0010
0000
0100
0000
0001
0001
,  // measure 9
0000
0000
0000
0000
,  // measure 10
2002
3003
0001
0100
,  // measure 11
0220
0330
0010
1000
,  // measure 12
0001
0010
0100
0010
,  // measure 13
1000
0010
0100
1000
,  // measure 14
2002
3003
0001
0010
,  // measure 15
0220
0330
0100
1000
,  // measure 16
0010
0010
0100
0100
,  // measure 17
0001
0010
0100
1000
,  // measure 18
0001
0100
0001
0100
,  // measure 19
0010
0100
0010
0100
,  // measure 20
0010
1000
0010
1000
,  // measure 21
0001
0001
1000
1000
,  // measure 22
0100
1000
0100
1000
,  // measure 23
0100
0010
0100
0010
,  // measure 24
0001
0010
0001
0010
,  // measure 25
0001
0100
0010
0010
,  // measure 26
1000
0010
0001
0010
,  // measure 27
0100
0010
0001
0010
,  // measure 28
1000
0100
0010
0100
,  // measure 29
0001
0001
0100
0100
,  // measure 30
1000
0010
0001
0010
,  // measure 31
1000
0100
0001
0100
,  // measure 32
1000
0010
0100
0001
,  // measure 33
0010
0010
0200
0300
,  // measure 34
1100
0000
0101
0000
,  // measure 35
1000
0001
1000
0000
,  // measure 36
0001
0010
0100
1000
,  // measure 37
0001
0001
0100
0000
,  // measure 38
1010
0000
0011
0000
,  // measure 39
1000
0001
1000
0000
,  // measure 40
0001
0100
1000
0100
,  // measure 41
0010
0010
0100
0000
,  // measure 42
0011
0000
1100
0000
,  // measure 43
0001
0100
0010
0000
,  // measure 44
1000
0010
0001
0010
,  // measure 45
0100
0100
0001
0000
,  // measure 46
1100
0000
0011
0000
,  // measure 47
0001
0100
0010
0000
,  // measure 48
1000
0100
0010
0001
,  // measure 49
1001
1001
2002
3003
,  // measure 50
2002
3003
0001
0100
,  // measure 51
0220
0330
0010
1000
,  // measure 52
0001
0010
0100
0010
,  // measure 53
1000
0010
0100
1000
,  // measure 54
2002
3003
0001
0010
,  // measure 55
0220
0330
0100
1000
,  // measure 56
0010
0010
0100
0100
,  // measure 57
0001
0010
0100
1000
,  // measure 58
0001
0001
1000
1000
,  // measure 59
1001
0110
2002
0000
,  // measure 60
3003
0000
0000
0000
;

//---------------dance-single - ----------------
#NOTES:
     dance-single:
     :
     Medium:
     6:
     0.540,0.540,0.452,0.463,0.011: // measure 1
0000
0000
0000
0000
,  // measure 2
0000
0000
0000
0000
,  // measure 3
0000
0000
0000
0000
,  // measure 4
0000
0000
0000
0000
,  // measure 5
1000
0000
0001
0100
0002
0000
1003
0000
,  // measure 6
0001
0000
1000
0010
2000
0000
3001
0000
,  // measure 7
1000
0100
1000
0000
0001
0100
0001
0000
,  // measure 8
1000
0010
1000
0000
0001
0010
0100
1000
,  // measure 9
0000
0000
0000
0000
,  // measure 10
0102
0000
1003
0000
0001
0100
0010
0000
,  // measure 11
2010
0000
3001
0000
1000
0010
0100
0000
,  // measure 12
0001
0010
0001
0000
0010
1000
0010
0000
,  // measure 13
1000
0100
1000
0000
0100
0001
0100
0000
,  // measure 14
0012
0000
0103
0000
0001
0010
0100
0000
,  // measure 15
2100
0000
3010
0000
1000
0010
0100
0000
,  // measure 16
0001
0101
1000
1100
,  // measure 17
0001
1000
0001
1000
0010
0100
0010
0100
,  // measure 18
0001
0101
0001
1001
,  // measure 19
0002
0013
2000
3010
,  // measure 20
0001
0101
0001
1001
,  // measure 21
1000
1000
0001
0001
1000
1000
0001
0001
,  // measure 22
1000
1010
1000
1001
,  // measure 23
2000
3100
0002
0103
,  // measure 24
1000
1010
1000
1001
,  // measure 25
1000
0000
0100
0000
0001
0000
0100
0000
0010
0000
0000
0010
0000
0000
0010
0000
,  // measure 26
0100
0110
0100
0101
,  // measure 27
0200
1300
0200
0301
,  // measure 28
0100
0110
0100
1100
,  // measure 29
0100
0100
0010
0010
0100
0100
0010
0010
,  // measure 30
2000
0000
0000
3200
0000
0000
0310
0000
,  // measure 31
0002
0000
0000
0203
0000
0000
0310
0000
,  // measure 32
2000
0000
0000
3002
0000
0000
0103
0000
,  // measure 33
0001
0100
1000
0010
0002
0000
1003
0000
,  // measure 34
2100
3001
0102
1003
,  // measure 35
0001
1000
0001
0000
1001
0000
0110
0000
,  // measure 36
1000
0100
0001
0010
,  // measure 37
1000
0010
0001
0100
2000
0000
3001
0000
,  // measure 38
0012
1003
2010
3001
,  // measure 39
1000
0001
1000
0000
1001
0000
0110
0000
,  // measure 40
0001
0100
1000
0010
,  // measure 41
0001
0000
0000
0001
0000
0000
0001
0000
0200
0000
0000
0000
0310
0000
0000
0000
,  // measure 42
0012
1003
2010
3001
,  // measure 43
1000
0001
1000
0000
1001
0000
0110
0000
,  // measure 44
0001
0010
1000
0100
,  // measure 45
0001
0100
1000
0010
0002
0000
1003
0000
,  // measure 46
2100
3001
0102
1003
,  // measure 47
0001
1000
0001
0000
1001
0000
0110
0000
,  // measure 48
1000
0010
0001
0100
,  // measure 49
1000
0001
1000
0001
0220
0000
0330
0000
,  // measure 50
2010
0000
3001
0000
1000
0010
0100
0000
,  // measure 51
0102
0000
1003
0000
0001
0100
0010
0000
,  // measure 52
1000
0100
1000
0000
0100
0001
0100
0000
,  // measure 53
0001
0010
0001
0000
0010
1000
0010
0000
,  // measure 54
2100
0000
3010
0000
1000
0100
0010
0000
,  // measure 55
0012
0000
0103
0000
0001
0100
0010
0000
,  // measure 56
1000
1010
0001
0011
,  // measure 57
1000
0001
1000
0001
0200
0000
0310
0000
,  // measure 58
2000
3200
0302
0023
,  // measure 59
1030
0001
1000
0001
0220
0000
0000
0000
,  // measure 60
0330
0000
0000
0000
;
