#TITLE:Echoes;
#SUBTITLE:;
#ARTIST:Nekomata Master;
#TITLETRANSLIT:;
#SUBTITLETRANSLIT:;
#ARTISTTRANSLIT:;
#CREDIT:;
#BANNER:;
#BACKGROUND:;
#LYRICSPATH:;
#CDTITLE:;
#MUSIC:Echoes.mp3;
#OFFSET:-6.425;
#SAMPLESTART:80.555;
#SAMPLELENGTH:12.750;
#SELECTABLE:YES;
#DISPLAYBPM:75.000:151.000;
#BPMS:0.000=75.250,40.000=150.500;
#STOPS:143.000=0.797
;
#BGCHANGES:;

//---------------dance-single - ----------------
#NOTES:
     dance-single:
     :
     Hard:
     8:
     0.519,0.524,0.393,0.334,0.159: // measure 1
2000
0000
0000
0000
3001
0000
0100
0010
,  // measure 2
0200
0000
0000
0000
0020
0000
0330
0010
,  // measure 3
1001
0000
0010
1000
0002
0100
0103
0010
,  // measure 4
2000
0100
3100
0010
0010
0001
1000
0001
,  // measure 5
0101
0010
1000
0100
0001
0100
1000
0001
,  // measure 6
2000
0000
0000
0000
0000
0000
0000
0000
0000
0000
0000
0000
0000
0000
0000
0000
3001
0000
0000
0000
0000
0000
0000
0000
1000
0000
0000
0001
0000
0000
1000
0000
,  // measure 7
0100
0010
0011
0000
0001
0100
1010
0200
,  // measure 8
0000
0310
0001
0100
1000
0001
0010
1000
,  // measure 9
1001
0001
0010
0100
0001
0100
0010
0001
,  // measure 10
2000
0000
0010
0000
0002
0000
0000
3003
,  // measure 11
1001
0000
0000
1000
0100
0000
0010
0000
0001
0000
0000
1000
0010
0000
0100
0000
,  // measure 12
0001
0000
0000
1000
0100
0000
0001
0000
0100
0000
0010
0000
0001
0000
1000
0000
,  // measure 13
0010
0000
0000
0100
0010
0000
1000
0000
0001
0000
0000
0010
0100
0000
1000
0000
,  // measure 14
0001
1000
0010
1000
0100
1000
0001
0010
,  // measure 15
0110
0000
0000
0010
0001
0000
1000
0000
0100
0000
0000
1000
0010
0000
0100
0000
,  // measure 16
0001
0000
0000
0010
0001
0000
1000
0000
0100
0000
1000
0001
1000
0000
0001
0000
,  // measure 17
0100
0000
0000
0010
1000
0000
0001
0000
0010
0000
0000
0001
1000
0000
0010
0000
,  // measure 18
1000
0100
0001
1000
0010
0100
1000
0001
,  // measure 19
0101
0000
0000
0000
1010
0000
0000
0000
1100
0000
0000
0000
0001
0000
0010
0001
,  // measure 20
0010
0000
0001
0000
1000
0010
0001
0010
,  // measure 21
1000
0000
0100
0000
0010
0001
1000
0010
,  // measure 22
0100
0010
1000
0001
0000
0100
0010
0000
,  // measure 23
1001
0000
0000
0000
0011
0000
0000
0000
1100
0000
0000
0000
0001
0000
1000
0010
,  // measure 24
1000
0000
0010
0100
0001
0010
0000
0100
,  // measure 25
1000
0001
0100
0001
0010
0100
1000
0100
,  // measure 26
0010
0001
1000
1000
0010
0100
0001
1000
,  // measure 27
2200
0000
3300
0000
1000
0100
0001
1000
,  // measure 28
0010
0000
0001
1000
0001
0000
0200
0000
0000
0000
0310
0000
0000
0000
0100
0000
,  // measure 29
2002
0000
0000
0003
0000
0000
0100
0000
0100
0000
0100
0000
,  // measure 30
0200
0000
0000
0000
3300
0000
0010
0001
1000
0000
0000
0000
0101
0000
0000
0000
,  // measure 31
0220
0000
0000
0030
0000
0000
0001
0000
0001
0000
0001
0000
,  // measure 32
0002
0000
0000
0000
0303
0000
0001
1000
0001
0000
1000
0000
0100
0000
0010
0000
,  // measure 33
0020
0000
0000
0000
0030
0000
0001
0010
0100
0000
0000
0000
1000
0000
0000
0000
,  // measure 34
2002
0000
0000
0000
0000
0000
0000
0000
0000
0000
0000
0000
3003
0000
0000
0000
0000
0000
1000
0000
0000
0010
0000
0000
0100
0000
0000
0000
0000
0000
0000
0000
0001
0000
0000
0000
0000
0000
0000
0000
0100
0000
0000
0000
0000
0000
0000
0000
,  // measure 35
2020
0000
0000
0000
3030
0000
0000
0000
1001
0000
0000
0000
0001
0000
0010
0001
,  // measure 36
0020
0000
0000
0000
0030
0000
0100
1000
0100
0000
1000
0002
2000
3003
0000
0000
,  // measure 37
1001
0000
0001
0010
0110
0000
1001
0000
,  // measure 38
1000
0010
0100
0001
0010
0100
1000
0000
,  // measure 39
0001
0010
1000
0000
1010
0000
0011
0000
,  // measure 40
1001
0000
0000
0000
1000
0000
0010
0000
0100
0000
0001
0100
0001
0000
1000
0000
,  // measure 41
1100
0101
0011
0101
,  // measure 42
1100
1010
0110
0101
,  // measure 43
1000
0000
0010
0000
0000
1000
0000
0000
0001
0000
1000
0000
0000
0100
0000
0000
,  // measure 44
0010
0000
0001
0000
0000
0010
0000
0000
0001
1000
0001
0000
1000
0000
0010
0000
,  // measure 45
1010
0000
0101
0000
1000
0100
0001
0000
,  // measure 46
0100
0010
0100
1000
0001
0100
0010
0000
,  // measure 47
1000
0100
0001
0100
0010
0100
1000
0010
,  // measure 48
0001
0010
1000
0100
0010
0001
0100
0000
,  // measure 49
1010
0011
0101
1100
,  // measure 50
0101
0011
1010
1001
,  // measure 51
1000
0000
0100
0000
1000
0100
0000
0000
0010
0000
0001
0000
0010
0001
0000
0000
,  // measure 52
1000
0000
0001
0000
1000
0001
0000
0000
1000
0000
0010
0100
0010
0000
1000
0000
,  // measure 53
1002
0000
0000
0000
0023
0000
0000
0100
,  // measure 54
0230
0000
2300
0010
,  // measure 55
3002
0000
0203
0000
,  // measure 56
2300
0000
3200
0310
,  // measure 57
2002
0000
0000
3003
,  // measure 58
0022
0003
1000
0001
,  // measure 59
0200
0000
0030
0000
,  // measure 60
2000
0000
0000
3300
;

//---------------dance-single - ----------------
#NOTES:
     dance-single:
     :
     Beginner:
     1:
     0.135,0.197,0.109,0.000,0.000: // measure 1
1000
0000
0001
0000
,  // measure 2
0100
0000
0010
0000
,  // measure 3
1001
0000
0000
0000
,  // measure 4
1000
1000
0001
0001
,  // measure 5
1000
0000
0001
0000
,  // measure 6
0100
0000
0000
0000
,  // measure 7
1001
0000
1000
0000
,  // measure 8
0100
0100
0010
0010
,  // measure 9
0100
0000
1000
0000
,  // measure 10
0001
0000
1001
0000
,  // measure 11
1001
0000
0000
0000
,  // measure 12
1000
0000
0010
0000
,  // measure 13
0100
0000
0001
0000
,  // measure 14
0100
0000
0001
0000
,  // measure 15
1000
0000
0000
0000
,  // measure 16
0001
0000
0010
0000
,  // measure 17
0100
0000
0010
0000
,  // measure 18
1001
0000
0000
0000
,  // measure 19
0100
0100
0100
0000
,  // measure 20
0010
0000
1000
0000
,  // measure 21
0001
0000
0000
0000
,  // measure 22
1000
0000
0000
0000
,  // measure 23
0001
0001
0001
0000
,  // measure 24
1000
0000
0100
0000
,  // measure 25
0010
0000
0000
0000
,  // measure 26
0100
0000
1000
0000
,  // measure 27
1001
0000
0000
0000
,  // measure 28
0001
0000
0100
0000
,  // measure 29
0110
0000
0000
0000
,  // measure 30
1000
0000
0000
0000
,  // measure 31
0001
0000
0000
0000
,  // measure 32
1000
0000
0100
0000
,  // measure 33
0010
0000
0010
0000
,  // measure 34
0100
0000
0100
0000
,  // measure 35
1001
0000
0000
0000
,  // measure 36
0000
0000
0000
0000
,  // measure 37
0110
0000
0100
0000
,  // measure 38
0010
0000
0000
0000
,  // measure 39
1000
0000
0100
0000
,  // measure 40
0010
0000
0001
0000
,  // measure 41
1001
0000
0000
0000
,  // measure 42
1000
0000
0010
0000
,  // measure 43
0100
0000
0010
0000
,  // measure 44
0100
0000
0000
0000
,  // measure 45
0110
0000
0010
0000
,  // measure 46
1000
0000
0001
0000
,  // measure 47
1000
0000
0100
0000
,  // measure 48
0010
0000
0000
0000
,  // measure 49
0100
0000
0010
0000
,  // measure 50
0001
0000
1000
0000
,  // measure 51
0001
0000
0000
0000
,  // measure 52
1000
0000
0001
0000
,  // measure 53
1001
0000
0000
0000
,  // measure 54
1000
0000
0000
0000
,  // measure 55
0010
0000
0100
0000
,  // measure 56
0010
0000
0100
0000
,  // measure 57
0001
0000
0000
0000
,  // measure 58
1000
0000
0000
0000
,  // measure 59
0001
0000
0000
0000
,  // measure 60
1001
0000
0000
0000
;

//---------------dance-single - ----------------
#NOTES:
     dance-single:
     :
     Easy:
     4:
     0.246,0.275,0.117,0.100,0.000: // measure 1
1001
0000
1000
0100
,  // measure 2
1000
0000
2002
3003
,  // measure 3
0110
0000
0010
0000
,  // measure 4
0100
0001
0100
0001
,  // measure 5
1000
0000
0001
0000
,  // measure 6
1000
0000
0010
0100
,  // measure 7
0010
0001
1001
0000
,  // measure 8
1000
0010
0110
0000
,  // measure 9
0100
0001
1000
0100
,  // measure 10
0010
0100
0020
0030
,  // measure 11
0001
0010
0001
0010
,  // measure 12
0100
1000
0100
0000
,  // measure 13
1000
0010
1000
0010
,  // measure 14
0100
0001
0100
0010
,  // measure 15
1000
0100
0010
0001
,  // measure 16
1000
0010
0100
0001
,  // measure 17
1000
0100
0010
0001
,  // measure 18
1000
0001
2002
3003
,  // measure 19
0010
1000
0100
0000
,  // measure 20
0010
0001
0100
0001
,  // measure 21
2000
0000
0010
0000
,  // measure 22
0001
0001
0001
3001
,  // measure 23
0001
0010
0100
0000
,  // measure 24
0010
0001
0100
0010
,  // measure 25
0200
0000
0001
0000
,  // measure 26
0010
0010
0010
0310
,  // measure 27
1001
0000
0001
2000
,  // measure 28
0001
0001
0001
3001
,  // measure 29
0110
0000
0010
1000
,  // measure 30
0001
0000
1000
0000
,  // measure 31
0100
0000
0010
0001
,  // measure 32
0100
0000
0010
1000
,  // measure 33
0001
0000
1000
0100
,  // measure 34
1000
0000
0001
0000
,  // measure 35
0200
0000
0001
0000
,  // measure 36
0020
0000
0000
0330
,  // measure 37
1000
0010
0100
0001
,  // measure 38
0000
0100
0001
1000
,  // measure 39
0000
0001
0010
1000
,  // measure 40
0010
0001
0010
0001
,  // measure 41
1001
0000
1000
0010
,  // measure 42
0100
0001
0100
1000
,  // measure 43
0100
0000
0010
0000
,  // measure 44
1000
0000
0100
0010
,  // measure 45
0100
0000
0010
0001
,  // measure 46
0000
1000
0001
0100
,  // measure 47
0000
0010
0100
0001
,  // measure 48
1000
0100
0010
0100
,  // measure 49
0110
0000
0010
0001
,  // measure 50
0100
1000
0100
0001
,  // measure 51
1000
0000
0001
1000
,  // measure 52
0100
0010
0100
1000
,  // measure 53
0001
0000
1001
0000
,  // measure 54
1000
0000
0010
0100
,  // measure 55
0010
0000
0100
0000
,  // measure 56
0001
0000
1000
0001
,  // measure 57
1001
0000
0000
0000
,  // measure 58
0001
0000
0100
0010
,  // measure 59
0110
0000
0000
0000
,  // measure 60
2002
0000
0000
3003
;

//---------------dance-single - ----------------
#NOTES:
     dance-single:
     :
     Medium:
     7:
     0.394,0.424,0.259,0.217,0.046: // measure 1
0002
0000
0000
0000
1003
0000
0001
1000
,  // measure 2
0002
0000
0200
0303
,  // measure 3
1001
0000
1000
0100
2000
0000
3001
0100
,  // measure 4
0002
0000
1003
0100
0010
0001
0100
0010
,  // measure 5
0200
0000
0310
0100
0010
1000
0001
1000
,  // measure 6
0002
0000
0200
0303
,  // measure 7
1001
0000
1100
0000
0010
0001
0011
0000
,  // measure 8
0001
0100
0010
1000
0010
0100
0001
1000
,  // measure 9
0001
0000
1000
0100
0001
0100
1000
0001
,  // measure 10
2000
0000
0100
0000
0002
0000
0000
3003
,  // measure 11
0001
0000
0000
0010
0001
0000
0000
0000
1000
0000
0000
0100
1000
0000
0000
0000
,  // measure 12
0001
0000
0000
0100
0001
0000
0000
0000
1000
0000
0100
0000
0010
0000
0001
0000
,  // measure 13
0100
0000
0000
0010
0100
0000
0000
0000
0001
0000
0000
1000
0001
0000
0000
0000
,  // measure 14
1000
0100
0010
0001
0000
0100
0010
1000
,  // measure 15
0001
0000
1000
0100
0010
0000
0001
0100
,  // measure 16
0010
0000
0001
0010
1000
0001
1000
0100
,  // measure 17
0010
0000
0100
0001
1000
0000
0010
0100
,  // measure 18
0010
1000
0100
0000
2000
0000
3001
0000
,  // measure 19
1001
0000
1010
0000
0101
0000
0010
1000
,  // measure 20
0100
0000
0010
0000
0100
0010
0000
0010
,  // measure 21
0001
0000
1000
0000
0001
0100
0001
0000
,  // measure 22
1000
0100
0010
0100
1000
0000
0001
0000
,  // measure 23
0110
0000
1001
0000
0101
0000
0001
0100
,  // measure 24
0010
0000
1000
0000
0010
1000
0000
1000
,  // measure 25
0100
0000
0010
0000
0100
0000
0010
0001
,  // measure 26
0100
0000
0001
0100
0000
0010
1000
0000
,  // measure 27
1001
0000
0001
0000
0010
0000
0001
0010
,  // measure 28
0100
0010
0001
1000
0000
0001
1000
0000
,  // measure 29
1002
0000
0000
0000
0000
0000
0100
0000
0100
0000
0100
0000
,  // measure 30
0203
0000
1000
0010
,  // measure 31
0302
0000
0000
0000
0000
0000
1000
0000
1000
0000
1000
0000
,  // measure 32
2003
0000
0002
3003
,  // measure 33
1001
0000
0000
1000
0100
0000
0010
0000
,  // measure 34
0001
0000
0000
0000
0000
0000
0000
0000
0000
0001
0000
0000
0100
0000
0000
0000
0001
0000
0000
0000
1000
0000
0000
0000
,  // measure 35
0002
0000
2003
0000
,  // measure 36
0002
0000
0000
0000
0000
0000
0000
0000
0000
0000
0000
0000
0000
3003
0000
0000
,  // measure 37
1010
0000
0100
0000
0010
1000
0001
0000
,  // measure 38
1000
0100
0010
0100
,  // measure 39
0010
0001
1000
0000
0001
0000
0100
0000
,  // measure 40
1010
0101
0011
1100
,  // measure 41
0001
0010
1000
0000
0100
0000
1000
0000
,  // measure 42
0010
0001
0100
0001
,  // measure 43
1000
0100
1000
0000
0001
0010
0001
0000
,  // measure 44
1000
0010
0100
0010
0100
0000
1001
0000
,  // measure 45
0101
0000
1000
0000
0010
1000
0100
0000
,  // measure 46
0010
0000
0100
0000
0010
0001
0100
0000
,  // measure 47
0001
0100
1000
0000
0100
0000
0001
0000
,  // measure 48
1001
1100
0011
0101
,  // measure 49
1010
0000
1000
0100
0001
0000
0100
0000
,  // measure 50
1000
0010
0001
0010
,  // measure 51
1000
0010
0100
0000
0001
0010
0100
0000
,  // measure 52
0010
0001
1000
0001
0100
0000
1010
0000
,  // measure 53
1002
0000
0100
0000
,  // measure 54
0023
0000
0100
0001
,  // measure 55
0032
0000
2003
0000
,  // measure 56
3200
0000
0010
1300
,  // measure 57
1001
0000
0000
0000
,  // measure 58
1001
0000
0001
1000
,  // measure 59
1001
0000
0000
0000
,  // measure 60
0220
0000
0000
0330
;
