#VERSION:0.81;
#TITLE:Can I Get Get Get;
#SUBTITLE:;
#ARTIST:Junior Senior;
#TITLETRANSLIT:;
#SUBTITLETRANSLIT:;
#ARTISTTRANSLIT:;
#GENRE:;
#ORIGIN:;
#CREDIT:;
#BANNER:Can I Get Get Get.png;
#BACKGROUND:Can I Get Get Get-bg.png;
#PREVIEWVID:;
#JACKET:Can I Get Get Get-jacket.png;
#CDIMAGE:;
#DISCIMAGE:;
#LYRICSPATH:;
#CDTITLE:;
#MUSIC:Can I Get Get Get.mp3;
#OFFSET:-0.692;
#SAMPLESTART:38.260;
#SAMPLELENGTH:11.980;
#SELECTABLE:YES;
#BPMS:0.000=101.190;
#STOPS:;
#DELAYS:;
#WARPS:;
#TIMESIGNATURES:0.000=4=4;
#TICKCOUNTS:0.000=4;
#COMBOS:0.000=1;
#SPEEDS:0.000=1.000=0.000=0;
#SCROLLS:0.000=1.000;
#FAKES:;
#LABELS:0.000=Song Start;
#BGCHANGES:;
#KEYSOUNDS:;
#ATTACKS:
;

//---------------dance-single - ----------------
#NOTEDATA:;
#CHARTNAME:;
#STEPSTYPE:dance-single;
#DESCRIPTION:;
#CHARTSTYLE:;
#DIFFICULTY:Hard;
#METER:8;
#RADARVALUES:0.522,0.485,0.142,0.182,0.662,329.000,14.000,18.000,0.000,0.000,0.000,0.000,0.000,0.522,0.485,0.142,0.182,0.662,329.000,14.000,18.000,0.000,0.000,0.000,0.000,0.000;
#CREDIT:;
#OFFSET:-0.712;
#BPMS:0.000=101.190
;
#STOPS:;
#DELAYS:;
#WARPS:;
#TIMESIGNATURES:0.000=4=4
;
#TICKCOUNTS:0.000=4
;
#COMBOS:0.000=1
;
#SPEEDS:0.000=1.000=0.000=0
;
#SCROLLS:0.000=1.000
;
#FAKES:;
#LABELS:0.000=Song Start
;
#NOTES:
0000
0000
0000
0000
,
0000
0000
0000
0000
,
0000
0000
0000
0000
,
0000
0000
0000
0000
,
1000
0000
0100
0000
1000
0000
0000
0010
0000
0100
0001
0000
0001
0000
0010
0100
,
0000
0100
1000
0000
0001
0000
1000
0000
0000
0000
0000
0000
0000
0000
0000
0000
,
0001
0000
0100
0000
0001
0000
0000
0010
0000
0100
1000
0000
1000
0000
0010
0100
,
0000
0100
0001
0000
1000
0000
0001
0000
0200
0000
0000
0000
0310
0000
0000
0000
,
0000
0010
1000
0010
1000
0000
0001
0010
0001
0000
1000
0001
0000
1000
0010
1000
,
0000
0001
0100
0001
0000
0010
0100
0010
0100
1000
0000
0001
0000
1000
0010
0100
,
0010
1000
0000
0001
0000
0010
0000
0110
0000
0100
0010
0100
0000
1000
0001
1000
,
0010
0200
0000
0000
0300
0000
0001
0100
0000
1000
0100
0001
0000
0010
0100
0000
,
0110
0000
0100
0000
1000
0000
0010
0100
0000
0100
0010
1000
0000
0010
0100
0000
,
0110
0000
0100
0000
0001
0000
0010
0100
0000
0100
0010
0001
0000
0100
0010
0000
,
0110
0000
0010
0000
1000
0000
0100
0010
0000
0010
0100
1000
0000
0100
0010
0000
,
0110
0000
0010
0000
0001
0000
0100
0010
0000
0010
0100
0001
0000
0100
0010
0100
,
0010
0000
0010
0000
0010
0000
0010
1000
0000
1000
0100
0000
1000
0000
1000
0100
,
0000
0100
0010
0100
0020
0000
0002
0000
0000
0000
0033
0000
0000
0000
0010
0001
,
0100
0000
0100
0000
0100
0000
0100
0001
0000
0001
0010
0000
0010
0000
0010
0100
,
0000
0100
2000
0000
0020
0000
0000
0000
0000
0000
0000
0000
3030
0000
0010
0100
,
0001
0000
0001
0000
0001
0000
0100
0010
0000
0010
1000
0000
1000
0000
1000
0100
,
0000
0100
0010
0100
0020
0000
0002
0000
0000
0000
0000
0000
0033
0000
0010
0100
,
1000
0000
1000
0000
1000
0000
1000
0010
0000
0010
0100
0000
0100
0000
0100
0001
,
0000
0001
2000
0000
3010
0000
0000
0000
0110
0000
0000
0000
0101
0000
0000
0000
,
0000
0100
0001
0100
0001
0000
1000
0010
1000
0010
1000
0002
0000
0000
0000
0000
,
0013
0100
1000
0001
1000
0000
0100
0000
0001
0100
1000
0010
0100
0000
0010
0000
,
0100
0001
1000
0001
0100
0000
1000
0000
0100
0001
0010
0100
1000
0000
0001
0000
,
0100
0010
0100
0010
1000
0000
0000
0010
0000
0100
0001
0010
0000
0100
1000
0000
,
1100
0000
0100
0000
0010
0000
0001
0100
0000
0001
0010
0100
0000
0010
0001
0000
,
0011
0000
0001
0000
0100
0000
0010
1000
0000
0100
1000
0010
0000
0100
0001
0000
,
0101
0000
0100
0000
0010
0000
1000
0100
0000
1000
0010
0100
0000
0010
1000
0000
,
1010
0000
1000
0000
0100
0000
0010
0001
0000
0100
0001
0010
0000
0100
1000
0100
,
1000
0000
1000
0000
1000
0000
1000
0010
0000
0010
0100
0000
0010
0000
1000
0100
,
0000
1000
0100
1000
0200
0000
0020
0000
0000
0000
0000
0000
0330
0000
0010
0001
,
0100
0000
0100
0000
0100
0000
0100
0001
0000
0001
0010
0000
0010
0000
0010
0100
,
0000
0100
2000
0000
0020
0000
0000
0000
3030
0000
0000
0000
0000
0100
0001
0100
,
0001
0000
0001
0000
0001
0000
0001
0010
0000
0010
0100
0000
0100
0000
0100
0010
,
0000
0010
0001
0010
0002
0000
0020
0000
0000
0000
0000
0000
0033
0000
0010
0100
,
0010
0000
0010
0000
0010
0000
0010
0100
0000
0100
1000
0000
1000
0000
1000
0010
,
0000
0010
0200
0000
0002
0000
0303
0000
1001
0000
0000
0000
0101
0000
0000
0000
,
1001
0000
0000
0000
;

//---------------dance-single - ----------------
#NOTEDATA:;
#CHARTNAME:;
#STEPSTYPE:dance-single;
#DESCRIPTION:;
#CHARTSTYLE:;
#DIFFICULTY:Medium;
#METER:5;
#RADARVALUES:0.316,0.283,0.142,0.000,0.000,205.000,14.000,0.000,0.000,0.000,0.000,0.000,0.000,0.316,0.283,0.142,0.000,0.000,205.000,14.000,0.000,0.000,0.000,0.000,0.000,0.000;
#CREDIT:;
#OFFSET:-0.672;
#BPMS:0.000=101.190
;
#STOPS:;
#DELAYS:;
#WARPS:;
#TIMESIGNATURES:0.000=4=4
;
#TICKCOUNTS:0.000=4
;
#COMBOS:0.000=1
;
#SPEEDS:0.000=1.000=0.000=0
;
#SCROLLS:0.000=1.000
;
#FAKES:;
#LABELS:0.000=Song Start
;
#NOTES:
0000
0000
0000
0000
,
0000
0000
0000
0000
,
0000
0000
0000
0000
,
0000
0000
0000
0000
,
1000
0001
0100
0000
0010
0010
0010
0000
,
1000
0100
1000
0001
0000
0000
0000
0000
,
0001
1000
0100
0000
0010
0010
0010
0000
,
0001
0100
0001
1000
0000
0000
0000
0000
,
0001
0100
0001
0000
0010
0100
0010
0000
,
0001
1000
0100
0000
1000
0010
1000
0000
,
0010
0100
0010
0000
1000
0001
0010
0000
,
0100
0010
0100
0000
1000
0001
0010
0000
,
0110
0100
0010
0000
0100
1000
0010
0000
,
0110
0010
0100
0000
0100
0001
0010
0000
,
0110
0100
1000
0000
0010
0100
0010
0000
,
0110
0100
0001
0000
0010
0010
0010
0000
,
0100
1000
1000
0000
0001
0100
0100
0000
,
0001
0001
0001
0000
0010
0000
0110
0000
,
0010
0001
0001
0000
1000
0010
0010
0000
,
0100
0100
0100
0000
0001
0000
1000
0000
,
0001
0010
0010
0000
0100
1000
1000
0000
,
0010
0010
0010
0000
0100
0000
0001
0000
,
1000
0010
0010
0000
0100
0001
0001
0000
,
0010
0010
0010
0000
0110
0000
1001
0000
,
1000
0001
0100
0000
1000
0100
0001
0000
,
0010
0100
1000
0000
0001
0010
0001
0000
,
0001
1000
0100
0000
0001
0100
1000
0000
,
0010
0100
0010
0000
0100
0001
1000
0000
,
1001
1000
0100
0000
0010
0001
0010
0000
,
1001
0001
0100
0000
0010
1000
0010
0000
,
1001
1000
0010
0000
0100
0001
0100
0000
,
1001
0001
0010
0000
0100
1000
0100
0000
,
0010
0001
0001
0000
1000
0010
0010
0000
,
0100
0100
0100
0000
0001
0000
1000
0000
,
0001
0100
0100
0000
0010
1000
1000
0000
,
0001
0001
0001
0000
0010
0000
0100
0000
,
0010
0100
0100
0000
1000
0001
0001
0000
,
0100
0100
0100
0000
0010
0000
1000
0000
,
0100
0010
0010
0000
0001
1000
1000
0000
,
0010
0010
0010
0000
0110
0000
1001
0000
,
0110
0000
0000
0000
;

//---------------dance-single - ----------------
#NOTEDATA:;
#CHARTNAME:;
#STEPSTYPE:dance-single;
#DESCRIPTION:;
#CHARTSTYLE:;
#DIFFICULTY:Easy;
#METER:3;
#RADARVALUES:0.217,0.202,0.101,0.162,0.000,124.000,10.000,16.000,0.000,0.000,0.000,0.000,0.000,0.217,0.202,0.101,0.162,0.000,124.000,10.000,16.000,0.000,0.000,0.000,0.000,0.000;
#CREDIT:;
#NOTES:
0000
0000
0000
0000
,
0000
0000
0000
0000
,
0000
0000
0000
0000
,
0000
0000
0000
0000
,
0000
1000
0000
0001
,
0000
0100
0000
0010
,
0000
1000
0000
0100
,
0000
0010
0001
1001
,
1000
0001
0100
0100
,
0001
0010
1000
1000
,
0010
0001
0100
0100
,
0010
1000
0100
0100
,
0210
0000
0010
0310
,
1002
0000
1000
1003
,
0120
0000
0100
0130
,
2001
0000
0001
3001
,
1000
1000
0001
0001
,
0100
0200
0000
0310
,
0001
0001
1000
1000
,
0100
0200
0000
0310
,
0100
0100
1000
1000
,
0001
0002
0000
0103
,
0100
0100
0001
0001
,
1000
2000
0010
3010
,
1000
0001
1000
0010
,
1000
0001
1000
0100
,
0010
0001
0010
0100
,
0010
0001
1000
0010
,
0210
0000
0010
0310
,
2001
0000
0001
3001
,
0210
0000
0010
0310
,
1002
0000
1000
1003
,
0001
0001
1000
1000
,
0010
0020
0000
0130
,
1000
1000
0001
0001
,
0010
0020
0000
0130
,
0010
0010
0001
0001
,
1000
2000
0000
3010
,
0010
0010
1000
1000
,
0001
0002
0100
0103
,
0101
0000
0000
0000
;
