#TITLE:A Geisha's Dream (Ruffage Remix);
#SUBTITLE:;
#ARTIST:NAOKI feat. SMiLE.dk;
#TITLETRANSLIT:;
#SUBTITLETRANSLIT:;
#ARTISTTRANSLIT:;
#GENRE:;
#CREDIT:;
#MENUCOLOR:ddrgreen;
#METERTYPE:DDR;
#BANNER:A Geisha's Dream (Ruffage Remix).png;
#BACKGROUND:A Geisha's Dream.png;
#LYRICSPATH:;
#CDTITLE:./CDTITLES/DanceDanceRevolution 2010.png;
#MUSIC:A Geisha's Dream (Ruffage Remix).mp3;
#OFFSET:1.659;
#SAMPLESTART:29.180;
#SAMPLELENGTH:15.000;
#SELECTABLE:YES;
#LISTSORT:;
#BPMS:0.000=140.000;
#STOPS:;
#BGCHANGES:;
#ATTACKS:;

//---------------dance-single - ----------------
#NOTES:
     dance-single:
     :
     Hard:
     8:
     0.521,0.552,0.450,0.478,0.033: // measure 1
0000
0000
0000
0000
,  // measure 2
0000
0000
0000
0000
,  // measure 3
0000
0000
0000
0000
,  // measure 4
0000
0000
0000
0000
,  // measure 5
0000
0000
0000
0000
,  // measure 6
0000
0000
0000
0000
,  // measure 7
1000
0000
1000
0001
0100
0010
0100
0001
,  // measure 8
1000
0000
1010
0000
0101
0000
1000
0001
,  // measure 9
0010
0000
0100
1000
0020
0000
1030
0000
,  // measure 10
1010
0101
2002
3003
,  // measure 11
0011
0000
1001
0000
0001
0100
0010
0000
,  // measure 12
1000
0100
0010
0000
0011
0000
1100
0000
,  // measure 13
1010
0000
0010
0100
0001
0000
1000
0000
,  // measure 14
0001
1000
0010
1000
0001
0000
1000
0010
,  // measure 15
0100
0000
0110
0000
1001
0000
0010
0100
,  // measure 16
0001
0000
1000
0010
0100
0000
0001
1000
,  // measure 17
0010
0000
0100
0001
1000
0000
0010
0000
,  // measure 18
0100
0001
1000
0001
0202
0000
0303
0000
,  // measure 19
2001
3002
0203
0320
,  // measure 20
2030
0000
3001
0100
0020
0000
2030
0000
,  // measure 21
3002
0000
0003
1000
0200
0000
0300
0010
,  // measure 22
0001
1000
0100
0010
0200
0000
0300
0000
,  // measure 23
1002
0203
0320
2030
,  // measure 24
3002
0000
0103
0001
1001
0000
1010
0000
,  // measure 25
0220
0000
0000
0330
1001
0000
0000
0000
,  // measure 26
0001
1000
0010
1000
0001
0000
1001
0000
,  // measure 27
2010
0010
0010
0010
,  // measure 28
3002
0100
0100
0100
,  // measure 29
0203
0001
0001
0001
,  // measure 30
0301
1000
0000
0000
0001
0000
0000
0000
1000
0000
0100
0000
0001
0000
0100
0000
,  // measure 31
1000
0000
0010
1000
0100
0000
1000
0001
,  // measure 32
0100
0010
0100
0001
1000
0000
0010
1000
,  // measure 33
0001
0000
1000
0001
0100
0000
0100
0001
,  // measure 34
0010
1000
0010
0001
0100
0000
0100
0001
,  // measure 35
1000
0000
1000
0100
0001
0100
1000
0010
,  // measure 36
0100
0001
0100
0010
0100
0000
0001
0100
,  // measure 37
0010
0000
1000
0010
0100
0000
1001
0000
,  // measure 38
0100
0000
0001
0000
1000
0000
0001
0000
0100
0010
0000
0100
0010
0000
0000
0000
,  // measure 39
1001
0000
1100
0000
0001
0100
0010
0000
,  // measure 40
1001
0000
0101
0000
0110
0000
1000
0010
,  // measure 41
0100
0000
0001
0100
0010
0000
1001
0000
,  // measure 42
0001
0100
0010
0100
0001
0000
1000
0010
,  // measure 43
0200
0000
0302
0000
0023
0000
0130
1000
,  // measure 44
0001
0000
0100
0001
0010
0000
0100
0010
,  // measure 45
0100
0000
0001
0100
0010
0000
1001
0000
,  // measure 46
1000
0000
0001
0000
0100
0000
0001
0000
1000
0001
0000
1000
0001
0000
0000
0000
,  // measure 47
0200
0320
2030
3002
,  // measure 48
0203
0000
0310
1000
1001
0000
1100
0000
,  // measure 49
0220
0000
0330
0001
2000
0000
0000
3001
,  // measure 50
1000
0100
1000
0001
0202
0000
0303
0000
,  // measure 51
0002
0023
0230
2300
,  // measure 52
3002
0000
0013
0001
1000
0000
2000
0000
,  // measure 53
3020
0000
0000
0130
0001
0000
0000
0000
,  // measure 54
1000
0000
0010
0000
0100
0000
0010
0000
0010
1000
0000
0010
1000
0000
0000
0000
,  // measure 55
0101
0011
0110
1100
,  // measure 56
0110
0000
0001
0010
0100
0000
1001
0000
,  // measure 57
0202
0000
0303
0000
1000
0010
0000
0001
,  // measure 58
1000
0010
0100
0010
1000
0001
0000
0000
,  // measure 59
1001
0110
1001
1100
,  // measure 60
0101
0000
0001
0010
0100
0000
1100
0000
,  // measure 61
0202
0000
0303
0000
0010
1000
0000
0000
,  // measure 62
0001
0010
0100
1000
2002
0000
0000
0000
,  // measure 63
3003
0000
0000
0000
;

//---------------dance-single - ----------------
#NOTES:
     dance-single:
     :
     Beginner:
     2:
     0.190,0.260,0.000,0.234,0.000: // measure 1
0000
0000
0000
0000
,  // measure 2
0000
0000
0000
0000
,  // measure 3
0000
0000
0000
0000
,  // measure 4
0000
0000
0000
0000
,  // measure 5
0000
0000
0000
0000
,  // measure 6
0000
0000
0000
0000
,  // measure 7
1000
0000
1000
0000
,  // measure 8
0001
0001
0001
0000
,  // measure 9
0100
0000
0100
0000
,  // measure 10
0010
0010
0010
0000
,  // measure 11
1000
0000
1000
0000
,  // measure 12
0001
0000
0001
0000
,  // measure 13
0100
0000
0100
0000
,  // measure 14
0010
0000
0010
0000
,  // measure 15
1000
0000
1000
0000
,  // measure 16
0001
0000
0001
0000
,  // measure 17
1000
0000
1000
0000
,  // measure 18
0100
0100
0100
0000
,  // measure 19
0010
0010
0000
0000
,  // measure 20
0001
0001
0000
0000
,  // measure 21
2000
0000
3002
0000
,  // measure 22
0203
0000
0320
0000
,  // measure 23
1030
0000
1000
0000
,  // measure 24
0001
0000
0001
0000
,  // measure 25
0100
0000
0100
0000
,  // measure 26
0010
0000
0010
0000
,  // measure 27
2000
0000
0000
0000
,  // measure 28
3002
0000
0000
0000
,  // measure 29
0203
0000
0000
0000
,  // measure 30
0320
0000
0000
0000
,  // measure 31
1030
0000
1000
0000
,  // measure 32
0100
0000
0100
0000
,  // measure 33
0010
0010
0010
0000
,  // measure 34
0001
0000
0001
0000
,  // measure 35
1000
0000
1000
0000
,  // measure 36
0010
0000
0010
0000
,  // measure 37
0100
0000
0100
0000
,  // measure 38
0001
0000
0001
0000
,  // measure 39
1000
0000
0100
0000
,  // measure 40
0020
0000
0032
0000
,  // measure 41
0023
0000
0230
0000
,  // measure 42
1300
0000
1000
0000
,  // measure 43
0002
0000
0203
0000
,  // measure 44
0320
0000
2030
0000
,  // measure 45
3100
0000
0100
0000
,  // measure 46
0010
0000
0010
0000
,  // measure 47
0001
0000
0001
0000
,  // measure 48
1000
0000
1000
0000
,  // measure 49
0020
0000
0230
0000
,  // measure 50
0301
0000
0001
0000
,  // measure 51
1000
1000
0000
0000
,  // measure 52
0001
0001
0001
0000
,  // measure 53
0200
0000
0310
0000
,  // measure 54
0010
0010
0010
0000
,  // measure 55
0100
0100
0100
0000
,  // measure 56
0001
0001
0001
0000
,  // measure 57
2000
0000
3020
0000
,  // measure 58
0230
0000
0302
0000
,  // measure 59
1003
0000
1000
0000
,  // measure 60
0100
0000
0100
0000
,  // measure 61
0020
0000
0032
0000
,  // measure 62
1003
0010
0100
0000
;

//---------------dance-single - ----------------
#NOTES:
     dance-single:
     :
     Medium:
     6:
     0.319,0.519,0.263,0.178,0.000: // measure 1
0000
0000
0000
0000
,  // measure 2
0000
0000
0000
0000
,  // measure 3
0000
0000
0000
0000
,  // measure 4
0000
0000
0000
0000
,  // measure 5
0000
0000
0000
0000
,  // measure 6
0000
0000
0000
0000
,  // measure 7
1000
0000
0010
0100
0010
0000
1000
0000
,  // measure 8
0100
0001
0100
1000
,  // measure 9
1001
0001
0100
0010
,  // measure 10
0100
0001
1001
0000
,  // measure 11
1000
0100
0010
0000
,  // measure 12
0010
0100
1000
0001
,  // measure 13
0100
0001
1000
0010
,  // measure 14
0100
0010
1000
0000
,  // measure 15
0001
0000
0001
0000
0100
0000
0100
0010
,  // measure 16
0100
0100
0001
0001
,  // measure 17
1000
1000
0100
0100
,  // measure 18
0010
0001
0010
0001
0010
0000
0100
0000
,  // measure 19
1000
0000
0001
0000
,  // measure 20
1000
0100
0010
0000
,  // measure 21
0100
0000
1100
0000
,  // measure 22
1000
0001
1000
0001
,  // measure 23
0100
0001
0100
0010
,  // measure 24
0100
0010
1000
0010
,  // measure 25
0110
0000
1001
0000
,  // measure 26
1100
0110
0011
0000
,  // measure 27
0002
0000
0000
0000
,  // measure 28
0203
0000
0000
0000
,  // measure 29
0302
0000
0000
0000
,  // measure 30
2003
0000
0000
0000
,  // measure 31
3010
0000
0100
0001
,  // measure 32
1000
0001
0100
0000
,  // measure 33
0010
1000
0100
0010
,  // measure 34
0011
0011
1001
0000
,  // measure 35
1000
0000
0100
0010
,  // measure 36
0001
0010
0100
1000
,  // measure 37
0010
0100
0010
1000
,  // measure 38
0001
0100
0001
0000
1000
0000
0000
0000
,  // measure 39
0000
1000
0010
0100
,  // measure 40
0010
1000
0001
0100
,  // measure 41
0010
0100
0001
0000
,  // measure 42
1100
0110
0011
0000
,  // measure 43
0001
0100
0010
0000
,  // measure 44
0010
0100
0001
0000
,  // measure 45
1000
0010
0100
0010
,  // measure 46
1000
0001
0100
0000
,  // measure 47
0001
0100
0010
0100
,  // measure 48
0001
1000
0001
0100
,  // measure 49
0020
0030
2000
3000
,  // measure 50
0001
0100
0020
0030
,  // measure 51
1000
0100
0010
0001
,  // measure 52
1000
0100
0010
0001
,  // measure 53
2002
3003
0220
0330
,  // measure 54
1000
0100
0010
0100
,  // measure 55
1000
0001
1000
0000
0001
0100
0001
0000
,  // measure 56
0100
0000
0010
0100
0010
0000
1000
0000
,  // measure 57
2020
0000
0000
3030
0202
0000
0000
0303
,  // measure 58
0010
1000
0010
1000
0010
0000
0000
0000
,  // measure 59
0101
1001
1010
0110
,  // measure 60
0101
1001
1010
0110
,  // measure 61
2002
0000
0000
3003
0220
0000
0000
0330
,  // measure 62
1000
0100
0010
0001
1000
0000
0000
0000
;

//---------------dance-single - ----------------
#NOTES:
     dance-single:
     :
     Easy:
     4:
     0.265,0.346,0.075,0.150,0.000: // measure 1
0000
0000
0000
0000
,  // measure 2
0000
0000
0000
0000
,  // measure 3
0000
0000
0000
0000
,  // measure 4
0000
0000
0000
0000
,  // measure 5
0000
0000
0000
0000
,  // measure 6
0000
0000
0000
0000
,  // measure 7
1000
0000
1000
0001
,  // measure 8
1000
0000
0010
0100
,  // measure 9
0010
0000
0100
0001
,  // measure 10
0100
0000
0010
0000
,  // measure 11
1000
0010
1000
0000
,  // measure 12
0100
0010
0001
0000
,  // measure 13
1000
0001
1000
0000
,  // measure 14
0010
0100
0010
0000
,  // measure 15
1000
0100
0010
0000
,  // measure 16
0001
0010
0100
0000
,  // measure 17
1000
0100
0001
0000
,  // measure 18
0001
0100
1000
0000
,  // measure 19
1000
0100
0001
0100
,  // measure 20
1000
0000
0001
0010
,  // measure 21
2000
3000
0020
0030
,  // measure 22
0001
0001
0010
0000
,  // measure 23
0010
0100
0100
1000
,  // measure 24
1000
0100
0001
0100
,  // measure 25
2000
0000
3020
0000
,  // measure 26
0130
0001
0100
0000
,  // measure 27
0010
0010
1000
1000
,  // measure 28
0100
0100
0010
0010
,  // measure 29
0001
0001
1000
1000
,  // measure 30
0001
0001
0100
0100
,  // measure 31
0110
0000
1010
0000
,  // measure 32
1001
0000
0001
0000
,  // measure 33
0001
0100
0010
0000
,  // measure 34
0010
0100
0001
0000
,  // measure 35
1000
0000
1000
0100
,  // measure 36
1000
0001
0100
0000
,  // measure 37
0001
0100
1000
0000
,  // measure 38
1000
0100
0001
0000
,  // measure 39
0001
0010
1000
0010
,  // measure 40
0001
0010
0100
0000
,  // measure 41
0000
0001
0000
0000
,  // measure 42
0000
1000
0010
0100
,  // measure 43
0010
1000
0100
0010
,  // measure 44
0001
1000
0001
0000
,  // measure 45
0100
0010
1000
0010
,  // measure 46
0100
0001
1000
0000
,  // measure 47
0010
0100
0010
0100
,  // measure 48
0001
0100
0001
0000
,  // measure 49
2020
3030
0202
0303
,  // measure 50
1000
0010
0100
0000
,  // measure 51
0010
0100
0001
0100
,  // measure 52
0010
1000
0100
0010
,  // measure 53
0002
0003
2000
3000
,  // measure 54
0010
0100
0001
0000
,  // measure 55
0001
0010
0100
1000
,  // measure 56
0100
0001
0100
1000
,  // measure 57
0220
0330
2002
3003
,  // measure 58
0100
0010
1000
0000
,  // measure 59
0001
0001
1000
1000
,  // measure 60
0100
0100
0010
0010
,  // measure 61
0002
0000
2003
0000
,  // measure 62
3010
0100
0101
0000
;

//---------------dance-solo - Copied from----------------
#NOTES:
     dance-solo:
     Copied from:
     Medium:
     8:
     0.319,0.519,0.263,0.178,0.000:
000000
000000
000000
000000
,
000000
000000
000000
000000
,
000000
000000
000000
000000
,
000000
000000
000000
000000
,
000000
000000
000000
000000
,
000000
000000
000000
000000
,
100000
000000
001000
010000
001000
000000
100000
000000
,
010000
000100
010000
100000
,
100100
000100
010000
001000
,
010000
000100
100100
000000
,
100000
010000
001000
000000
,
001000
010000
100000
000100
,
010000
000100
100000
001000
,
010000
001000
100000
000000
,
000100
000000
000100
000000
010000
000000
010000
001000
,
010000
010000
000100
000100
,
100000
100000
010000
010000
,
001000
000100
001000
000100
001000
000000
010000
000000
,
100000
000000
000100
000000
,
100000
010000
001000
000000
,
010000
000000
110000
000000
,
100000
000100
100000
000100
,
010000
000100
010000
001000
,
010000
001000
100000
001000
,
011000
000000
100100
000000
,
110000
011000
001100
000000
,
000200
000000
000000
000000
,
020300
000000
000000
000000
,
030200
000000
000000
000000
,
200300
000000
000000
000000
,
301000
000000
010000
000100
,
100000
000100
010000
000000
,
001000
100000
010000
001000
,
001100
001100
100100
000000
,
100000
000000
010000
001000
,
000100
001000
010000
100000
,
001000
010000
001000
100000
,
000100
010000
000100
000000
100000
000000
000000
000000
,
000000
100000
001000
010000
,
001000
100000
000100
010000
,
001000
010000
000100
000000
,
110000
011000
001100
000000
,
000100
010000
001000
000000
,
001000
010000
000100
000000
,
100000
001000
010000
001000
,
100000
000100
010000
000000
,
000100
010000
001000
010000
,
000100
100000
000100
010000
,
002000
003000
200000
300000
,
000100
010000
002000
003000
,
100000
010000
001000
000100
,
100000
010000
001000
000100
,
200200
300300
022000
033000
,
100000
010000
001000
010000
,
100000
000100
100000
000000
000100
010000
000100
000000
,
010000
000000
001000
010000
001000
000000
100000
000000
,
202000
000000
000000
303000
020200
000000
000000
030300
,
001000
100000
001000
100000
001000
000000
000000
000000
,
010100
100100
101000
011000
,
010100
100100
101000
011000
,
200200
000000
000000
300300
022000
000000
000000
033000
,
100000
010000
001000
000100
100000
000000
000000
000000
;

//---------------dance-solo - Copied from----------------
#NOTES:
     dance-solo:
     Copied from:
     Hard:
     11:
     0.514,0.552,0.469,0.441,0.023:
000000
000000
000000
000000
,
000000
000000
000000
000000
,
000000
000000
000000
000000
,
000000
000000
000000
000000
,
000000
000000
000000
000000
,
000000
000000
000000
000000
,
100000
000000
100000
000100
010000
001000
010000
000100
,
100000
000000
100100
000000
110000
000000
100000
000100
,
001000
000000
010000
100000
002000
000000
103000
000000
,
101000
010100
200200
300300
,
001100
000000
100100
000000
100000
001000
010000
000000
,
000100
100000
001000
000000
101000
000000
110000
000000
,
101000
000000
001000
010000
000100
000000
100000
000000
,
000100
100000
001000
100000
000100
000000
100000
001000
,
010000
000000
011000
000000
100100
000000
001000
010000
,
000100
000000
100000
001000
010000
000000
000100
100000
,
001000
000000
010000
000100
100000
000000
001000
000000
,
010000
000100
100000
000100
020200
000000
030300
000000
,
200100
300200
020300
032000
,
203000
000000
300100
010000
002000
000000
203000
000000
,
300200
000000
000300
100000
010000
000000
000000
001000
,
010000
000100
100000
001000
020000
000000
030000
000000
,
100200
020300
032000
203000
,
300200
000000
010300
000100
100100
000000
101000
000000
,
022000
033000
100100
000000
,
000100
100000
001000
100000
000100
000000
100100
000000
,
201000
001000
001000
001000
,
300200
010000
010000
010000
,
020300
000100
000100
000100
,
030100
100000
000000
000000
000100
000000
000000
000000
100000
000000
010000
000000
000100
000000
010000
000000
,
100000
000000
001000
100000
010000
000000
100000
000100
,
010000
001000
010000
000100
100000
000000
001000
100000
,
000100
000000
100000
000100
010000
000000
001000
100000
,
010000
000100
010000
100000
001000
000000
010000
000100
,
100000
000000
100000
010000
000100
010000
100000
010000
,
001000
000100
100000
001000
010000
000000
000100
010000
,
001000
000000
100000
001000
010000
000000
100100
000000
,
010000
000000
000100
000000
100000
000000
000100
000000
010000
001000
000000
010000
001000
000000
000000
000000
,
100100
000000
110000
000000
000100
010000
001000
000000
,
100100
000000
010100
000000
011000
000000
100000
001000
,
010000
000000
000100
010000
001000
000000
100100
000000
,
000100
010000
001000
010000
000100
000000
100000
001000
,
020000
000000
030200
000000
002300
000000
013000
100000
,
000100
000000
010000
000100
001000
000000
010000
001000
,
100000
000000
000100
010000
001000
000000
100100
000000
,
100000
000000
000100
000000
010000
000000
000100
000000
100000
000100
000000
100000
000100
000000
000000
000000
,
020000
032000
203000
300200
,
020300
000000
031000
100000
100100
000000
110000
000000
,
011000
000000
000000
000100
200000
000000
000000
300100
,
100000
010000
100000
000100
020000
000000
030000
000000
,
000200
002300
023000
230000
,
300200
000000
001300
010000
000100
000000
200000
000000
,
302000
000000
000000
013000
000100
000000
000000
000000
,
100000
001000
010000
001000
001000
000000
110000
000000
,
010100
001100
011000
110000
,
011000
000000
100000
001000
010000
000000
100100
000000
,
020200
000000
030300
000000
100000
001000
000000
000100
,
100000
001000
010000
001000
100000
000100
000000
000000
,
100100
011000
100100
110000
,
010100
001100
011000
110000
,
020200
000000
030300
000000
001000
100000
000000
000000
,
000100
001000
010000
100000
200200
000000
000000
000000
,
300300
000000
000000
000000
;

//---------------dance-solo - Copied from----------------
#NOTES:
     dance-solo:
     Copied from:
     Easy:
     5:
     0.265,0.346,0.075,0.150,0.000:
000000
000000
000000
000000
,
000000
000000
000000
000000
,
000000
000000
000000
000000
,
000000
000000
000000
000000
,
000000
000000
000000
000000
,
000000
000000
000000
000000
,
100000
000000
000010
000100
,
000010
000000
001000
010000
,
001000
000000
100000
000001
,
000010
000000
001000
000000
,
100000
001000
100000
000000
,
010000
001000
000100
000000
,
100000
000100
100000
000000
,
001000
010000
001000
000000
,
100000
010000
001000
000000
,
000100
001000
010000
000000
,
100000
010000
000100
000000
,
000100
010000
100000
000000
,
100000
010000
000100
010000
,
100000
000000
000100
001000
,
200000
300000
002000
003000
,
000100
000100
001000
000000
,
001000
010000
010000
100000
,
100000
010000
000100
010000
,
200000
000000
302000
000000
,
013000
000100
010000
000000
,
001000
001000
100000
100000
,
010000
010000
001000
001000
,
000100
000100
100000
100000
,
000100
000100
010000
010000
,
011000
000000
101000
000000
,
100100
000000
000100
000000
,
000100
010000
001000
000000
,
001000
010000
000100
000000
,
100000
000000
100000
010000
,
100000
000100
010000
000000
,
000100
010000
100000
000000
,
100000
010000
000100
000000
,
000100
001000
100000
001000
,
000100
001000
010000
000000
,
000000
000100
000000
000000
,
000000
100000
001000
010000
,
001000
100000
010000
001000
,
000100
100000
000100
000000
,
010000
001000
100000
001000
,
010000
000100
100000
000000
,
001000
010000
001000
010000
,
000100
010000
000100
000000
,
202000
303000
020200
030300
,
100000
001000
010000
000000
,
001000
010000
000100
010000
,
001000
100000
010000
001000
,
000200
000300
200000
300000
,
001000
010000
000100
000000
,
000100
001000
010000
100000
,
010000
000100
010000
100000
,
022000
033000
200200
300300
,
010000
001000
100000
000000
,
000100
000100
100000
100000
,
010000
010000
001000
001000
,
000200
000000
200300
000000
,
301000
010000
010100
000000
;
