#TITLE:8bit Princess;
#SUBTITLE:;
#ARTIST:seiya-murai feat. ALT;
#TITLETRANSLIT:;
#SUBTITLETRANSLIT:;
#ARTISTTRANSLIT:;
#GENRE:;
#CREDIT:;
#BANNER:[Qualifier] - 8bit Princess.png;
#BACKGROUND:[Qualifier] - 8bit Princess-bg.png;
#LYRICSPATH:;
#CDTITLE:cdtitle.png;
#MUSIC:[Qualifier] - 8bit Princess.ogg;
#OFFSET:-0.007;
#SAMPLESTART:76.800;
#SAMPLELENGTH:12.870;
#SELECTABLE:YES;
#BPMS:0.000=150.000
;
#STOPS:
;
#BGCHANGES:;
#KEYSOUNDS:;
#ATTACKS:;

//---------------dance-single - ----------------
#NOTES:
     dance-single:
     :
     Hard:
     9:
     0.666,0.622,0.555,0.311,0.008,452.000,66.000,37.000,0.000,0.000,0.000,0.666,0.622,0.555,0.311,0.008,452.000,66.000,37.000,0.000,0.000,0.000: // measure 0
0000
0000
0000
0000
,  // measure 1
0000
0000
0000
0000
,  // measure 2
0000
0000
0000
0000
,  // measure 3
0000
0000
0000
0000
,  // measure 4
1000
0001
0100
0000
1100
0000
0101
0000
,  // measure 5
0001
1000
0100
0000
0101
0000
1100
0000
,  // measure 6
1000
0001
0010
0000
1010
0000
0011
0000
,  // measure 7
0001
1000
0010
0000
0010
0010
0110
0000
,  // measure 8
0100
0001
0010
0000
0110
0000
1100
0000
,  // measure 9
0100
1000
0010
0000
0110
0000
0101
0000
,  // measure 10
0100
0001
1000
0000
1100
0000
0110
0000
,  // measure 11
0001
1000
0010
0000
0100
0100
0100
0000
,  // measure 12
0001
0010
0001
0100
0001
0010
0001
0100
,  // measure 13
0010
0001
0010
1000
0100
0000
0100
0000
,  // measure 14
1000
0010
1000
0001
1000
0100
0001
0100
,  // measure 15
0110
0110
0110
0000
1001
1001
1001
0000
,  // measure 16
0100
0001
0100
0010
0100
0001
1000
0100
,  // measure 17
0001
0100
1000
0001
0010
1000
0010
0001
,  // measure 18
0000
0100
0010
0100
0001
1000
0010
0001
,  // measure 19
0010
0100
0010
0100
0010
0000
0000
0000
0110
0000
0110
0000
1001
0000
0000
0000
,  // measure 20
1000
0001
0010
0000
0011
0000
1010
0000
,  // measure 21
1000
0001
0100
0000
0101
0000
1100
0000
,  // measure 22
0001
1000
0100
0000
0011
0000
1100
0000
,  // measure 23
0200
0000
1300
0020
0000
1030
0001
0000
,  // measure 24
0100
0010
0001
0010
0100
0001
0010
0100
,  // measure 25
1000
0010
0100
0010
1000
0000
0001
0000
,  // measure 26
1000
0100
0001
0100
0010
0001
0100
0001
,  // measure 27
0010
0100
0010
0100
0010
0100
0010
0100
,  // measure 28
1000
0001
0010
0100
0001
0100
1000
0010
,  // measure 29
0001
0010
0001
0010
0100
1000
0100
0010
,  // measure 30
0000
1000
0001
1000
0010
0001
0010
0100
,  // measure 31
0002
0000
0000
1000
1003
0010
0110
0000
,  // measure 32
2000
0000
3200
0000
0320
0000
0030
0001
,  // measure 33
0100
0001
0100
0010
0000
1000
2000
0000
,  // measure 34
3000
0001
0010
0100
1000
0010
0100
0100
,  // measure 35
0001
1000
0100
0010
0000
0001
0002
0000
,  // measure 36
0003
0010
1001
1001
,  // measure 37
0100
0001
1000
0010
0000
0010
0100
0000
,  // measure 38
0000
0001
1000
0100
0020
0000
0030
0100
,  // measure 39
1000
0010
0001
1000
0000
0100
0110
0000
,  // measure 40
0002
0000
0023
0000
0230
0000
2300
0010
,  // measure 41
3020
0000
0230
0000
0302
0000
0023
0100
,  // measure 42
0230
0000
2300
0000
3002
0000
0203
0010
,  // measure 43
0320
0000
0030
1000
2000
0000
3000
0001
,  // measure 44
0100
0010
0001
0010
0200
0000
0300
0001
,  // measure 45
1000
0100
0001
0100
2000
0000
3000
0010
,  // measure 46
0100
0001
0010
0100
1000
0001
0100
0010
,  // measure 47
2000
0000
0002
3003
,  // measure 48
1001
0001
0101
0100
0110
0010
1010
2000
,  // measure 49
0000
3001
0001
0100
0010
0001
0010
0100
,  // measure 50
0101
0001
0011
0010
0110
0100
1100
2000
,  // measure 51
0000
3001
0001
1000
0010
0001
0010
0100
,  // measure 52
0110
0100
0101
0001
1001
1000
1100
0200
,  // measure 53
0000
0310
0010
0100
0001
0100
1000
0010
,  // measure 54
0110
0100
0101
0001
0011
0010
0110
0200
,  // measure 55
0000
1300
1000
0001
0010
0000
0010
0000
,  // measure 56
0011
0001
1001
1000
1010
0010
0110
0200
,  // measure 57
0000
0310
0010
1000
0010
0001
0010
0100
,  // measure 58
0110
0100
0101
0001
1001
1000
1010
0020
,  // measure 59
0000
0130
0100
1000
0100
0001
0010
0100
,  // measure 60
1100
0100
0110
0010
0011
0010
0110
0200
,  // measure 61
0000
0310
0010
0100
1000
0010
0001
0010
,  // measure 62
0110
0100
0101
0100
0110
0010
1010
0010
,  // measure 63
0000
1000
0001
1000
0200
0000
0320
0000
,  // measure 64
0031
0010
0001
0100
0010
1000
0100
0010
,  // measure 65
0001
0010
0001
0100
0010
1000
0100
0010
,  // measure 66
0001
0010
0001
0100
0010
1000
0100
0010
,  // measure 67
1001
0000
0000
0100
0001
0010
0100
1000
,  // measure 68
1000
0010
1000
0100
0010
0001
0100
0010
,  // measure 69
1000
0010
1000
0100
0010
0001
0100
0010
,  // measure 70
1000
0010
1000
0100
0010
0001
0100
0010
,  // measure 71
1000
0100
0010
0001
0100
0000
1001
0000
,  // measure 72
0200
0001
0010
0000
0010
0000
0010
0000
,  // measure 73
0010
1000
0010
0000
0010
0010
0010
0310
,  // measure 74
0100
0000
0000
0000
;

//---------------dance-single - ----------------
#NOTES:
     dance-single:
     :
     Medium:
     6:
     0.498,0.435,0.420,0.328,0.000,326.000,50.000,39.000,0.000,0.000,0.000,0.498,0.435,0.420,0.328,0.000,326.000,50.000,39.000,0.000,0.000,0.000: // measure 0
0000
0000
0000
0000
,  // measure 1
0000
0000
0000
0000
,  // measure 2
0000
0000
0000
0000
,  // measure 3
0000
0000
0000
0000
,  // measure 4
0100
0001
0100
0000
0110
0000
0110
0000
,  // measure 5
0010
1000
0010
0000
0110
0000
0110
0000
,  // measure 6
0100
0001
1000
0000
1001
0000
1001
0000
,  // measure 7
1000
0001
1000
0000
0010
0010
0010
0000
,  // measure 8
1000
0001
1000
0000
1100
0000
1010
0000
,  // measure 9
0001
1000
0001
0000
0011
0000
0101
0000
,  // measure 10
0100
0010
0100
0000
0101
0000
1001
0000
,  // measure 11
1000
0001
1000
0000
0100
0100
0100
0000
,  // measure 12
1000
0000
0101
0000
0001
1000
0001
0000
,  // measure 13
0100
0001
0100
0000
0110
0000
1001
0000
,  // measure 14
0001
0000
1010
0000
0010
1000
0010
0000
,  // measure 15
1000
1000
1000
0000
0001
0001
0001
0000
,  // measure 16
1000
0000
0110
0000
0001
0100
0010
0000
,  // measure 17
1000
0100
1000
0000
0110
0000
1001
0000
,  // measure 18
0001
0000
0110
0000
1000
0010
0100
0000
,  // measure 19
0001
1000
0001
0000
0100
0000
0100
0000
,  // measure 20
0010
1000
0100
0000
1100
0000
1010
0000
,  // measure 21
0010
0100
0001
0000
0101
0000
0011
0000
,  // measure 22
0001
0100
0010
0000
0110
0000
1010
0000
,  // measure 23
1000
0000
0000
0001
0000
0000
0110
0000
,  // measure 24
0001
1000
0001
0000
0100
0001
0100
0000
,  // measure 25
0010
1000
0010
0000
0110
0000
1001
0000
,  // measure 26
1000
0001
1000
0000
0010
1000
0010
0000
,  // measure 27
1001
1001
1001
1001
,  // measure 28
0000
0010
0010
0000
1000
0001
1000
0000
,  // measure 29
0010
0100
0010
0000
1000
0100
1000
0000
,  // measure 30
0000
0001
0001
0000
1000
0010
0100
0000
,  // measure 31
0220
0000
0330
1001
,  // measure 32
2000
3020
0230
0300
,  // measure 33
0002
0000
0000
0023
0000
0000
0130
0000
,  // measure 34
0200
2300
3200
0320
,  // measure 35
0032
0000
0000
0203
0000
0000
0320
0000
,  // measure 36
0030
1000
0001
1000
,  // measure 37
0002
0000
0000
0023
0000
0000
0130
0000
,  // measure 38
0200
2300
3200
0320
,  // measure 39
0032
0000
0000
0203
0000
0000
0310
0000
,  // measure 40
2000
0000
3001
0100
0001
0000
0000
0000
,  // measure 41
0002
0000
1003
0010
1000
0000
0000
0100
,  // measure 42
2000
3020
0230
0302
,  // measure 43
1003
0000
0000
1000
0001
0000
0000
0001
,  // measure 44
0100
0000
0100
0000
1001
0000
0000
0100
,  // measure 45
0010
0000
0010
0000
1001
0000
0000
0001
,  // measure 46
0001
0010
0100
1000
,  // measure 47
2002
3003
0220
0330
,  // measure 48
0001
0010
0001
0000
1000
0000
1000
0100
,  // measure 49
0000
1000
0010
0000
0100
0000
0110
0000
,  // measure 50
0001
0100
0001
0000
1000
0000
1000
0010
,  // measure 51
0000
1000
0100
0000
0010
0000
1001
0000
,  // measure 52
1000
0001
1000
0000
0010
0000
0010
1000
,  // measure 53
0000
0001
0100
0000
0010
0000
1001
0000
,  // measure 54
1000
0100
1000
0000
0001
0000
0001
0010
,  // measure 55
0000
0100
1000
0000
0010
0000
0110
0000
,  // measure 56
0001
0100
0001
0000
0001
1000
0001
1000
,  // measure 57
0000
1000
0010
0000
0100
0000
0110
0000
,  // measure 58
1000
0100
1000
0000
1000
0010
1000
0010
,  // measure 59
0000
0100
0001
0000
0100
0000
0101
0000
,  // measure 60
0001
1000
0100
0000
0100
0010
0100
0010
,  // measure 61
0000
0010
0001
0000
1000
0000
1010
0000
,  // measure 62
1000
0001
0010
0000
0010
0100
0010
0100
,  // measure 63
0000
0100
1000
0000
0001
0000
1001
0000
,  // measure 64
0002
0100
0100
0103
,  // measure 65
2000
0010
0010
3010
,  // measure 66
0002
0100
0100
1003
,  // measure 67
0110
0000
0000
1000
0001
1000
0001
0000
,  // measure 68
0200
0001
0001
0301
,  // measure 69
0020
1000
1000
1030
,  // measure 70
0200
0001
0001
0301
,  // measure 71
0020
1000
0130
0110
,  // measure 72
0001
1000
0100
0000
0100
0000
0100
0000
,  // measure 73
1000
0001
0100
0000
0100
0100
0100
0000
,  // measure 74
1001
0000
0000
0000
;

//---------------dance-single - ----------------
#NOTES:
     dance-single:
     :
     Easy:
     4:
     0.391,0.373,0.403,0.227,0.000,251.000,48.000,27.000,0.000,0.000,0.000,0.391,0.373,0.403,0.227,0.000,251.000,48.000,27.000,0.000,0.000,0.000: // measure 0
0000
0000
0000
0000
,  // measure 1
0000
0000
0000
0000
,  // measure 2
0000
0000
0000
0000
,  // measure 3
0000
0000
0000
0000
,  // measure 4
1000
0001
1001
1001
,  // measure 5
0001
1000
1001
1001
,  // measure 6
0100
0010
0110
0110
,  // measure 7
0010
0100
0010
0010
,  // measure 8
1000
0001
0101
0101
,  // measure 9
0001
1000
1010
1010
,  // measure 10
0010
0100
1001
1001
,  // measure 11
0200
0000
0300
0000
,  // measure 12
0001
0100
0001
1000
,  // measure 13
0001
0100
0110
0110
,  // measure 14
0000
0010
1000
0001
,  // measure 15
0100
0001
0110
0110
,  // measure 16
0000
0001
1000
0100
,  // measure 17
0010
0001
1000
0010
,  // measure 18
0000
0100
0001
1000
,  // measure 19
1001
0110
1001
0100
,  // measure 20
0001
0010
0110
0110
,  // measure 21
1000
0010
0110
0110
,  // measure 22
0001
0100
0110
0110
,  // measure 23
1000
0000
0000
1001
,  // measure 24
0001
1000
0100
1000
,  // measure 25
0010
0100
1001
1001
,  // measure 26
0000
1000
0100
0010
,  // measure 27
0011
0011
0011
0011
,  // measure 28
0000
0001
0100
0010
,  // measure 29
1000
0001
0010
0100
,  // measure 30
0000
1000
0001
0100
,  // measure 31
0220
0000
0330
0000
,  // measure 32
0001
1000
0010
0000
,  // measure 33
1000
0000
0000
0001
0000
0000
0100
0000
,  // measure 34
0001
1000
0010
1000
,  // measure 35
0001
0000
0000
1000
0000
0000
0010
0000
,  // measure 36
0000
0100
1001
1001
,  // measure 37
0001
0000
0000
1000
0000
0000
0010
0000
,  // measure 38
1000
0001
0100
0010
,  // measure 39
1000
0000
0000
0001
0000
0000
0100
0000
,  // measure 40
0002
0003
0020
0030
,  // measure 41
0200
0300
2000
3000
,  // measure 42
0002
0023
0230
2300
,  // measure 43
3100
0000
0110
0000
,  // measure 44
2000
3000
0200
0300
,  // measure 45
0020
0030
0002
0003
,  // measure 46
2000
3020
0230
0302
,  // measure 47
0203
0000
0020
0330
,  // measure 48
1001
0000
0001
0000
0001
0000
1000
0001
,  // measure 49
0000
0001
0010
0000
0010
0000
0110
0000
,  // measure 50
0100
0000
0100
0000
0100
0000
1000
0001
,  // measure 51
0000
0001
0100
0000
0100
0000
0110
0000
,  // measure 52
1001
0000
1000
0000
1000
0000
0001
1000
,  // measure 53
0000
1000
0100
0000
0100
0000
0110
0000
,  // measure 54
0010
0000
0010
0000
0010
0000
0001
1000
,  // measure 55
0000
1000
0010
0000
0110
0000
0110
0000
,  // measure 56
0100
0000
0001
0000
0100
0000
0001
1000
,  // measure 57
0000
1000
0001
0000
0100
0000
0110
0000
,  // measure 58
0010
0000
1000
0000
0010
0000
1000
0001
,  // measure 59
0000
0001
1000
0000
0010
0000
0110
0000
,  // measure 60
0001
0000
0100
0000
0010
0000
1000
0100
,  // measure 61
0000
0100
1000
0000
0010
0000
0100
0000
,  // measure 62
0001
0000
0010
0000
0100
0000
1000
0010
,  // measure 63
0000
0010
1000
0000
0100
0000
0010
0000
,  // measure 64
0002
0100
0000
0103
,  // measure 65
2000
0010
0000
3010
,  // measure 66
0002
0100
0000
0103
,  // measure 67
0110
0000
0010
1000
,  // measure 68
0200
0001
0000
0301
,  // measure 69
0020
1000
0000
1030
,  // measure 70
0200
0001
0000
0301
,  // measure 71
1000
0001
1000
0110
,  // measure 72
0001
0001
1000
1000
,  // measure 73
0001
0000
0001
0000
1000
1000
1000
0000
,  // measure 74
0110
0000
0000
0000
;

//---------------dance-single - ----------------
#NOTES:
     dance-single:
     :
     Beginner:
     2:
     0.156,0.187,0.076,0.101,0.000,109.000,9.000,12.000,0.000,0.000,0.000,0.156,0.187,0.076,0.101,0.000,109.000,9.000,12.000,0.000,0.000,0.000: // measure 0
0000
0000
0000
0000
,  // measure 1
0000
0000
0000
0000
,  // measure 2
0000
0000
0000
0000
,  // measure 3
0000
0000
0000
0000
,  // measure 4
1000
0000
0000
0000
,  // measure 5
1000
0000
0000
0000
,  // measure 6
0001
0000
0000
0000
,  // measure 7
0001
0000
0000
0000
,  // measure 8
0100
0000
0000
0000
,  // measure 9
0100
0000
0000
0000
,  // measure 10
0010
0000
0000
0000
,  // measure 11
1001
0000
0000
0000
,  // measure 12
0001
0000
0001
0000
,  // measure 13
0001
0000
0000
0000
,  // measure 14
1000
0000
1000
0000
,  // measure 15
1000
0000
0000
0000
,  // measure 16
0010
0000
0010
0000
,  // measure 17
0010
0000
0000
0000
,  // measure 18
0100
0000
0100
0000
,  // measure 19
0100
0000
0000
0000
,  // measure 20
1001
0000
0000
0000
,  // measure 21
0110
0000
0000
0000
,  // measure 22
1001
0000
0000
0000
,  // measure 23
0100
0000
0000
0000
,  // measure 24
0001
0000
0001
0000
,  // measure 25
1000
0000
1000
0000
,  // measure 26
0001
0000
0001
0000
,  // measure 27
1000
1000
1000
1000
,  // measure 28
0000
0000
0010
0000
,  // measure 29
0100
0000
0100
0000
,  // measure 30
0010
0000
0010
0000
,  // measure 31
1000
0000
0000
0000
,  // measure 32
2000
0000
3000
0000
,  // measure 33
0002
0000
0003
0000
,  // measure 34
0200
0000
0300
0000
,  // measure 35
0020
0000
0030
0000
,  // measure 36
2000
0000
3000
0000
,  // measure 37
0002
0000
0003
0000
,  // measure 38
0020
0000
0030
0000
,  // measure 39
0200
0000
0300
0000
,  // measure 40
1000
0000
1000
0000
,  // measure 41
0001
0000
0001
0000
,  // measure 42
0100
0000
0100
0000
,  // measure 43
0010
0000
0000
0000
,  // measure 44
0001
0000
1000
0000
,  // measure 45
0001
0000
1000
0000
,  // measure 46
0001
0000
1000
0000
,  // measure 47
1001
0000
0000
0000
,  // measure 48
0001
0000
0001
0000
,  // measure 49
0100
0000
0100
0000
,  // measure 50
0001
0000
0001
0000
,  // measure 51
1000
0000
1000
0000
,  // measure 52
0001
0000
0001
0000
,  // measure 53
0100
0000
0100
0000
,  // measure 54
0001
0000
0001
0000
,  // measure 55
0010
0000
0100
0000
,  // measure 56
1000
0000
1000
0000
,  // measure 57
0100
0000
0100
0000
,  // measure 58
1000
0000
1000
0000
,  // measure 59
0001
0000
0001
0000
,  // measure 60
1000
0000
1000
0000
,  // measure 61
0100
0000
0100
0000
,  // measure 62
1000
0000
1000
0000
,  // measure 63
0010
0000
0010
0000
,  // measure 64
1001
0000
0000
0000
,  // measure 65
0110
0000
0000
0000
,  // measure 66
1001
0000
0000
0000
,  // measure 67
0100
0000
0100
0100
,  // measure 68
0200
0000
0300
0000
,  // measure 69
0002
0000
0003
0000
,  // measure 70
2000
0000
3000
0000
,  // measure 71
0020
0000
0030
0000
,  // measure 72
1000
0000
1000
0000
,  // measure 73
0001
0000
0001
0000
,  // measure 74
1001
0000
0000
0000
;
