#TITLE:Ray of Illuminati;
#SUBTITLE:;
#ARTIST:ESTi;
#TITLETRANSLIT:;
#SUBTITLETRANSLIT:;
#ARTISTTRANSLIT:;
#GENRE:;
#CREDIT:Telperion;
#BANNER:roi-bn.png;
#BACKGROUND:roi-bg.png;
#LYRICSPATH:;
#CDTITLE:;
#MUSIC:roi.ogg;
#OFFSET:-0.150;
#SAMPLESTART:14.950;
#SAMPLELENGTH:12.800;
#SELECTABLE:YES;
#DISPLAYBPM:150.000;
#BPMS:0.000=150.000
;
#STOPS:
;
#BGCHANGES:1.396=[Round 3] - Ray of Illuminati.avi=1.000=0=0=0=StretchNoLoop====,
99999=-nosongbg-=1.000=0=0=0 // don't automatically add -songbackground-
;
#KEYSOUNDS:;
#ATTACKS:;

//---------------dance-single - Telperion----------------
#NOTES:
     dance-single:
     :
     Hard:
     8:
     0.562,0.602,0.315,0.442,0.281,424.000,42.000,59.000,0.000,0.000,0.000,0.562,0.602,0.315,0.442,0.281,424.000,42.000,59.000,0.000,0.000,0.000:
0000
0000
0000
0000
,
0000
0000
0000
0000
,
0000
0000
0000
0000
,
0000
0000
0000
0000
,
0000
0000
0000
0000
,
0000
0000
1002
0000
0000
0103
0010
0000
,
0100
0000
0100
0010
,
0100
0000
2001
0000
0000
3100
0010
0000
,
0100
0000
0100
0110
,
0001
1000
0001
1000
0020
0000
0030
0000
0020
0000
0030
0000
1000
0000
0010
0000
,
0000
0110
0000
0101
0000
0102
0003
1000
,
0100
0000
0010
0000
0001
0010
0100
1000
0001
0000
0100
0000
0001
1000
0100
1000
,
0100
0002
0000
0103
1000
0001
0100
0010
,
0010
0000
0000
0000
2001
0000
3000
0000
2010
0000
3000
0000
0100
1000
0001
0000
,
0000
1001
0000
0101
0000
0102
0003
1000
,
0100
0000
1000
0000
0001
0000
0100
0000
0001
1000
0000
0020
0000
0000
0130
0001
,
0100
0000
0010
0000
0001
0000
0000
0010
0000
0000
1000
0000
0002
0000
0000
0000
,
0003
0000
0000
0000
1000
0000
0100
0000
1000
0000
0100
1000
0000
0100
1000
0000
,
0000
0000
0001
0000
0100
0001
0000
0100
0001
0000
0000
1000
0000
0001
0100
0000
,
0001
0000
0100
0000
0010
0000
0000
0000
1000
0000
0010
1000
0000
0010
1000
0000
,
0000
0000
0001
0000
0010
0001
0000
0010
0001
0000
0000
1000
0000
0000
0001
0000
,
0010
0100
2000
0000
0010
0000
3002
0000
,
0010
0000
0000
0000
0203
0000
0000
0000
0010
0000
0000
0000
0301
0100
0000
0000
,
0001
1000
0200
0000
0010
0000
2300
0000
,
0010
0000
3001
0010
0001
0100
0001
1000
,
0010
0000
0000
0000
1000
0000
0001
0000
0000
0010
0000
0000
0001
0000
0000
0100
,
0000
0000
0010
0000
2000
0000
0000
0000
3000
0000
0010
1000
0010
0000
0100
0000
,
0010
0000
0100
0000
0001
0000
0010
0000
0000
0001
0000
0000
0010
0000
0000
0100
,
0000
0000
1000
0000
0002
0000
0000
0000
0003
0000
0100
0001
0100
0000
0010
0000
,
0100
0000
0001
0000
1000
0000
0010
0000
0000
1000
0000
0000
0010
0000
0000
0100
,
0000
0000
0001
0000
2000
0000
0000
0000
3000
0000
0001
0010
0001
0000
0010
0000
,
0100
0000
1000
0000
0001
0000
0010
0000
0000
0100
0000
0000
0010
0000
0000
0100
,
0000
1000
0001
0100
1000
0100
1000
0100
,
0010
1000
0002
0000
0010
0000
0000
0000
,
0010
0000
0000
0000
2003
0000
0000
0000
0010
0000
0000
0000
3100
0010
0000
0000
,
0110
0100
2000
0000
0001
0000
0000
0000
,
3100
0000
0010
0000
0002
0000
0000
0000
1000
0000
0000
0000
0103
0010
0000
0000
,
0100
0000
0001
0000
1000
0000
0010
0000
0000
1000
0000
0000
0010
0000
0000
0100
,
0000
0000
0001
0000
1000
0000
0100
0000
1000
0001
0000
1000
0000
1000
0001
0000
,
1000
0000
0100
0000
0110
0000
0000
0000
1100
0000
1000
0000
0010
0000
0000
0001
,
0000
0010
1000
0000
0100
0000
0000
1100
0000
0000
0011
0000
0000
1000
0000
0000
,
0101
1010
0200
0000
0000
0000
0000
0000
,
0300
0000
0110
0000
0110
0000
1000
1000
,
0000
0001
0000
1000
0001
0020
0000
0000
,
0030
0000
0000
0000
0100
0000
1000
0010
0000
0000
0100
0000
0001
0010
0000
0000
,
0100
1000
1001
0000
0011
0000
1001
0000
,
0101
0100
0110
0000
0110
0000
0001
0001
,
0000
0000
1000
0000
0001
0100
0001
0100
0001
0100
0020
0000
0000
0000
0000
0000
,
0030
0000
0000
0000
1000
0000
0010
0000
0100
0000
0001
1000
0000
0001
0100
0010
,
0100
0001
1000
0100
0010
0100
0001
0100
,
1000
0001
0200
0000
0320
0000
2030
0000
,
3200
0000
0000
0000
0301
0000
0000
0100
0000
0000
1000
0000
0020
0000
0000
0000
,
0030
0000
0100
0000
1000
0000
0000
0100
0000
0000
0001
0000
0200
0000
0000
0000
,
0320
0000
2030
0000
0000
3002
0000
0000
,
0003
2000
3200
0320
,
0032
0000
0103
0000
0100
0010
2000
0000
,
3000
0000
0010
0000
0001
0000
0000
0010
0000
0000
1000
0000
0100
0000
0000
0000
,
0020
0000
0000
0000
0130
0000
1000
0000
0001
0000
1000
0100
0001
0000
0000
0100
,
0000
1000
1200
0000
0320
0000
0032
0000
,
0203
0000
0000
0000
1300
0000
0000
0100
0000
0000
0001
0000
0020
0000
0000
0000
,
0030
0000
0100
0000
0001
0000
0000
0100
0000
0000
1000
0000
0001
0000
1000
0000
,
0020
0000
0000
0000
0130
0000
0001
0000
0100
0000
0001
1000
0001
0000
0100
0000
,
0010
0000
0100
0000
1001
0000
0000
0000
0001
0000
0000
1000
0000
0001
0010
0000
,
0001
0000
0000
0000
0100
0000
0010
0000
1000
0000
0000
0100
0000
1000
0010
0000
,
1000
0000
0100
1000
0100
1000
0100
0010
,
0100
0010
0001
1000
0001
0100
1000
0100
,
0001
0100
0020
0000
0000
0000
0000
0000
,
0000
0000
0000
0002
,
0033
0010
2000
0000
0000
0000
0000
0000
,
0000
0000
3000
0000
,
0000
0000
0210
0300
0210
0300
0001
0010
,
0000
0110
0000
1100
0000
2100
3000
0001
,
0100
0000
0010
0000
1000
0010
0100
0001
1000
0000
0100
0000
1000
0001
0100
0001
,
0100
2000
0000
3100
0001
1000
0100
0010
,
0010
0000
0000
0000
1002
0000
0003
0000
0012
0000
0003
0000
0100
0001
1000
0000
,
0000
1001
0000
1100
0000
2100
3000
0001
,
0100
0000
0001
0000
1000
0000
0100
0000
1000
0001
0000
0020
0000
0000
0130
1000
,
0100
0000
0010
0000
0011
0000
0000
0110
0000
0000
1100
0000
0000
0001
0000
0000
,
1010
0100
0002
0000
0000
0000
0000
0000
,
0000
0000
0000
0000
,
0000
0003
0000
0000
;

//---------------dance-single - ----------------
#NOTES:
     dance-single:
     :
     Medium:
     6:
     0.422,0.421,0.225,0.187,0.056,339.000,30.000,25.000,0.000,0.000,0.000,0.422,0.421,0.225,0.187,0.056,339.000,30.000,25.000,0.000,0.000,0.000:
0000
0000
0000
0000
,
0000
0000
0000
0000
,
0000
0000
0000
0000
,
0000
0000
0000
0000
,
0000
0000
0000
0000
,
0000
0000
2002
0000
0000
3000
0003
0000
,
0000
0200
0000
0300
,
0000
0000
2002
0000
0000
0003
3000
0000
,
0000
0010
0010
0020
,
0030
0000
1010
0000
1010
0000
1000
0010
,
0000
0110
0000
0101
0000
0101
0000
1000
,
0100
0000
0001
0100
1000
0100
0001
0100
,
1000
0010
0000
0100
0000
0010
2000
0000
,
3000
0000
0101
0000
1010
0000
0001
0010
,
0000
0110
0000
1100
0000
1100
0000
0001
,
1000
0000
0100
1000
0001
1000
0010
0000
,
0100
0000
0001
0000
0010
0000
0000
0100
0000
0000
1000
0000
0002
0000
0000
0000
,
0003
0000
0000
0000
0100
0000
0000
0000
0100
0000
0000
0001
0000
0000
1000
0000
,
0000
0000
0001
0000
0010
0000
0000
0000
0010
0000
0000
0100
0000
0000
1000
0000
,
0001
0000
1000
0000
0010
0000
0000
0000
0010
0000
0000
0100
0000
0000
0001
0000
,
0000
0000
1000
0000
0100
0000
0000
0000
0100
0000
0000
1000
0000
0000
0001
0000
,
0010
0100
2000
0000
0100
0000
0000
0000
,
3100
0002
0103
0010
,
0100
0002
0100
0000
,
0103
1001
1100
1001
,
0011
0000
1000
0010
1000
0000
0100
1000
,
0100
0000
0001
0100
0001
0000
0100
0010
,
0100
1000
0001
0010
0001
0000
0100
0001
,
0100
0000
1000
0100
1000
0100
0001
0010
,
0100
0000
1000
0010
1000
0000
0100
1000
,
0100
0000
0001
0100
0001
0000
0100
1000
,
0100
0000
1000
0010
1000
0000
0010
0100
,
0001
0000
1000
0001
0100
0001
0010
0100
,
1000
0100
0020
0000
0000
0000
0000
0000
,
0000
1000
0000
0031
,
0010
0100
2000
0000
0001
0000
0000
0000
,
3100
0010
0002
0000
1000
0000
0000
0000
,
0103
0000
0010
0100
0010
0000
1000
0001
,
1000
0000
0100
0001
0100
1000
0100
0001
,
0100
0000
1000
0000
0010
0000
0000
0000
0010
0000
0100
0000
0010
0000
0000
1000
,
0000
0000
0001
0000
1000
0000
0000
0100
0000
0000
0010
0000
0000
1000
0000
0000
,
0010
0001
0200
0000
0000
0000
0000
0000
,
0300
0000
1010
0000
0010
0000
1000
1000
,
0000
0001
0000
0100
0000
0002
0000
0000
,
0003
0000
1000
0100
0010
0001
0100
0010
,
1000
0100
0010
0000
0110
0000
1100
0000
,
0001
1000
0010
0000
0010
0000
1000
1000
,
0000
0001
0000
0100
0001
0020
0000
0000
,
0030
0000
0000
0000
0100
0000
0010
0000
0100
0000
0000
1000
0000
0001
0000
0000
,
1000
0000
0010
0100
0001
0000
0010
0100
,
1000
0002
0100
0010
,
1003
0010
1000
0100
,
1000
0100
0010
0000
0100
0000
1000
0000
,
0010
0000
0100
0000
0010
0000
1000
0010
,
0100
0001
2000
0000
0100
0000
0010
0000
,
3001
0000
0100
0000
0100
0010
1000
0000
,
0100
0010
0001
0000
0010
0100
1000
0000
,
0001
0000
0000
0000
1000
0000
0001
0000
0100
0000
0001
0000
0010
0000
0000
0100
,
0000
1000
0002
0000
1000
0000
0010
0000
,
0103
0000
0010
0000
1000
0010
0100
0000
,
0001
0000
0010
0000
0001
0010
0100
0000
,
0010
0000
0001
0000
0100
0000
0010
0100
,
0010
2000
0010
0100
,
3001
0010
0100
0000
1000
0010
0100
0000
,
0010
0000
0000
0000
1000
0000
0000
0100
0000
0000
0010
0000
0001
0000
0000
1000
,
0000
0010
0010
0000
0100
0000
1000
0000
,
0100
0002
0000
0000
,
0000
0000
0000
0010
,
0000
2000
0000
0000
,
0000
0000
3003
0000
,
0000
0000
1010
0000
1010
0000
0001
1000
,
0000
0110
0000
0101
0000
0101
0000
0001
,
0100
0000
1000
0100
0001
0100
1000
0100
,
0001
0010
0000
0100
0000
0010
0002
0000
,
0003
0000
1100
0000
0011
0000
1000
0010
,
0000
0110
0000
0101
0000
0101
0000
1000
,
0001
0000
0100
0001
1000
0100
0010
0000
,
0100
0000
1000
0000
0010
0000
0000
0100
0000
0000
0001
0000
0000
0100
0000
0000
,
1010
0100
0002
0000
0000
0000
0000
0000
,
0000
0000
0000
0000
,
0000
0003
0000
0000
;

//---------------dance-single - Telperion----------------
#NOTES:
     dance-single:
     :
     Easy:
     4:
     0.276,0.331,0.060,0.097,0.000,237.000,8.000,13.000,0.000,0.000,0.000,0.276,0.331,0.060,0.097,0.000,237.000,8.000,13.000,0.000,0.000,0.000:
0000
0000
0000
0000
,
0000
0000
0000
0000
,
0000
0000
0000
0000
,
0000
0000
0000
0000
,
0000
0000
0000
0000
,
0000
1001
0000
0000
,
0000
0100
0000
0000
,
0000
0110
0000
0000
,
0000
1000
0000
0001
,
0000
0000
0010
0000
0010
0000
0100
0010
,
0000
0100
0000
1000
0000
1000
0000
0000
,
0000
0001
0100
0001
,
0100
0010
0000
1000
0000
0100
1000
0000
,
0000
0000
0010
0000
0010
0000
0100
0010
,
0000
0100
0000
0001
0000
0001
0000
0000
,
1000
0001
0100
1000
,
0100
0020
0000
0000
,
0030
0100
0001
0100
,
0001
1000
0001
1000
,
0001
0010
0001
0010
,
0001
0010
0100
0010
,
0100
2000
3100
0002
,
0103
2000
3100
0010
,
0100
0002
0103
2000
,
3100
0001
0100
1000
,
0010
0100
0001
0010
,
0100
0001
0000
0000
,
0000
0100
1000
0010
,
0100
1000
0000
0000
,
0000
0100
0001
0010
,
0100
0001
0000
0000
,
0000
0100
1000
0010
,
0100
1000
0100
0010
,
0100
0002
0000
0000
,
0000
0010
0000
1003
,
0001
2000
0000
3001
,
1000
0020
0000
0130
,
0001
1000
0100
0010
,
0100
0001
0100
0010
,
0100
0000
1000
0000
0001
1000
0001
0000
,
0010
0000
0110
0000
0000
1001
0000
0000
,
1010
0001
0000
0000
,
0000
0000
0010
0000
0010
0000
0100
0010
,
0000
0100
0000
1000
0000
0001
0000
0000
,
0000
1000
0010
0100
,
0001
0010
0010
0010
,
0000
0100
0010
0000
0010
0000
0100
0010
,
0000
0100
0000
1000
0100
1000
0000
0000
,
0000
0001
0100
1000
,
0100
0010
1000
0001
,
0000
1000
0100
0010
,
1000
0001
0100
0010
,
0000
0001
0100
1000
,
0001
0010
0100
0001
,
0000
1000
0001
0010
,
0100
1000
0010
0100
,
0000
1000
0100
0001
,
0010
0100
0010
0010
,
0000
0001
0100
0010
,
0001
1000
0100
0001
,
0000
0010
0100
0001
,
1000
0010
0100
1000
,
0000
0010
0100
0001
,
0000
1000
0100
0000
1000
0000
0001
0000
,
0000
0001
0100
0000
0001
0000
1000
0000
,
0010
1000
0100
0010
,
0100
0002
0000
0000
,
0000
0000
0000
0203
,
0000
2300
0000
0000
,
0000
0000
3000
0000
,
0000
0000
0010
0000
0010
0000
0100
0010
,
0000
0100
0000
0001
0000
0001
0000
0000
,
0000
1000
0100
1000
,
0100
0010
0000
0001
0000
0100
0001
0000
,
0000
0000
0010
0000
0010
0000
0100
0010
,
0000
0100
0000
1000
0000
1000
0000
0000
,
0001
1000
0100
0001
,
0100
0000
0110
0000
0000
1100
0000
0000
,
1001
0020
0000
0000
,
0000
0000
0000
0000
,
0000
0030
0000
0000
;

//---------------dance-single - Telperion----------------
#NOTES:
     dance-single:
     Telperion:
     Beginner:
     2:
     0.087,0.117,0.000,0.000,0.000,81.000,0.000,0.000,0.000,0.000,0.000,0.087,0.117,0.000,0.000,0.000,81.000,0.000,0.000,0.000,0.000,0.000: // measure 0
0000
0000
0000
0000
,  // measure 1
0000
0000
0000
0000
,  // measure 2
0000
0000
0000
0000
,  // measure 3
0000
0000
0000
0000
,  // measure 4
0000
0000
0000
0000
,  // measure 5
0000
0001
0000
0000
,  // measure 6
0000
0000
0000
0000
,  // measure 7
0000
1000
0000
0000
,  // measure 8
0000
0000
0000
0000
,  // measure 9
0000
0010
0000
0000
,  // measure 10
0000
0100
0000
0000
,  // measure 11
0000
0001
0000
0000
,  // measure 12
0000
0010
0000
0000
,  // measure 13
0000
0010
0000
0000
,  // measure 14
0000
0100
0000
0000
,  // measure 15
0000
1000
0000
1000
,  // measure 16
0000
0010
0000
0000
,  // measure 17
0000
0100
0000
0000
,  // measure 18
0000
0100
0000
0000
,  // measure 19
0000
0100
0000
0000
,  // measure 20
0000
0100
0000
0100
,  // measure 21
0000
0001
0000
0000
,  // measure 22
0000
0001
0000
0000
,  // measure 23
0000
1000
0000
0000
,  // measure 24
0000
0001
1000
0001
,  // measure 25
0000
0010
0000
0000
,  // measure 26
0000
0100
0000
0000
,  // measure 27
0000
0010
0000
0000
,  // measure 28
0000
0100
0000
0000
,  // measure 29
0000
1000
0000
0000
,  // measure 30
0000
0100
0000
0000
,  // measure 31
0000
0001
0000
0000
,  // measure 32
0000
0100
0000
0000
,  // measure 33
0000
0010
0000
0000
,  // measure 34
0000
0000
0000
0000
,  // measure 35
0000
0100
0000
0000
,  // measure 36
0000
1000
0000
0000
,  // measure 37
0000
0001
0000
0000
,  // measure 38
0000
0001
0000
0000
,  // measure 39
0000
1000
0000
1000
,  // measure 40
0000
0010
0000
0000
,  // measure 41
0000
0100
0000
0000
,  // measure 42
0000
0001
0000
0000
,  // measure 43
0000
0100
0000
0000
,  // measure 44
0000
0001
0000
0000
,  // measure 45
0000
1000
0000
1000
,  // measure 46
0000
0010
0000
0000
,  // measure 47
0000
1000
0000
0000
,  // measure 48
0000
0100
0000
0100
,  // measure 49
0000
0010
0000
0010
,  // measure 50
0000
0001
0000
0000
,  // measure 51
0000
0010
0000
0000
,  // measure 52
0000
0100
0000
0000
,  // measure 53
0000
1000
0000
0000
,  // measure 54
0000
0001
0000
0000
,  // measure 55
0000
0100
0000
0000
,  // measure 56
0000
0010
0000
0000
,  // measure 57
0000
1000
0000
0000
,  // measure 58
0000
0001
0000
0000
,  // measure 59
0000
0010
0000
0000
,  // measure 60
0000
0100
0000
0000
,  // measure 61
0000
1000
0000
1000
,  // measure 62
0000
0001
0000
0000
,  // measure 63
0000
0100
0000
0000
,  // measure 64
0000
0010
0000
0000
,  // measure 65
0000
1000
0000
0010
,  // measure 66
0000
0010
0000
0000
,  // measure 67
0000
0000
0000
0010
,  // measure 68
0000
0100
0000
0000
,  // measure 69
0000
0000
0000
0000
,  // measure 70
0000
0010
0000
0000
,  // measure 71
0000
0100
0000
0000
,  // measure 72
0000
0001
0000
0000
,  // measure 73
0000
0010
0000
0000
,  // measure 74
0000
0010
0000
0000
,  // measure 75
0000
0100
0000
0000
,  // measure 76
0000
1000
0000
0001
,  // measure 77
0000
0010
0000
0000
,  // measure 78
0000
0100
0000
0000
;

//---------------dance-double - Telperion----------------
#NOTES:
     dance-double:
     :
     Hard:
     9:
     0.572,0.602,0.270,0.330,0.341,454.000,36.000,44.000,0.000,0.000,0.000,0.572,0.602,0.270,0.330,0.341,454.000,36.000,44.000,0.000,0.000,0.000:
00000000
00000000
00000000
00000000
,
00000000
00000000
00000000
00000000
,
00000000
00000000
00000000
00000000
,
00000000
00000000
00000000
00000000
,
00000000
00000000
00000000
00000000
,
00000000
00000000
00012000
00000000
00003000
01000000
00010000
00000000
,
01000000
00000000
00000000
00000000
00200000
00000000
00000000
00000000
01300000
00000000
00000000
00000000
00010000
00000000
00000000
10000000
,
00010000
10000000
00000000
00000000
12000000
00000000
00000000
00000000
03000000
00000000
00010000
00000000
00001000
00000000
00000000
00000000
,
00000100
00000002
00000100
00001003
,
00000001
00001000
00000100
00000010
00000001
00000000
00000000
00000000
00000011
00000000
00000000
00000000
00001000
00000000
00000001
00000000
,
00000000
00001100
00000000
00011000
00000000
02001000
00000000
03010000
,
01000000
00000000
00010000
00000000
10000000
00010000
10000000
00010000
00100000
00000000
01000000
00000000
10000000
00010000
10000000
00010000
,
01000000
20000000
00000000
31000000
00010000
10000000
00010000
00100000
,
00100000
00000000
00010000
00000000
10000000
00000000
00000000
00000000
10100000
00000000
00000000
00000000
01000000
00100000
10000000
00000000
,
00000000
01010000
00000000
00011000
00000000
00010200
00000000
01000300
,
00010000
00000000
00100000
00000000
01000000
00000000
10000000
00000000
01000000
00100000
00000000
00002000
00000000
00000000
00013000
00000100
,
00001000
00000000
00000100
00000000
00000001
00000000
00000000
00000100
00000000
00000000
00001000
00000000
00000020
00000000
00000000
00000000
,
00000030
00000000
00000000
00000000
00001000
00000000
00000001
00000000
00001000
00000000
00000001
00000100
00000000
00000001
00000100
00000000
,
00000001
00000000
00001000
00000000
00000100
00010000
00000000
00000100
00010000
00000000
00000000
00001000
00000000
00010000
00001000
00000000
,
01000000
00000000
00001000
00000000
00100000
00000000
00000000
00000000
00010000
00000000
10000000
00010000
00000000
10000000
00010000
00000000
,
01000000
00000000
00010000
00000000
00100000
00010000
00000000
00100000
00010000
00000000
00000000
00100000
00000000
00001000
00010000
00000000
,
00001000
00000010
00000002
00000000
00000010
00000000
00002003
00000000
,
00000010
00003200
00000010
00000302
,
00000203
00000000
00000000
00000000
00002300
00000000
00000000
00000000
00003001
00000000
00001000
00000100
00000000
00001000
00000100
00000000
,
00001000
00000001
00000101
00000000
00001100
00000000
00011000
00000000
,
01010000
00000000
00000000
00000000
10000000
00000000
00100000
00000000
00000000
10000000
00000000
00010000
00100000
00000000
00000000
01000000
,
00000000
10000000
00010000
00000000
01000000
00000000
00010000
00000000
01000000
00000000
00100000
00000000
00010000
00000000
00001000
00000000
,
00000100
00000000
00000000
00000000
00000001
00000000
00000010
00000000
00000000
00000001
00000000
00001000
00000010
00000000
00000000
00000100
,
00000000
00000001
00000010
00000000
00000100
00000000
00001000
00000000
00000100
00000000
00000010
00000000
00001000
00000000
00010000
00000000
,
00100000
00000000
00000000
00000000
10000000
00000000
00100000
00000000
00000000
10000000
00000000
01000000
00100000
00000000
00000000
00010000
,
00000000
10000000
00100000
00000000
01000000
00010000
01000000
00000000
00001000
00000000
01000000
00000000
00010000
00000000
01000000
00000000
,
00001000
00010000
00001000
00010000
00000100
00000000
00000010
00000000
00000000
00000001
00000000
00000100
00000010
00000000
00000000
00001000
,
00000000
00000001
00000010
00000000
00000100
00000000
00000010
00000000
00001000
00000000
00010000
00000000
00001000
00000000
00010000
00000000
,
00100000
01000000
20000000
00000000
01000000
00000000
00000000
00000000
,
31000000
00200000
01300000
00020000
,
00130000
01000000
20000000
00000000
01000000
00000000
30000000
00000000
,
10000000
01000000
00020000
00000000
01000000
00000000
00000000
00000000
,
00031000
00000000
00000000
00000000
00010000
00000000
00000010
00000000
00000000
00000100
00000000
00000001
00000010
00000000
00000000
00000100
,
00000000
00001000
00000001
00000000
00000100
00000000
00000001
00000000
00001000
00000000
00000010
00000000
00001000
00000000
00000100
00000000
,
00010000
00000000
00000000
00000000
00001000
00000000
00000000
00000000
00001000
00000000
00010000
00000000
00001000
00000000
00000000
00100000
,
00000000
01000000
10000000
00000000
11000000
00000000
00000000
01001000
00000000
00000000
00011000
00000000
00000000
00000100
00000000
00000000
,
00001001
00000011
00000000
00000000
00000000
00000000
00000000
00000000
,
00000000
00000000
00001001
00000000
00000001
00000000
00001000
00001000
,
00000000
00000100
00000000
00010000
00001000
00200000
00000000
00000000
,
01300000
00000000
10000000
01000000
00010000
10000000
00100000
00010000
,
10000000
01000000
01100000
00000000
10010000
00000000
01100000
00000000
,
10010000
00010000
00110000
00000000
00100000
00000000
00010000
00010000
,
00000000
00000000
01000000
00000000
00001000
01000000
00001000
00010000
00001000
00010000
00000020
00000000
00000000
00000000
00000000
00000000
,
00000130
00000000
00000000
00000000
00000001
00000000
00000010
00000000
00000100
00000000
00010000
00000010
00000000
00010000
00001000
00010000
,
00000100
00010000
00001000
00010000
01000000
10000000
00100000
10000000
,
01000000
00100000
00020000
00000000
10000000
00000000
00100000
00000000
,
01030000
00000000
00000000
00000000
10000000
00000000
00000000
01000000
00000000
00000000
00010000
00000000
00200000
00000000
00000000
00000000
,
00300000
00000000
01000000
00000000
00010000
00000000
00000000
01000000
00000000
00000000
10000000
00000000
00020000
00000000
00000000
00000000
,
00230000
00000000
00000000
00000000
00302000
00000000
00000000
00000000
01003000
00000000
00001000
00010000
00001000
00000000
00010000
00000000
,
00000100
00000010
00000002
00000000
00001000
00000000
00000010
00000000
,
00000103
00000000
00000000
00000000
00001000
00000000
00000000
00000100
00000000
00000000
00000001
00000000
00000020
00000000
00000000
00000000
,
00000030
00000000
00000100
00000000
00000001
00000000
00000000
00000100
00000000
00000000
00001000
00000000
00000001
00000000
00000000
00000000
,
00000010
00000000
00000001
00000000
00000100
00000000
00001000
00000000
00010000
00000000
00100000
00000000
10000000
00000000
00100000
01000000
,
00000000
01000000
00010000
00000000
20000000
00000000
00000000
00000000
00010000
00000000
00000000
00000000
00100000
00000000
00000000
00000000
,
31000000
00000000
00000000
00000000
00010000
00000000
00000000
01000000
00000000
00000000
10000000
00000000
00200000
00000000
00000000
00000000
,
00300000
00000000
01000000
00000000
10000000
00000000
00000000
01000000
00000000
00000000
00010000
00000000
20000000
00000000
00000000
00000000
,
30200000
00000000
00000000
00000000
02300000
00000000
00000000
00000000
03001000
00000000
00010000
00001000
00010000
00000000
00000100
00000000
,
00000010
00000000
00000001
00000000
00000011
00000000
00000000
00000000
00001000
00000000
00000010
00001000
00000000
00001000
00000010
00000000
,
00000200
00000000
00000000
00000000
00000301
00000000
00000010
00000000
00000001
00000000
00001000
00000001
00000000
00000001
00000010
00000000
,
00000200
00000000
00000000
00000000
00010300
00000000
00000010
00000000
00001000
00000010
00000000
00010000
00000000
00001000
00100000
00000000
,
00001000
00000000
00010000
00000000
00100000
00000000
00100000
00000000
01000000
00000000
01000000
00000000
00010000
01000000
00010000
01000000
,
00010000
10000000
00010000
10000000
00200000
00000000
00000000
00000000
00000000
00000000
00000000
00000000
00000000
00000000
00000000
00000000
,
00000000
00000000
00000000
00020000
,
00330000
00100000
20000000
00000000
00000000
00000000
00000000
00000000
,
00000000
00000000
30000000
00000000
,
00000000
00000000
10100000
00000000
10100000
00000000
00010000
10000000
,
00000000
01010000
00000000
00011000
00000000
00010200
00000000
00001300
,
00000100
00000000
00001000
00000000
00000001
00001000
00000001
00001000
00000010
00000000
00000100
00000000
00000001
00001000
00000001
00001000
,
00000100
00000002
00000000
00000103
00001000
00000001
00001000
00000010
,
00000110
00000000
00001000
00000000
00000001
00000000
00000000
00000000
00000011
00000000
00000000
00000000
00000100
00000010
00000001
00000000
,
00000000
00001100
00000000
00011000
00000000
02001000
00000000
03000100
,
00001000
00000000
00000010
00000000
00000100
00000000
00000001
00000000
00000100
00000010
00000000
00020000
00000000
00000000
00031000
00100000
,
00010000
00000000
01000000
00000000
10000000
00000000
00000000
01000000
00000000
00000000
00010000
00000000
00000000
00001000
00000000
00000000
,
00000010
00000100
00000002
00000000
00000000
00000000
00000000
00000000
,
00000000
00000000
00000000
00000000
,
00000000
00000003
00000000
00000000
;
