#TITLE:Ocean Memory (P*Light Remix);
#SUBTITLE:;
#ARTIST:Junk;
#TITLETRANSLIT:;
#SUBTITLETRANSLIT:;
#ARTISTTRANSLIT:;
#GENRE:;
#CREDIT:Telperion;
#BANNER:umiomoide-bn.png;
#BACKGROUND:umiomoide-bg.png;
#LYRICSPATH:;
#CDTITLE:;
#MUSIC:umiomoide.ogg;
#OFFSET:-1.979;
#SAMPLESTART:75.391;
#SAMPLELENGTH:11.294;
#SELECTABLE:YES;
#DISPLAYBPM:170.000;
#BPMS:0.000=170.000
;
#STOPS:
;
#BGCHANGES:;
#KEYSOUNDS:;
#ATTACKS:;

//---------------dance-single - Telperion----------------
#NOTES:
     dance-single:
     Telperion:
     Hard:
     9:
     0.553,0.656,0.225,0.169,0.295,371.000,24.000,18.000,0.000,0.000,0.000,0.553,0.656,0.225,0.169,0.295,371.000,24.000,18.000,0.000,0.000,0.000:
0000
0000
0000
0000
,
0000
0000
0000
0000
,
0000
0000
0000
0000
,
0000
0000
0000
0000
,
0000
0000
0000
0000
,
0000
0000
0000
0000
,
0000
0000
0000
0000
,
0000
0000
0000
0000
,
0100
0101
0001
1001
,
1000
0000
1100
0000
0100
1000
0100
0010
,
0001
0000
0000
0000
1000
0000
0000
0001
0000
0000
0100
0000
0100
0000
0000
0000
,
0001
0000
0010
0000
0010
0000
0000
0100
1000
0000
0010
0000
0010
0000
0000
0100
,
0001
0100
0001
0010
0100
1000
0100
0010
,
0001
0100
0001
0010
0100
1000
0010
0100
,
0101
0000
0000
0000
1000
0000
0000
0001
0000
0000
0100
0000
0100
0000
0001
0000
,
0020
0000
0200
0330
,
1000
0000
0000
0100
0000
0000
0010
0000
0001
0000
0000
1000
0000
0000
0010
0000
,
0100
0000
0000
0001
0000
0000
1000
0000
0100
0000
1000
0100
0000
0000
0001
0000
,
0100
0000
0000
1000
0000
0000
0010
0000
1000
0000
0000
0001
0000
0000
0010
0000
,
0100
0000
0000
1000
0000
0000
0100
0000
0001
0000
0100
0000
0010
0000
0100
0000
,
1100
0000
0000
1000
0000
0000
0001
0000
1000
0000
0000
0100
0000
0000
0010
0000
,
0001
0000
0000
1000
0000
0000
0010
0000
0100
0000
0001
0100
0000
0000
1000
0000
,
0100
0000
0000
0010
0100
0000
0001
0000
0100
0000
0000
0010
1000
0000
0001
0000
,
0100
0000
0000
0001
1000
0000
0100
0000
0001
0000
0100
0000
1000
0000
0000
0000
,
0110
0000
0000
0001
0000
0000
0001
0000
0000
0000
1000
0000
0001
0000
0010
0000
,
0100
0000
0000
1000
0000
0000
0010
0000
0000
0000
0100
0000
0010
0000
0100
0000
,
0001
0000
0000
1000
0000
0000
0010
0000
0000
0000
0100
0000
0001
0000
0010
0000
,
0100
0000
0000
1000
0000
0000
0010
0000
0000
0000
0001
0000
0010
0000
1000
0000
,
1001
0001
1000
0010
0100
0001
0100
0010
,
1000
0100
1000
0010
0100
0001
0010
0100
,
1000
0010
0000
0100
0001
0000
0001
1000
0000
1000
0100
0000
1000
0000
0100
0000
,
0020
0000
0230
0000
,
2300
0000
0000
0000
,
0000
0000
0000
0000
,
0000
0000
0000
0000
,
0000
0000
0000
0000
,
3001
0000
0100
0000
0001
0000
0010
0001
,
1000
0000
0100
0000
1000
0000
0010
0100
,
0001
0000
0100
0000
0010
0000
0100
0001
,
0010
0000
0010
0100
0010
0001
0010
0000
,
0100
1000
0001
1000
0000
1000
0001
1000
,
0000
0001
1000
0001
0000
0001
1000
0001
,
0000
0100
0001
0100
0000
0100
0001
1000
,
1010
0101
0011
1100
,
1002
0000
0010
0000
1003
0001
1000
0100
,
0020
0100
0032
1003
,
1020
0000
0100
0000
1030
0001
0100
0001
,
0010
0000
0010
0100
0010
0000
0010
0000
,
2001
3010
0102
0013
,
2100
3010
0102
1003
,
1100
0000
0100
0000
1000
0000
0010
0000
1000
0001
1000
0001
1000
0001
1000
0001
,
0010
0000
0000
0110
0000
0000
2002
0000
0000
0000
0000
0000
3003
0000
0000
0000
,
0001
0000
0100
0000
0001
0000
1000
0000
0010
1000
0000
0100
0000
0000
1000
0000
,
0001
0000
0100
0000
0001
0000
1000
0000
0010
0100
0000
0010
0000
0000
1000
0000
,
0001
0000
0001
0000
0010
0000
0100
0000
1000
0100
0000
1000
0000
0000
0001
0100
,
0010
0000
0000
0010
0000
0000
0100
0000
0010
1000
0000
0010
0000
0100
0001
0000
,
1000
0000
0100
0000
1000
0000
0001
0000
0010
0001
0000
0100
0000
0000
0010
0000
,
1000
0000
0001
0000
1000
0000
0100
0000
0010
0100
0000
0010
0000
0000
0001
0000
,
1000
0000
1000
0000
0010
0000
0100
0000
0001
0100
0000
0001
0000
0000
1000
0100
,
0010
0000
0000
0010
0000
0000
0100
0000
0010
0001
0000
0010
0000
0100
1000
0000
,
1100
0100
1000
0010
0100
0010
1000
0100
,
0001
0000
0100
0000
0010
0000
0001
0000
1000
0010
0000
1000
0000
0000
0001
0000
,
0001
0100
0010
0100
0001
0010
0001
1000
,
0010
0000
0000
0010
0000
0000
0100
0000
0010
1000
0000
0010
0000
0010
0100
0000
,
0101
0001
1000
0001
0010
0100
1000
0001
,
0011
0010
0100
1000
0010
0100
0001
1000
,
1010
0000
0010
0000
1000
0000
0010
0000
1000
0001
1000
0001
1000
0001
1000
0001
,
0020
0000
0230
0000
,
2300
0000
0000
0000
,
0000
0000
0000
0000
,
3000
0000
0000
0000
;

//---------------dance-double - Telperion----------------
#NOTES:
     dance-double:
     Telperion:
     Hard:
     9:
     0.530,0.558,0.150,0.084,0.267,371.000,16.000,9.000,0.000,0.000,0.000,0.530,0.558,0.150,0.084,0.267,371.000,16.000,9.000,0.000,0.000,0.000:
00000000
00000000
00000000
00000000
,
00000000
00000000
00000000
00000000
,
00000000
00000000
00000000
00000000
,
00000000
00000000
00000000
00000000
,
00000000
00000000
00000000
00000000
,
00000000
00000000
00000000
00000000
,
00000000
00000000
00000000
00000000
,
00000000
00000000
00000000
00000000
,
00010000
00010000
00001000
00001000
,
01000000
01000000
00010000
00100000
,
01000000
00000000
00000000
00000000
01000000
00000000
00000000
10000000
00010000
00000000
00100000
00000000
00100000
00000000
00000000
00000000
,
01000000
00000000
10000000
00000000
10000000
00000000
00000000
00010000
01000000
00000000
00010000
00000000
00010000
00000000
00000000
10000000
,
01000000
10000000
01000000
10000000
00010000
01000000
00010000
01000000
,
00001000
00010000
00001000
00010000
00000010
00001000
00000100
00001000
,
00000001
00000100
00001000
00000100
00001000
00010000
00100000
10000000
,
02000000
00010000
10000000
03100000
,
10010000
00000000
00000000
00010000
00000000
00000000
01000000
00000000
00010000
00000000
00000000
10000000
00000000
00000000
00100000
00000000
,
01000000
00000000
00000000
00001000
00000000
00000000
00010000
00000000
00000100
00000000
00000000
00001000
00000000
00000000
00000010
00000000
,
00000100
00000000
00000000
00000001
00000000
00000000
00001000
00000000
00000100
00000000
00000000
00000010
00000000
00000000
00000001
00000000
,
00001000
00000000
00000000
00000100
00000000
00000000
00000001
00000000
00001000
00000000
00000001
00000000
00000100
00000000
00000010
00000000
,
00000001
00000000
00000000
00001000
00000000
00000000
00000100
00000000
00001000
00000000
00000000
00000001
00000000
00000000
00000100
00000000
,
00000010
00000000
00000000
00001000
00000000
00000000
00000100
00000000
00010000
00000000
00000000
00001000
00000000
00000000
00100000
00000000
,
01000000
00000000
00000000
10000000
00000000
00000000
00010000
00000000
01000000
00000000
00000000
00100000
00000000
00000000
10000000
00000000
,
00010000
00000000
00000000
01000000
00000000
00000000
10000000
00000000
00010000
00000000
10000000
00000000
01000000
00000000
00010000
00000000
,
00110000
00000000
00000000
10000000
00000000
00000000
00010000
00000000
00000000
00000000
10000000
00000000
01000000
00000000
00010000
00000000
,
00001000
00000000
00000000
00000100
00000000
00000000
00000010
00000000
00000000
00000000
00001000
00000000
00000010
00000000
00001000
00000000
,
00000001
00000000
00000000
00000010
00000000
00000000
00000100
00000000
00000000
00000000
00010000
00000000
00001000
00000000
00100000
00000000
,
00010000
00000000
00000000
01000000
00000000
00000000
00100000
00000000
00000000
00000000
00010000
00000000
00100000
00000000
10000000
00000000
,
10010000
10000000
01000000
10000000
00010000
01000000
00010000
01000000
,
00001000
00010000
00001000
00010000
00000100
00001000
00000010
00001000
,
00000001
00000010
00001000
00000010
00001000
00010000
01000000
10000000
,
00200000
00000000
02300000
00000000
,
03020000
00000000
00000000
00000000
,
00000000
00000000
00000000
00000000
,
00000000
00000000
00000000
00000000
,
00000000
00000000
00000000
00000000
,
01030000
00000000
00000000
00000000
00100000
00000000
00000000
00000000
00010000
00000000
00000000
00001000
00000000
00000000
00000100
00000000
,
00000001
00000000
00000000
00000000
00000100
00000000
00000000
00000000
00001000
00000000
00000000
00010000
00000000
00000000
00100000
00000000
,
10000000
00000000
00000000
00000000
01000000
00000000
00000000
00000000
00010000
00000000
00000000
00001000
00000000
00000000
00000010
00000000
,
00000001
00000000
00001000
00000100
00010000
00001000
01000000
00100000
,
10000000
00100000
00000000
01000000
00010000
00100000
00000000
00001000
,
01000000
00001000
00000000
00010000
00000100
00001000
00000000
00000010
,
00000100
00000001
00000000
00000010
00000001
00000010
00000000
00000100
,
00001100
00011000
00110000
11000000
,
00010000
10000000
01000000
00100000
00010000
00100000
01000000
00000000
,
00010000
01000000
00100000
00001000
00010000
00001000
00000100
00000000
,
00000101
00000100
00000010
00001000
00000010
00000100
00000001
00000000
,
00000010
00000001
00000010
00000100
00010000
00000010
00010000
00000000
,
00011000
00000000
00100000
00010000
00110000
00000000
00001000
00010000
,
00011000
00000000
00000100
00001000
00001010
00000000
00000100
00000001
,
00000010
00000100
00001000
00010000
00100000
01000000
10000000
00010000
,
10000000
00000000
00000000
10010000
00000000
00000000
02200000
00000000
00000000
00000000
00000000
00000000
03300000
00000000
00000000
00000000
,
10000000
00000000
00100000
00000000
01000000
00000000
00100000
00000000
10000000
00010000
00000000
10000000
00000000
00000000
01000000
00000000
,
00100000
00000000
00001000
00000000
00010000
00000000
00001000
00000000
00100000
00010000
00000000
00100000
00000000
00000000
01000000
00000000
,
10000000
00000000
00100000
00000000
00010000
00000000
00001000
00000000
00000100
00000010
00000000
00000100
00000000
00000000
00000001
00000000
,
00000010
00000000
00000000
00000010
00000000
00000000
00000100
00000000
00000010
00000001
00000000
00000010
00000000
00000100
00001000
00000000
,
00000001
00000000
00000010
00000000
00000001
00000000
00000100
00000000
00000010
00000100
00000000
00000010
00000000
00000000
00000100
00000000
,
00000001
00000000
00001000
00000000
00000100
00000000
00001000
00000000
00000001
00000100
00000000
00000001
00000000
00000000
00000010
00000000
,
00000001
00000000
00000100
00000000
00001000
00000000
00010000
00000000
00100000
01000000
00000000
00100000
00000000
00000000
10000000
01000000
,
00100000
00000000
00000000
00100000
00000000
00000000
01000000
00000000
10000000
00100000
00000000
01000000
00000000
00010000
01000000
00000000
,
00100000
00000000
10000000
00000000
01000000
00000000
10000000
00000000
00100000
01000000
00000000
00100000
00000000
00000000
01000000
00000000
,
00001000
00000000
00010000
00000000
00001000
00000000
01000000
00000000
00010000
01000000
00000000
00010000
00000000
00000000
10000000
00000000
,
10000000
00000000
01000000
00000000
00010000
00000000
00001000
00000000
00000010
00000100
00000000
00000010
00000000
00000000
00000001
00000100
,
00000010
00000000
00000000
00000010
00000000
00000000
00000100
00000000
00000010
00001000
00000000
00000010
00000000
00000010
00000100
00000000
,
00000001
00001000
00000001
00001000
00000100
00010000
00001000
00010000
,
00011000
00001000
00010000
00001000
00100000
00010000
00100000
01000000
,
10000000
00100000
00010000
00100000
00010000
00001000
00000100
00000001
,
00000021
00000000
00000230
00000000
,
00002300
00000000
00000000
00000000
,
00000000
00000000
00000000
00000000
,
00003000
00000000
00000000
00000000
;

//---------------dance-single - Telperion----------------
#NOTES:
     dance-single:
     Telperion:
     Medium:
     6:
     0.424,0.459,0.084,0.141,0.009,293.000,9.000,15.000,0.000,0.000,0.000,0.424,0.459,0.084,0.141,0.009,293.000,9.000,15.000,0.000,0.000,0.000: // measure 0
0000
0000
0000
0000
,  // measure 1
0000
0000
0000
0000
,  // measure 2
0000
0000
0000
0000
,  // measure 3
0000
0000
0000
0000
,  // measure 4
0000
0000
0000
0000
,  // measure 5
0000
0000
0000
0000
,  // measure 6
0000
0000
0000
0000
,  // measure 7
0000
0000
0000
0000
,  // measure 8
2000
3100
0002
0103
,  // measure 9
2000
3100
0002
0013
,  // measure 10
1000
0000
0000
0000
0010
0000
0000
0100
0000
0000
0001
0000
0001
0000
0000
0000
,  // measure 11
0000
0000
1000
0000
2000
0000
0000
3000
0000
0000
0001
0000
0002
0000
0000
0003
,  // measure 12
0010
0001
0010
0100
1000
0100
1000
0000
,  // measure 13
0010
1000
0010
0100
0001
0100
0001
0000
,  // measure 14
1000
0100
0010
0001
1000
0100
0010
0001
,  // measure 15
0200
0000
0300
0000
,  // measure 16
0001
0000
1000
0001
0100
0000
0010
0000
,  // measure 17
1000
0000
0001
1000
0100
0000
0010
0000
,  // measure 18
0100
0000
1000
0001
0100
0000
0001
0000
,  // measure 19
1000
0000
0001
0100
1000
0100
0010
0100
,  // measure 20
0001
0000
1000
0001
0100
0000
0010
0000
,  // measure 21
1000
0000
0001
1000
0100
0000
0010
0000
,  // measure 22
0001
0000
1000
0010
0100
0000
0001
0010
,  // measure 23
0100
0000
1000
0100
0001
0100
1000
0100
,  // measure 24
0010
0000
0100
0000
0010
0000
1000
0010
,  // measure 25
0001
0000
0100
0000
0010
0000
0001
0010
,  // measure 26
1000
0000
0001
0000
0010
0000
1000
0010
,  // measure 27
0001
0000
0100
0000
0010
1000
0010
0100
,  // measure 28
0001
0100
0001
0000
1000
0100
1000
0000
,  // measure 29
0001
0100
0001
0000
1000
0100
0010
0000
,  // measure 30
0001
0100
0010
1000
0001
0100
0010
1000
,  // measure 31
0020
0000
0230
0000
,  // measure 32
0302
0000
0000
0000
,  // measure 33
0000
0000
0000
0000
,  // measure 34
0000
0000
0000
0000
,  // measure 35
0000
0000
0000
0000
,  // measure 36
1003
0001
1000
0000
,  // measure 37
0001
0100
0001
0000
,  // measure 38
1000
0100
1000
0000
,  // measure 39
0010
0100
0010
1000
,  // measure 40
0001
0100
0000
0001
0000
0100
0000
0001
,  // measure 41
1000
0100
0000
1000
0000
0100
0000
1000
,  // measure 42
0001
0100
0000
0001
0000
0100
0000
0010
,  // measure 43
1000
1010
0110
0101
,  // measure 44
0001
0000
1000
0000
0001
0000
1000
0001
,  // measure 45
0010
0001
1000
0001
,  // measure 46
1100
0000
0100
0000
1000
0000
0001
1000
,  // measure 47
0010
0100
0010
1000
,  // measure 48
0101
0001
1100
1000
,  // measure 49
0011
0001
1010
1000
,  // measure 50
0001
1000
0001
1000
0001
1000
0001
0010
,  // measure 51
0100
0000
0000
0010
0000
0000
0220
0000
0000
0000
0000
0000
0330
0000
0000
0000
,  // measure 52
0001
0000
1000
0001
0100
0001
1000
0000
,  // measure 53
0010
0000
1000
0001
0010
0001
1000
0000
,  // measure 54
0100
0000
0100
1000
0001
1000
0100
0000
,  // measure 55
0001
0000
0100
0000
1000
0010
0100
0000
,  // measure 56
0001
0000
1000
0001
0100
0001
1000
0000
,  // measure 57
0010
0000
1000
0001
0010
0001
1000
0000
,  // measure 58
0100
0000
0100
1000
0001
1000
0010
0000
,  // measure 59
0001
0000
0010
0000
1000
0010
0100
0001
,  // measure 60
1000
0000
0100
0000
0010
0100
1000
0001
,  // measure 61
0010
0000
0001
0000
1000
0010
0100
0001
,  // measure 62
0001
0000
1000
0000
0010
1000
0001
0100
,  // measure 63
1000
0000
0100
0010
0100
1000
0100
0001
,  // measure 64
1000
0000
0100
1000
0001
0000
1000
0001
,  // measure 65
0100
0000
0001
0100
0010
0000
0100
0010
,  // measure 66
1000
0010
0100
0001
1000
0010
0100
0001
,  // measure 67
0020
0000
0230
0000
,  // measure 68
2300
0000
0000
0000
,  // measure 69
0000
0000
0000
0000
,  // measure 70
3000
0000
0000
0000
;

//---------------dance-single - Telperion----------------
#NOTES:
     dance-single:
     Telperion:
     Easy:
     4:
     0.286,0.394,0.141,0.131,0.000,185.000,15.000,14.000,0.000,0.000,0.000,0.286,0.394,0.141,0.131,0.000,185.000,15.000,14.000,0.000,0.000,0.000:
0000
0000
0000
0000
,
0000
0000
0000
0000
,
0000
0000
0000
0000
,
0000
0000
0000
0000
,
0000
0000
0000
0000
,
0000
0000
0000
0000
,
0000
0000
0000
0000
,
0000
0000
0000
0000
,
0002
1000
0000
1000
,
0000
0100
0003
0010
,
0001
0000
1000
0000
0000
0100
0100
0000
,
0000
1000
1000
0000
0000
0001
0001
0000
,
2000
0001
0000
0001
,
0000
0010
3000
0100
,
1000
0000
0001
0000
0000
1000
1000
0000
,
0020
0000
0230
0000
,
0301
0010
0001
0010
,
1000
0010
1000
0010
,
1000
0100
1000
0100
,
0001
0100
0010
0000
,
1000
0010
1000
0010
,
0001
0010
0001
0010
,
0001
0100
0001
0100
,
1000
0000
0001
1000
0010
0000
1000
0000
,
0010
0100
0010
0100
,
0001
1000
0001
0010
,
0100
0010
0100
1000
,
0001
0000
1000
0000
0001
0100
0010
0000
,
0100
0000
0100
0000
0100
0000
0001
1000
,
0100
0000
0100
0000
0100
0000
1000
0001
,
0100
0010
0100
0001
,
0020
0000
0230
0000
,
2300
0000
0000
0000
,
0000
0000
0000
0000
,
0000
0000
0000
0000
,
0000
0000
0000
0000
,
3001
0000
0000
0000
,
0100
0000
0000
0000
,
1000
0000
0000
0000
,
0010
0000
0000
0000
,
0001
0000
0010
0000
,
1000
0000
0100
0000
,
0001
0000
1000
0000
,
1001
0110
1001
0110
,
2001
0000
0000
0000
,
3010
0000
0000
0000
,
0102
0000
0000
0000
,
0013
0000
0100
0000
,
1100
0000
0101
0000
,
1100
0000
0101
0000
,
1010
0010
0011
0010
,
0110
0000
0000
2002
0000
0000
3003
0000
,
1000
0010
1000
0010
,
0001
0010
0001
0010
,
0001
0100
0001
0100
,
1000
0100
0010
0000
,
0001
0010
0001
0010
,
1000
0010
1000
0010
,
1000
0100
1000
0100
,
0001
0000
1000
0001
0010
0000
0100
0000
,
1001
0001
0100
0010
,
1000
0001
1000
0100
,
0010
0100
1000
0001
,
0010
0000
0001
0000
1000
0001
0010
0000
,
0100
0000
0100
0000
0100
0000
1000
0001
,
0100
0000
0100
0000
0100
0000
0001
1000
,
0100
1000
0001
1000
,
0020
0000
0230
0000
,
0302
0000
0000
0000
,
0000
0000
0000
0000
,
0003
0000
0000
0000
;

//---------------dance-single - Telperion----------------
#NOTES:
     dance-single:
     Telperion:
     Beginner:
     2:
     0.103,0.191,0.000,0.019,0.000,75.000,0.000,2.000,0.000,0.000,0.000,0.103,0.191,0.000,0.019,0.000,75.000,0.000,2.000,0.000,0.000,0.000:
0000
0000
0000
0000
,
0000
0000
0000
0000
,
0000
0000
0000
0000
,
0000
0000
0000
0000
,
0000
0000
0000
0000
,
0000
0000
0000
0000
,
0000
0000
0000
0000
,
0000
0000
0000
0000
,
1000
0000
0000
0000
,
0000
0000
0000
0000
,
0001
0000
0000
0000
,
0001
0000
0000
0000
,
1000
0000
0000
0000
,
0001
0000
0000
0000
,
1000
0000
0000
0000
,
1000
0000
0000
0000
,
0010
0000
0000
0000
,
0100
0000
0000
0000
,
0001
0000
0000
0000
,
1000
0000
0001
0000
,
0010
0000
0000
0000
,
0100
0000
0000
0000
,
1000
0000
0000
0000
,
0001
0000
1000
0000
,
0010
0000
0000
0000
,
0100
0000
0000
0000
,
0010
0000
0000
0000
,
0100
0000
0010
0000
,
1000
0000
0001
0000
,
1000
0000
0001
0000
,
0010
0000
0100
0000
,
0020
0000
0000
0000
,
0030
0000
0000
0000
,
0000
0000
0000
0000
,
0000
0000
0000
0000
,
0000
0000
0000
0000
,
1000
0000
0000
0000
,
0001
0000
0000
0000
,
0100
0000
0000
0000
,
0100
0000
0000
0000
,
0001
0000
0000
0000
,
1000
0000
0000
0000
,
0100
0000
0000
0000
,
0010
0010
0010
0010
,
0010
0000
0000
0000
,
0001
0000
0000
0000
,
0100
0000
0000
0000
,
1000
0000
0000
0000
,
0010
0000
0001
0000
,
0100
0000
1000
0000
,
0010
0000
0001
0000
,
0100
0000
0000
0000
,
0001
0000
0000
0000
,
0100
0000
0000
0000
,
0010
0000
0000
0000
,
1000
0000
0010
0000
,
1000
0000
0000
0000
,
0100
0000
0000
0000
,
0010
0000
0000
0000
,
0001
0000
0010
0000
,
0001
0000
0000
0000
,
0100
0000
0000
0000
,
0010
0000
0000
0000
,
1000
0000
0010
0000
,
1000
0000
0001
0000
,
1000
0000
0001
0000
,
1000
0001
1000
0001
,
0020
0000
0000
0000
,
0030
0000
0000
0000
;
