#TITLE:キズナ~ゴーバスターズ!;
#SUBTITLE:;
#ARTIST:謎の新ユニットSTA☆MEN;
#TITLETRANSLIT:Kizuna ~ Go-Busters!;
#SUBTITLETRANSLIT:;
#ARTISTTRANSLIT:Nazo no shin unit STA☆MEN;
#CREDIT:;
#BANNER:Kizuna ~ Go-Busters!.png;
#BACKGROUND:Kizuna ~ Go-Busters!-bg.png;
#LYRICSPATH:;
#CDTITLE:;
#MUSIC:Kizuna ~ Go-Busters!.mp3;
#OFFSET:-0.175;
#SAMPLESTART:59.905;
#SAMPLELENGTH:15.620;
#SELECTABLE:YES;
#BPMS:0.000=132.000;
#STOPS:;
#BGCHANGES:;

//---------------dance-single - ----------------
#NOTES:
     dance-single:
     :
     Hard:
     7:
     0.544,0.513,0.468,0.215,0.272: // measure 1
0000
0000
0000
0000
,  // measure 2
0000
0000
0000
0000
,  // measure 3
0000
0000
0000
0000
,  // measure 4
0000
0000
0000
0000
0000
0000
0000
1000
,  // measure 5
0001
0000
0000
0000
0100
0000
0000
0010
0000
0000
1010
0000
0000
0000
1000
0000
,  // measure 6
0100
0000
0000
0000
0010
0000
0000
0001
0000
0000
1001
0000
0000
0000
1000
0000
,  // measure 7
0010
0100
0010
1000
0100
0010
0001
0100
,  // measure 8
0001
0000
0000
0010
0000
0000
0210
0000
0000
0000
1000
0000
1300
0000
0100
0000
,  // measure 9
0010
0000
0000
0000
0001
0000
0000
0200
0000
0000
0010
0000
0310
0000
0100
0000
,  // measure 10
0010
0000
0000
0000
1000
0000
0000
0001
0000
0000
1000
0000
0100
0000
0010
0000
,  // measure 11
0011
0000
0000
0000
0101
0000
0000
0000
0100
0000
0000
0010
0000
0000
1010
0000
,  // measure 12
0000
0000
1000
0000
0100
0000
0010
0000
0001
0000
0000
1000
0000
0000
0010
0000
,  // measure 13
1010
0000
0010
0000
0100
0000
0000
0002
0000
0000
0100
0000
0103
0000
0000
2000
,  // measure 14
0000
0000
0100
0000
3100
0000
0000
0001
0000
0000
0101
0000
0000
0110
0000
0000
,  // measure 15
1001
0000
1000
0000
0010
0000
0000
0002
0000
0000
0010
0000
0013
0000
0000
2000
,  // measure 16
0000
0000
0010
0000
3010
0000
0000
0001
0000
0000
0011
0000
0000
1010
0000
0000
,  // measure 17
1100
0100
0010
0001
1000
0010
1000
0001
,  // measure 18
0100
0000
0000
0010
0000
0000
1000
0000
0000
0001
0100
0000
0001
0100
0000
0000
,  // measure 19
0010
0000
1000
0000
0100
0000
0010
0000
0001
0000
0000
1000
0000
0000
0100
0000
,  // measure 20
1000
0010
0100
0000
0101
0000
0011
0000
,  // measure 21
0110
0100
1000
0010
1000
0001
0010
1000
,  // measure 22
0010
0000
0000
0001
0000
0000
0200
0000
0000
0000
0010
0000
0310
0000
0100
0000
,  // measure 23
0101
0101
0001
0000
1010
1010
1000
0000
,  // measure 24
1001
0000
0000
0001
0000
0000
0010
0000
0100
0000
0100
0000
1000
0000
1000
0000
,  // measure 25
0010
0000
0000
1000
0000
0000
0100
0000
0020
0000
0000
0000
0031
0000
0010
0000
,  // measure 26
0100
0000
0000
1000
0000
0000
0001
0000
0200
0000
0000
0000
0310
0000
0100
0000
,  // measure 27
0001
0000
0000
0010
0000
0000
0100
0000
1000
0000
0000
0010
0000
0000
0100
0000
,  // measure 28
0001
1000
0010
0000
1000
1000
0001
0001
,  // measure 29
0101
0000
0100
0000
0010
0000
1000
0000
0100
0000
0000
0010
0000
0000
0001
0000
,  // measure 30
0010
0000
0000
0100
0000
0000
1000
0000
0002
0000
0000
0000
1003
0000
0001
0000
,  // measure 31
0101
0000
0000
0100
0000
0000
0010
0000
1000
0000
0000
0100
0000
0000
0010
0000
,  // measure 32
0011
0000
0000
0001
0000
0000
0101
0000
0000
0100
0000
0000
0010
0000
1000
0000
,  // measure 33
0001
0000
0000
1000
0000
0000
0100
0000
0120
0000
0000
0000
0130
0000
0010
0000
,  // measure 34
0011
0000
0001
0000
0100
0000
0010
0200
0000
0000
0001
0000
0301
0000
0000
0000
,  // measure 35
0100
0000
0010
0000
1000
0100
0000
2000
0000
0000
0001
0000
3001
0000
0000
0000
,  // measure 36
1000
0010
0100
0001
1000
0100
0010
0001
,  // measure 37
0011
0000
0000
1001
0000
0000
2010
0000
0000
0000
0010
0000
3010
0000
1000
0000
,  // measure 38
0001
0000
0100
0000
0010
1000
0000
0200
0000
0000
1000
0000
1300
0000
0000
0000
,  // measure 39
0100
0000
0010
0000
0001
0000
1000
0001
1000
0000
0001
0000
0100
0000
0010
0000
,  // measure 40
1010
0000
0000
0000
0110
0000
0000
0000
0100
0000
0000
0001
0000
0000
1001
0000
,  // measure 41
0000
1000
0100
0010
0001
0001
1000
1000
,  // measure 42
1001
0000
0000
0001
0000
0000
0100
0000
0000
1000
0000
0000
0010
0000
0001
0000
,  // measure 43
0000
0000
1001
0000
0000
1010
0000
0000
0220
0000
0000
0000
0330
0000
0000
0000
;

//---------------dance-single - ----------------
#NOTES:
     dance-single:
     :
     Beginner:
     1:
     0.099,0.134,0.013,0.000,0.000: // measure 1
0000
0000
0000
0000
,  // measure 2
0000
0000
0000
0000
,  // measure 3
0000
0000
0000
0000
,  // measure 4
0000
0000
0000
0000
,  // measure 5
1000
0000
0000
0000
,  // measure 6
0001
0000
0000
0000
,  // measure 7
0100
0000
0000
0000
,  // measure 8
0010
0000
0010
0000
,  // measure 9
0010
0000
0000
0000
,  // measure 10
1000
0000
1000
0000
,  // measure 11
1000
0000
0000
0000
,  // measure 12
0001
0000
0001
0000
,  // measure 13
0001
0000
0000
0000
,  // measure 14
0010
0000
0010
0000
,  // measure 15
0010
0000
0000
0000
,  // measure 16
0100
0000
0100
0000
,  // measure 17
0100
0000
0000
0000
,  // measure 18
1000
0000
0000
0000
,  // measure 19
0001
0000
0000
0000
,  // measure 20
0010
0000
0010
0000
,  // measure 21
0010
0000
0000
0000
,  // measure 22
0100
0000
0000
0000
,  // measure 23
1000
0000
1000
0000
,  // measure 24
1000
0000
0000
0000
,  // measure 25
0001
0000
0000
0000
,  // measure 26
1000
0000
0000
0000
,  // measure 27
0010
0000
0010
0000
,  // measure 28
0010
0000
0000
0000
,  // measure 29
0100
0000
0000
0000
,  // measure 30
0001
0000
0000
0000
,  // measure 31
1000
0000
1000
0000
,  // measure 32
0001
0000
0001
0000
,  // measure 33
0100
0000
0100
0000
,  // measure 34
0010
0000
0000
0000
,  // measure 35
1000
0000
0000
0000
,  // measure 36
0001
0000
0000
0000
,  // measure 37
0100
0000
0100
0000
,  // measure 38
0100
0000
0000
0000
,  // measure 39
0010
0000
0010
0000
,  // measure 40
0010
0000
0000
0000
,  // measure 41
1000
0000
1000
0000
,  // measure 42
1000
0000
0000
0000
,  // measure 43
0001
0000
1001
0000
;

//---------------dance-single - ----------------
#NOTES:
     dance-single:
     :
     Easy:
     3:
     0.265,0.269,0.063,0.000,0.000: // measure 1
0000
0000
0000
0000
,  // measure 2
0000
0000
0000
0000
,  // measure 3
0000
0000
0000
0000
,  // measure 4
0000
0000
0000
0000
,  // measure 5
1000
0100
0001
0000
,  // measure 6
1000
0010
0001
0000
,  // measure 7
1000
0010
0100
0001
,  // measure 8
1000
0100
0010
0000
,  // measure 9
0001
0100
1000
0000
,  // measure 10
0001
0010
1000
0010
,  // measure 11
0001
1000
0100
0010
,  // measure 12
0001
0001
1000
1000
,  // measure 13
0001
0100
0001
1000
,  // measure 14
0001
0010
0001
1001
,  // measure 15
1000
0100
1000
0001
,  // measure 16
1000
0010
1000
1001
,  // measure 17
0001
0010
0100
0010
,  // measure 18
0001
0100
0010
0000
,  // measure 19
1000
0100
0010
0100
,  // measure 20
1000
0010
0100
0100
,  // measure 21
0010
1000
0100
1000
,  // measure 22
0001
0010
0001
0000
,  // measure 23
1000
1000
0001
0001
,  // measure 24
0100
0100
0010
0010
,  // measure 25
1000
0100
0001
0000
,  // measure 26
1000
0010
0001
0000
,  // measure 27
1000
0010
0100
0001
,  // measure 28
1000
1000
0001
0001
,  // measure 29
0100
0010
1000
0010
,  // measure 30
0100
0001
0100
0000
,  // measure 31
0010
1000
0100
1000
,  // measure 32
0001
0001
1000
1000
,  // measure 33
0010
0010
0100
0110
,  // measure 34
0100
0001
0010
0000
,  // measure 35
0100
1000
0010
0000
,  // measure 36
1000
0001
0100
0001
,  // measure 37
0010
0100
0110
0000
,  // measure 38
0100
1000
0010
0000
,  // measure 39
0100
0001
0010
0100
,  // measure 40
1000
1000
0001
0001
,  // measure 41
0100
0100
0010
0010
,  // measure 42
1000
0100
0001
0010
,  // measure 43
1000
0001
1001
0000
;

//---------------dance-single - ----------------
#NOTES:
     dance-single:
     :
     Medium:
     6:
     0.444,0.403,0.088,0.177,0.177: // measure 1
0000
0000
0000
0000
,  // measure 2
0000
0000
0000
0000
,  // measure 3
0000
0000
0000
0000
,  // measure 4
0000
0000
0000
0000
0000
0000
0000
1000
,  // measure 5
0001
0000
0000
0000
0100
0000
0000
0010
0000
0000
0200
0000
0000
0000
0310
0000
,  // measure 6
1000
0000
0000
0000
0001
0000
0000
2000
0000
0000
3100
0000
0000
0000
1000
0000
,  // measure 7
0010
0100
0010
0000
1000
0001
1000
0000
,  // measure 8
0001
0000
0000
0100
0000
0000
0020
0000
0000
0000
1000
0000
1030
0000
0000
0000
,  // measure 9
0010
0000
0000
0000
0100
0000
0000
0002
0000
0000
1000
0000
1003
0000
0000
0000
,  // measure 10
0001
0000
0000
0000
1000
0000
0000
0100
0000
0000
0010
0000
0001
0000
0100
0000
,  // measure 11
0001
0000
0000
0000
0010
0000
0000
0000
0100
0000
0000
1000
0000
0000
0001
0000
,  // measure 12
0000
0000
1000
0000
0010
0000
0100
0000
0010
0000
0000
1000
0000
0000
0100
0000
,  // measure 13
0001
0100
1000
0000
0001
0010
1000
0000
,  // measure 14
0001
0000
0100
0000
0010
0000
1000
0000
0100
0000
0010
0000
0000
0001
0000
0000
,  // measure 15
0100
0010
1000
0000
0100
0010
0001
0000
,  // measure 16
1000
0000
0100
0000
0001
0000
0100
0000
1000
0000
0010
0000
0000
0001
0000
0000
,  // measure 17
0010
1000
0010
0000
1000
0100
1000
0000
,  // measure 18
0001
0000
0000
0010
0000
0000
0200
0000
0000
0000
1000
0000
0000
1300
0000
0000
,  // measure 19
0100
0010
0100
0000
0010
0001
0010
0000
,  // measure 20
0001
1000
0001
0000
0101
0000
1010
0000
,  // measure 21
1100
0100
0010
0000
0001
0100
0010
0000
,  // measure 22
1000
0000
0000
0001
0000
0000
0200
0000
0000
0000
0010
0000
0310
0000
0000
0000
,  // measure 23
1000
1000
0001
0000
0100
0100
0010
0000
,  // measure 24
1000
0000
0000
0100
0000
0000
0001
0000
1000
0000
0010
0000
0001
0000
0010
0000
,  // measure 25
1000
0000
0000
0100
0000
0000
1000
0000
0200
0000
0000
0000
1300
0000
0000
0000
,  // measure 26
0001
0000
0000
0100
0000
0000
0001
0000
0200
0000
0000
0000
0301
0000
0000
0000
,  // measure 27
1000
0000
0000
0010
0000
0000
1000
0000
0001
0000
0000
0010
0000
0000
0001
0000
,  // measure 28
1000
0100
1000
0000
0001
0100
0001
1000
,  // measure 29
0001
0100
0010
0000
1000
0100
0010
0000
,  // measure 30
0001
0000
0000
1000
0000
0000
0010
0000
2000
0000
0000
0000
3001
0000
0000
0000
,  // measure 31
1001
0000
0000
1000
0000
0000
0010
0000
0100
0000
0000
0010
0000
0000
1000
0000
,  // measure 32
1001
0000
0000
0001
0000
0000
0010
0000
0000
0100
0000
0000
0010
0000
0001
0000
,  // measure 33
0100
0000
0000
0010
0000
0000
1000
0000
0002
0000
0000
0000
1003
0000
0000
0000
,  // measure 34
0001
0100
1000
0100
0002
0000
1003
0000
,  // measure 35
0001
0010
1000
0010
0002
0000
1003
0000
,  // measure 36
0001
0100
0010
0000
1000
0100
0010
0000
,  // measure 37
0001
0000
0000
1000
0000
0000
0020
0000
0000
0000
0100
0000
0130
0000
0000
0000
,  // measure 38
0001
0100
1000
0010
0002
0000
1003
0000
,  // measure 39
0001
0100
1000
0010
0001
0001
1000
1000
,  // measure 40
0010
0000
0000
0000
1000
0000
0000
0000
0001
0000
0000
0100
0000
0000
0110
0000
,  // measure 41
0000
0010
1000
0001
1000
1000
0001
0001
,  // measure 42
0100
0000
0000
0010
0000
0000
1000
0000
0000
0010
0000
0000
0100
0000
0001
0000
,  // measure 43
0000
0000
1000
0000
0000
0100
0000
0000
0110
0000
0000
0000
0000
0000
0000
0000
;
