#TITLE:Do Back Burn;
#SUBTITLE:;
#ARTIST:PRASTIK DANCEFLOOR;
#TITLETRANSLIT:;
#SUBTITLETRANSLIT:;
#ARTISTTRANSLIT:;
#CREDIT:;
#BANNER:;
#BACKGROUND:;
#LYRICSPATH:;
#CDTITLE:;
#MUSIC:Do Back Burn.mp3;
#OFFSET:-0.380;
#SAMPLESTART:0.035;
#SAMPLELENGTH:11.980;
#SELECTABLE:YES;
#BPMS:0.000=136.000;
#STOPS:;
#BGCHANGES:;

//---------------dance-single - ----------------
#NOTES:
     dance-single:
     :
     Hard:
     9:
     0.607,0.548,0.343,0.137,0.333:
0000
0000
0000
0000
,
0000
0000
0000
0000
,
0000
0000
0001
0000
0000
0010
0000
0000
0100
0000
0000
1000
0000
0001
0100
0000
,
0010
0010
0010
0010
,
0000
0000
1000
0000
0000
0010
0000
0000
0100
0000
0000
0001
0000
1000
0100
0000
,
0010
0000
0010
0000
0010
0000
0010
0100
,
0000
0000
1000
0000
0000
0001
0000
0000
0100
0000
0000
0010
0000
1000
0001
0000
,
0100
0001
0100
0001
0000
0000
1000
0000
0100
1000
0100
1000
0001
0000
1000
0000
,
0010
0100
0010
1000
0010
0100
0010
1000
,
0100
0010
0100
1000
0100
0020
0100
0031
,
0100
0010
0100
0001
0100
0010
0100
0001
,
0010
0100
0010
0001
0010
0200
0010
1300
,
0001
0010
0100
1000
0010
0100
0001
0100
,
0010
1000
0100
0010
0001
2000
0100
3010
,
0100
0001
0100
0010
1000
0100
0010
0001
,
0010
0000
0100
0000
1000
0000
0001
0100
0000
0100
0001
0000
1000
0000
0100
0000
,
0010
0000
0001
0000
0100
0000
0010
1000
0010
0000
0100
0000
0001
0000
0010
0100
,
0010
0000
0001
0000
1000
0000
0001
0100
0001
0000
0010
0000
0100
0000
0100
0000
,
1000
0000
0001
0000
0010
0000
0100
1000
0100
0000
0010
0000
0001
0000
1000
0010
,
1000
0000
0001
0000
0100
0000
0001
1000
0001
0000
0100
0000
0010
0000
0010
0000
,
1000
0000
0100
0000
0010
0000
0001
1000
0001
0000
0100
0000
0010
0000
1000
0100
,
1000
0000
0010
0000
0100
0000
0001
0010
0001
0000
1000
0000
0100
0000
0100
0000
,
0010
0000
0001
0000
0100
0000
0001
1000
0001
0000
1000
0000
0100
0000
0010
0001
,
0010
0000
0001
0000
0100
0000
0010
1000
0000
1000
0010
0000
0100
0000
0001
0000
,
1000
0001
0000
0000
0000
0000
0001
0100
0000
0001
0000
0000
0201
0000
0000
0000
,
0310
1000
0000
0000
0000
0000
1000
0100
0000
1000
0000
0000
1200
0000
0000
0000
,
0310
0001
0000
0000
0000
0000
0001
1000
0000
0100
0000
0000
0210
0000
0000
0000
,
0310
0001
0000
0000
0000
0000
0100
0010
0000
0100
0000
0000
0210
0000
0000
0000
,
0301
1000
0000
0000
0000
0000
0100
0010
0000
0100
0000
0000
2100
0000
0000
0000
,
3010
0100
0000
0000
0000
0000
0001
1000
0000
0010
0000
0000
0210
0000
0000
0000
,
0301
0010
0000
0000
0000
0000
0100
1000
0000
0001
0000
0000
1001
0000
0100
0020
,
0000
0000
0000
1030
,
1010
0101
1010
0011
,
0001
0010
1000
0100
0001
0100
1000
0010
,
0100
0000
0010
0000
0100
0000
0001
1000
0001
0000
0010
0000
0100
0000
1000
0000
,
0010
0100
0010
1000
0001
0100
0110
0000
,
0001
0001
1000
1000
0010
0010
0100
0100
,
0001
0010
1000
0010
0001
0100
0010
1000
,
0002
0000
0000
0013
0200
0000
0000
1300
,
0001
0000
1000
0000
0001
0000
0100
0000
0010
0000
0100
0000
0010
1000
0010
1000
,
0010
0100
0001
0010
1000
0010
0001
0100
,
1010
0101
1010
0101
,
0010
1000
0100
0001
0100
1000
0001
0010
,
1100
0000
0011
0000
1100
0000
1000
0001
,
1000
0100
0001
1000
0010
0001
0100
0010
,
1001
0110
1001
0110
,
1000
0001
0010
1000
0010
0001
0100
0010
,
1010
0101
0011
1100
,
0100
0000
0010
0000
0000
0001
0000
0000
0100
0000
0000
0010
0000
1000
0100
0000
,
1100
0011
1100
0011
,
0100
0000
1000
0000
0000
0010
0000
0000
0100
0000
0000
0001
0000
1000
0010
0000
,
1010
0000
0101
0000
1010
0000
0101
1000
,
0020
0100
0000
0130
,
0001
0100
0010
0000
1000
0100
0010
0000
0001
0100
0010
0000
1000
0100
0010
0000
,
0200
0010
0000
0310
,
1000
0010
0100
0000
0001
0010
0100
0000
1000
0010
0100
0000
0001
0010
0100
1000
;

//---------------dance-single - ----------------
#NOTES:
     dance-single:
     :
     Medium:
     6:
     0.425,0.466,0.176,0.117,0.005:
0000
0000
0000
0000
,
0000
0000
0000
0000
,
0001
0000
1000
0000
0001
0100
0001
0000
,
0010
0010
0010
0010
,
0100
0000
1000
0000
0010
0100
0010
0000
,
1000
1000
1000
1000
,
0001
0000
0010
0000
0100
1000
0001
0000
,
0100
0010
1000
0001
,
0010
0100
1000
0000
0100
0010
0001
0000
,
0100
0010
1000
0000
0010
0100
0001
0000
,
1000
0100
0010
0000
0001
0010
0100
0000
,
1000
0010
0100
0000
0001
0100
0010
0000
,
1000
0001
0100
0000
0001
1000
0100
0000
,
1000
0001
0010
0000
0001
1000
0010
0000
,
1000
0100
1000
0000
0001
0010
0001
0000
,
0100
0001
0100
0000
0010
1000
0010
0000
,
0100
0001
0100
0000
0001
0000
0010
0000
,
0100
1000
0100
1000
0100
0010
0001
0000
,
1000
0010
1000
0000
0001
0000
0100
0000
,
0010
1000
0010
1000
0010
0100
0001
0000
,
0010
0100
0010
0000
0100
0000
1000
0000
,
0100
0010
0100
0010
0001
1000
0010
0000
,
0100
0001
0100
0000
0010
1000
0010
0000
,
0100
0001
1000
0100
0010
0100
1000
0000
,
0002
0000
0000
1003
0000
0000
0110
0000
,
0200
0000
0000
0301
0000
0000
0101
0000
,
0020
0000
0000
1030
0000
0000
1010
0000
,
2000
0000
0000
3100
0000
0000
0110
0000
,
0020
0000
0000
0031
0000
0000
1001
0000
,
2000
0000
0000
3100
0000
0000
1100
0000
,
0020
0000
0000
0000
0000
0000
0031
0000
0000
0000
0000
0000
0001
0000
1000
0002
,
0000
0000
0000
0003
,
0101
0101
0101
0101
,
1000
0001
1000
0001
1000
0001
1000
0001
,
0100
0000
0010
0000
1000
0001
1000
0000
,
0100
0000
0010
0000
0001
1000
0001
0000
,
1100
1100
1100
1100
,
0001
0010
0001
0010
0001
0010
0001
0100
,
0020
0000
0000
0130
0020
0000
0000
0000
,
1030
0000
0001
0000
0100
0000
0010
1000
,
0001
0000
0100
0000
0010
1000
0001
0000
,
0010
0010
0010
0010
,
0100
0000
1000
0000
0001
1000
0010
0000
,
0100
0000
0100
0000
0100
0000
0100
0001
,
1000
0000
0010
0000
0100
0001
0010
0000
,
0100
0100
0100
0100
,
1000
0000
0001
0000
0010
0100
0010
0000
,
0001
0001
0001
0001
,
0101
0000
1010
0000
1000
0100
0010
0000
,
0001
1000
0100
1000
0001
1000
0100
0000
,
1100
0000
0011
0000
0001
0010
0100
0000
,
1000
0001
0100
0001
1000
0001
0100
0010
,
2000
0100
0000
3100
,
0100
0010
0001
0100
0010
1000
0010
0100
,
0002
0100
0000
0103
,
0100
0010
1000
0100
0010
0001
0010
0100
,
1000
0000
0000
0000
;

//---------------dance-single - ----------------
#NOTES:
     dance-single:
     :
     Easy:
     3:
     0.211,0.246,0.088,0.059,0.000: // measure 1
0000
0000
0000
0000
,  // measure 2
0000
0000
0000
0000
,  // measure 3
0000
0000
0000
0000
,  // measure 4
0010
0010
0010
0010
,  // measure 5
0000
0000
0000
0000
,  // measure 6
1000
1000
1000
1000
,  // measure 7
0000
0000
0000
0000
,  // measure 8
2002
0000
0000
3003
,  // measure 9
1000
0000
0001
0000
,  // measure 10
1000
0000
0001
0100
,  // measure 11
0001
0000
1000
0000
,  // measure 12
0001
0000
1000
0100
,  // measure 13
1000
0000
0001
0000
,  // measure 14
1000
0000
0001
0010
,  // measure 15
0001
0000
1000
0000
,  // measure 16
0001
0000
1000
0010
,  // measure 17
0100
0000
0010
0000
,  // measure 18
0100
0000
0010
1000
,  // measure 19
0100
0000
0010
0000
,  // measure 20
0100
0000
0010
0001
,  // measure 21
0100
0000
0010
0000
,  // measure 22
0100
0000
0010
1000
,  // measure 23
0100
0000
0010
0000
,  // measure 24
0100
0010
0100
0010
,  // measure 25
0011
0000
0000
0000
,  // measure 26
1100
0000
0000
0000
,  // measure 27
0101
0000
0000
0000
,  // measure 28
1010
0000
0000
0000
,  // measure 29
1001
0000
0000
0000
,  // measure 30
0110
0000
0000
0000
,  // measure 31
1001
0000
0000
0000
,  // measure 32
0220
0000
0000
0330
,  // measure 33
1000
1000
1000
1000
,  // measure 34
0002
0000
0000
0013
,  // measure 35
0100
0000
0010
0000
,  // measure 36
0100
0000
0010
0000
,  // measure 37
0001
0001
0001
0001
,  // measure 38
2000
0000
0000
3010
,  // measure 39
0100
0000
0001
0000
,  // measure 40
0010
0100
1000
0001
,  // measure 41
1000
0000
0001
0000
,  // measure 42
0100
0100
0100
0100
,  // measure 43
0001
0000
1000
0000
,  // measure 44
0100
0100
0100
0100
,  // measure 45
0010
0000
0100
0000
,  // measure 46
1000
1000
1000
1000
,  // measure 47
0010
0000
0100
0000
,  // measure 48
0001
0001
0001
0001
,  // measure 49
1000
0100
1000
0001
,  // measure 50
0100
0100
0100
0100
,  // measure 51
0001
1000
0001
0100
,  // measure 52
0010
0010
0010
0010
,  // measure 53
1000
0100
0010
0001
,  // measure 54
1000
1000
1000
1000
,  // measure 55
0010
0100
0010
1000
,  // measure 56
0001
0001
0001
0001
;
