#TITLE:中華急行;
#SUBTITLE:;
#ARTIST:Ryu☆;
#TITLETRANSLIT:Chinese Express;
#SUBTITLETRANSLIT:;
#ARTISTTRANSLIT:;
#CREDIT:;
#BANNER:bn.png;
#BACKGROUND:bg.png;
#LYRICSPATH:;
#CDTITLE:;
#MUSIC:Chinese Express.mp3;
#OFFSET:-0.364;
#SAMPLESTART:14.380;
#SAMPLELENGTH:12.000;
#SELECTABLE:YES;
#BPMS:0.000=171.000,36.000=85.500,38.000=171.000,165.000=85.500,181.000=171.000;
#STOPS:100.000=0.351
,181.000=1.053
,244.000=0.351
;
#BGCHANGES:;

//---------------dance-single - Pandemonium X----------------
#NOTES:
     dance-single:
     Pandemonium X:
     Hard:
     9:
     0.585,0.701,0.384,0.108,0.123: // measure 1
0000
0000
0000
0000
,  // measure 2
0000
0000
0000
0000
,  // measure 3
0000
0000
0000
0000
,  // measure 4
0000
0000
0000
0000
,  // measure 5
0000
0000
0000
0000
,  // measure 6
0001
0000
0000
0000
,  // measure 7
0100
0000
0000
0000
,  // measure 8
0010
0000
0000
0000
,  // measure 9
0010
0000
1000
0000
,  // measure 10
1001
0000
0000
0000
0101
0000
0001
1000
,  // measure 11
0100
0000
1000
0010
0100
0010
1000
0001
,  // measure 12
0010
0100
1000
0001
0100
0000
0010
1000
,  // measure 13
0100
0001
0100
0010
0001
0100
0001
1000
,  // measure 14
0100
1000
0010
0100
0010
0000
0100
0100
,  // measure 15
0001
0000
0100
0100
0010
1000
0001
0010
,  // measure 16
0001
0100
0010
1000
0100
0000
0010
0001
,  // measure 17
0100
1000
0100
0010
1000
1000
0001
0010
,  // measure 18
0100
0000
0000
0000
1002
0000
0103
0010
,  // measure 19
2000
0000
3100
0010
0100
1000
0001
0100
,  // measure 20
0001
0010
0001
1000
0100
0000
0010
0001
,  // measure 21
0100
0010
1000
0001
0010
0100
1000
0100
,  // measure 22
0010
1000
0010
0100
0020
0000
0130
1000
,  // measure 23
0002
0000
1003
0010
0100
0010
1000
0001
,  // measure 24
0010
0100
0010
0100
1000
0000
0001
0010
,  // measure 25
0100
1000
0100
0010
0001
0001
1000
1000
,  // measure 26
1001
0000
0101
0000
0010
1000
0010
1000
,  // measure 27
0010
0100
0000
0100
0010
0100
0010
0100
,  // measure 28
0001
0000
1100
0000
0010
0001
0010
0001
,  // measure 29
0010
0100
0000
0100
0010
0001
0100
0010
,  // measure 30
1000
0000
1001
0000
0001
0001
0100
1000
,  // measure 31
0100
0010
0000
0100
0100
0010
1000
0100
,  // measure 32
0010
0000
0011
0000
0001
0010
1000
0010
,  // measure 33
0001
0001
0000
0001
0100
1000
0100
0010
,  // measure 34
1000
0000
0000
0000
0101
0000
0000
0000
0001
0010
0001
0010
0100
0000
1000
0000
,  // measure 35
0010
0000
0100
0000
0000
0000
0100
0001
1000
0000
0001
0000
0100
0000
0010
0000
,  // measure 36
1000
0000
0000
0000
0100
0000
0000
0000
0100
0010
0100
0010
0001
0000
0100
0000
,  // measure 37
0001
0000
0010
0000
0000
0000
0010
0001
0010
0000
0001
0000
1000
0000
0100
0000
,  // measure 38
1000
0000
0000
0000
0010
0000
0000
0000
0100
0001
0100
0001
0010
0000
0100
0000
,  // measure 39
1000
0000
0100
0000
0000
0000
1000
0100
1000
0000
0100
0000
0010
0000
0001
0000
,  // measure 40
0010
0000
0000
0000
0001
0000
0000
0000
0001
1000
0001
1000
0100
0000
1000
0000
,  // measure 41
0010
0000
0100
0000
0000
0000
0100
0001
0101
0000
0001
0000
0100
0000
1000
0000
,  // measure 42
0110
0000
0100
0000
0010
0000
0100
0010
,  // measure 43
1000
0000
0000
0000
1000
0001
1000
0000
0001
0100
0010
0000
0100
0001
1000
0001
,  // measure 44
0100
0000
0000
0000
0110
0000
0000
0100
0100
0000
0000
0010
0010
0000
0000
0100
,  // measure 45
0100
0000
0001
0000
1000
0001
0010
0001
0010
0100
1000
0100
0010
1000
0001
0010
,  // measure 46
0100
0000
1001
0000
1001
0001
0100
0000
,  // measure 47
1001
1000
0100
0000
1001
0001
0100
0001
,  // measure 48
0020
0000
0130
0000
0110
0010
0001
0000
,  // measure 49
0110
0010
1000
0000
0110
0010
0001
1000
,  // measure 50
0002
0000
0003
0000
1001
1000
0010
0000
,  // measure 51
1001
0001
0010
0000
1001
1000
0010
1000
,  // measure 52
0200
0000
0310
0000
0110
0100
1000
0100
,  // measure 53
1000
0100
0010
0100
1000
0001
1000
0001
,  // measure 54
0200
0000
0300
0000
1010
0000
0010
0010
,  // measure 55
1000
0000
0001
0001
0100
0010
1000
0100
,  // measure 56
0020
0000
0130
0000
0100
1000
1010
0000
,  // measure 57
0010
0100
0101
0000
0001
0100
1000
0100
,  // measure 58
0010
0000
0000
0000
0100
0110
0110
0000
,  // measure 59
0100
0101
0101
0000
0001
1001
1001
1000
,  // measure 60
1001
0000
0101
0000
0001
0100
0010
1000
,  // measure 61
0010
0100
0001
0010
0000
0110
0011
1001
,  // measure 62
0101
2002
0000
0000
,  // measure 63
3003
0000
0000
0000
;

//---------------dance-single - Pandemonium X----------------
#NOTES:
     dance-single:
     Pandemonium X:
     Medium:
     7:
     0.447,0.549,0.462,0.108,0.000: // measure 1
0000
0000
0000
0000
,  // measure 2
0000
0000
0000
0000
,  // measure 3
0000
0000
0000
0000
,  // measure 4
0000
0000
0000
0000
,  // measure 5
0000
0000
0000
0000
,  // measure 6
0000
0000
0000
0000
,  // measure 7
0000
0000
0000
0000
,  // measure 8
0000
0000
0000
0000
,  // measure 9
0000
0000
0000
0000
,  // measure 10
2002
0000
3003
0000
0010
0000
0100
0010
,  // measure 11
1000
0000
0010
1000
0001
0000
1000
0000
,  // measure 12
0100
0000
0010
0000
0100
0000
1000
0100
,  // measure 13
1000
0010
0100
0001
,  // measure 14
0100
1000
0100
0001
0010
0000
0001
0010
,  // measure 15
0001
0000
0001
0100
0010
0000
0100
0000
,  // measure 16
0010
1000
0001
0100
,  // measure 17
1000
0000
0100
0000
0010
1000
0010
1000
,  // measure 18
0010
0000
2000
3001
,  // measure 19
0002
0000
0103
0000
0001
0100
0010
0000
,  // measure 20
0100
0010
1000
0000
0020
0000
0130
0000
,  // measure 21
0020
1030
1000
0001
,  // measure 22
0001
0010
0100
1000
0100
0000
1000
0010
,  // measure 23
0200
0000
0310
0000
1000
0000
0001
0010
,  // measure 24
0200
0310
0011
0100
,  // measure 25
1010
0100
0110
1001
,  // measure 26
0110
0101
1100
0101
,  // measure 27
1100
0101
1100
0101
,  // measure 28
1100
1010
0011
1010
,  // measure 29
0011
1010
0011
1010
,  // measure 30
0011
1001
0110
1001
,  // measure 31
0110
1001
0110
1001
,  // measure 32
0110
0101
1010
1100
,  // measure 33
0011
0000
0000
0000
,  // measure 34
0000
0000
0110
0000
0010
0001
0100
0000
,  // measure 35
0110
0000
0010
1000
0001
0000
0001
0010
,  // measure 36
1000
0000
1000
0000
1010
0000
1000
0100
,  // measure 37
0010
0000
0100
1000
0010
0000
0010
0001
,  // measure 38
0100
0000
0010
0000
1001
0000
0001
0100
,  // measure 39
1000
0000
0100
0000
0110
0000
0010
1000
,  // measure 40
0001
1100
0010
0101
,  // measure 41
0010
0000
0000
0001
0100
0010
0100
0001
,  // measure 42
1000
0000
0001
0000
1000
0000
0100
1000
,  // measure 43
0010
0000
0100
0000
0100
0000
0100
0100
,  // measure 44
0001
1000
0001
0010
,  // measure 45
0100
0010
0001
0100
1000
0100
0001
0010
,  // measure 46
1000
0000
0000
0000
0010
0100
0010
0000
,  // measure 47
0010
0100
0010
0000
0010
0100
0010
0100
,  // measure 48
0010
0000
0100
0000
1000
0001
1000
0000
,  // measure 49
0001
1000
0001
0000
1000
0001
1000
0001
,  // measure 50
1000
0000
0000
0000
0001
0100
0001
0000
,  // measure 51
0100
0001
0100
0000
0001
0100
0001
0100
,  // measure 52
0001
0000
0100
0000
0001
0100
0010
0000
,  // measure 53
0100
0010
1000
0000
0001
1000
0001
1000
,  // measure 54
0001
0000
0000
0000
2000
0000
3100
1000
,  // measure 55
0010
0000
0100
0010
1000
0001
0010
0100
,  // measure 56
1000
0100
1100
0010
,  // measure 57
0101
0010
1001
0110
,  // measure 58
1001
0000
0000
0000
0001
0100
0100
0000
,  // measure 59
0001
0100
0100
0000
0001
0100
0100
0010
,  // measure 60
0010
0000
0100
0000
0010
1000
0001
0010
,  // measure 61
0100
1000
0100
1000
0000
1000
0100
0010
,  // measure 62
0001
2002
0000
0000
,  // measure 63
3003
0000
0000
0000
;

//---------------dance-single - Pandemonium X----------------
#NOTES:
     dance-single:
     Pandemonium X:
     Easy:
     4:
     0.306,0.396,0.148,0.020,0.000: // measure 1
0000
0000
0000
0000
,  // measure 2
0000
0000
0000
0000
,  // measure 3
0000
0000
0000
0000
,  // measure 4
0000
0000
0000
0000
,  // measure 5
0000
0000
0000
0000
,  // measure 6
0000
0000
0000
0000
,  // measure 7
0000
0000
0000
0000
,  // measure 8
0000
0000
0000
0000
,  // measure 9
0000
0000
0000
0000
,  // measure 10
0110
0000
0100
0001
,  // measure 11
0001
0100
1000
0100
,  // measure 12
0010
1000
0001
1000
,  // measure 13
0100
0001
0100
0010
,  // measure 14
0001
0001
1000
0001
,  // measure 15
0100
0001
1000
1000
,  // measure 16
0010
0010
0100
0001
,  // measure 17
0010
1000
0100
0100
,  // measure 18
0100
0000
1000
0010
,  // measure 19
0100
0010
1000
1000
,  // measure 20
0001
0001
1000
0100
,  // measure 21
0001
0100
0010
0001
,  // measure 22
0100
1000
0100
0010
,  // measure 23
0010
0100
0100
0001
,  // measure 24
1000
0100
0010
0100
,  // measure 25
1000
0001
1001
1001
,  // measure 26
1001
0101
0100
0001
,  // measure 27
0001
0000
0100
1000
,  // measure 28
0010
0100
0001
0001
,  // measure 29
1000
0000
0100
1000
,  // measure 30
0010
0100
0001
0001
,  // measure 31
1000
0000
0100
1000
,  // measure 32
0010
0100
0001
0001
,  // measure 33
0100
0000
0001
1000
,  // measure 34
0100
1100
1000
0010
,  // measure 35
0010
0100
0001
0100
,  // measure 36
1000
0100
0010
0010
,  // measure 37
0100
0001
1000
0100
,  // measure 38
0010
0001
0010
0010
,  // measure 39
0001
0010
0100
0010
,  // measure 40
0001
0010
0100
1000
,  // measure 41
1000
0000
0100
1000
,  // measure 42
0010
0100
0001
1000
,  // measure 43
0001
0000
1000
0000
0001
0000
1000
0001
,  // measure 44
0100
0001
0001
0100
,  // measure 45
0010
0000
1000
0000
0010
0000
0100
0001
,  // measure 46
1000
0000
0001
0001
,  // measure 47
1000
1000
0001
1000
,  // measure 48
1001
1001
0010
0010
,  // measure 49
0100
0100
0010
0100
,  // measure 50
0110
0000
1000
1000
,  // measure 51
0100
0100
1000
0100
,  // measure 52
1100
1100
1000
0100
,  // measure 53
0010
0001
0011
1010
,  // measure 54
0011
0000
0001
0100
,  // measure 55
0010
0100
0001
1000
,  // measure 56
0100
1000
1000
0100
,  // measure 57
0001
0100
1000
1000
,  // measure 58
1000
0000
1000
0010
,  // measure 59
0001
0010
1000
0010
,  // measure 60
0001
0010
0100
0001
,  // measure 61
0010
0100
0010
0001
,  // measure 62
1000
0220
0000
0000
,  // measure 63
0330
0000
0000
0000
;

//---------------dance-single - Pandemonium X----------------
#NOTES:
     dance-single:
     Pandemonium X:
     Beginner:
     2:
     0.153,0.211,0.030,0.000,0.000: // measure 1
0000
0000
0000
0000
,  // measure 2
0000
0000
0000
0000
,  // measure 3
0000
0000
0000
0000
,  // measure 4
0000
0000
0000
0000
,  // measure 5
0000
0000
0000
0000
,  // measure 6
0000
0000
0000
0000
,  // measure 7
0000
0000
0000
0000
,  // measure 8
0000
0000
0000
0000
,  // measure 9
0000
0000
0000
0000
,  // measure 10
0000
0000
0100
0000
,  // measure 11
0000
0000
0010
0000
,  // measure 12
0000
0000
1000
0000
,  // measure 13
0000
0000
0001
0000
,  // measure 14
0100
0010
0100
0000
,  // measure 15
0000
0000
0010
0000
,  // measure 16
0000
0000
1000
0000
,  // measure 17
1000
0000
0001
0001
,  // measure 18
0001
0000
0100
0000
,  // measure 19
0000
0000
0001
0000
,  // measure 20
0000
0000
1000
0000
,  // measure 21
0000
0000
0100
0000
,  // measure 22
0010
0000
0100
0000
,  // measure 23
0000
0000
1000
0000
,  // measure 24
0000
0000
0001
0000
,  // measure 25
1000
0000
0010
0010
,  // measure 26
0010
0100
0000
0000
,  // measure 27
0000
0100
0000
0000
,  // measure 28
0000
0001
0000
0000
,  // measure 29
0000
0001
0000
0000
,  // measure 30
0000
1000
0000
0000
,  // measure 31
0000
1000
0000
0000
,  // measure 32
0000
0010
0000
0000
,  // measure 33
0000
0100
0000
0000
,  // measure 34
0000
0010
0010
0010
,  // measure 35
0000
0100
0000
0001
,  // measure 36
0000
1000
1000
1000
,  // measure 37
0000
0001
0000
1000
,  // measure 38
0000
0010
0010
0010
,  // measure 39
0000
1000
0000
0001
,  // measure 40
0000
0100
0100
0100
,  // measure 41
0000
0000
1001
0010
,  // measure 42
1001
0100
0000
0000
,  // measure 43
0000
0010
0010
0100
,  // measure 44
0100
0001
0000
0000
,  // measure 45
0000
1000
0001
0100
,  // measure 46
0001
0000
0100
0000
,  // measure 47
0100
0000
0100
0100
,  // measure 48
0100
0000
0010
0000
,  // measure 49
0010
0000
0010
0010
,  // measure 50
0010
0000
1000
0000
,  // measure 51
1000
0000
1000
1000
,  // measure 52
1000
0000
0001
0000
,  // measure 53
0001
0000
0001
0001
,  // measure 54
0001
0000
1000
0000
,  // measure 55
0010
0000
0100
0010
,  // measure 56
0100
0000
0001
0000
,  // measure 57
1000
0000
0010
0010
,  // measure 58
0010
0000
0100
0000
,  // measure 59
0100
0000
0100
0001
,  // measure 60
1000
0010
1000
0000
,  // measure 61
0001
0000
0100
0100
,  // measure 62
0100
1001
0000
0000
;
