#TITLE:naughty girl@Queen's Palace;
#SUBTITLE:;
#ARTIST:DJ Mass MAD Izm*;
#TITLETRANSLIT:;
#SUBTITLETRANSLIT:;
#ARTISTTRANSLIT:;
#GENRE:;
#CREDIT:;
#MENUCOLOR:;
#METERTYPE:DDR;
#BANNER:naughty girl@Queen's Palace.png;
#BACKGROUND:naughty girl@Queen's Palace-bg.png;
#LYRICSPATH:;
#CDTITLE:;
#MUSIC:naughty girl@Queen's Palace.mp3;
#OFFSET:-0.409;
#SAMPLESTART:26.790;
#SAMPLELENGTH:12.000;
#SELECTABLE:YES;
#LISTSORT:;
#BPMS:0.000=145.000;
#STOPS:;
#BGCHANGES:;
#ATTACKS:;

//---------------dance-single - ----------------
#NOTES:
     dance-single:
     :
     Hard:
     8:
     0.556,0.610,0.233,0.026,0.138:
0000
0000
0000
0000
,
0000
0000
0000
0000
,
0000
0000
0000
0000
,
0000
0000
0000
0000
,
1100
0000
0000
0010
0000
0010
0000
0000
,
0011
0000
0000
0100
0000
0100
0000
0000
,
1000
0000
0000
0000
0010
0000
0000
0100
0000
0000
0001
0000
0100
0000
0000
0000
,
0001
0010
0100
1000
0010
0100
0010
0000
,
0110
0000
0000
0100
0001
0000
0010
0000
0000
0000
0100
0000
0010
0000
0001
0000
,
0100
0000
0000
0010
0100
0000
0001
0000
0000
0000
1000
0000
0100
0000
1000
0000
,
0010
0000
0000
1000
0001
0000
0100
0000
0000
0000
0010
0000
0100
0000
0001
0000
,
0010
0000
0000
0100
0010
0000
0001
0000
0000
0000
0100
0000
0010
0000
1000
0000
,
0100
0000
0000
1000
0100
0000
1000
0000
0000
0000
0001
0000
0100
0000
0010
0000
,
0100
0000
0000
0001
0010
0000
0100
0000
0000
0000
0010
0000
1000
0000
0010
0000
,
0001
0000
0000
0100
0010
0000
0100
0000
0000
0000
0001
0000
1000
0000
0010
0000
,
1000
0100
0010
0100
1100
0000
0011
0000
,
0110
0100
1000
0001
0000
0100
0000
0001
,
0010
0100
0010
0001
0000
0010
0000
0100
,
0010
1000
0010
0001
0000
0100
0000
0010
,
0100
0001
1000
0100
0000
1000
0000
0001
,
1000
0010
0100
0001
0000
0100
0000
0001
,
0010
0100
0010
0001
0000
0100
0000
0010
,
0100
0001
1000
0010
0000
1000
0000
0100
,
0010
0100
1000
0002
0000
1003
0010
0000
,
1000
0001
0000
1000
0010
0000
1000
0000
0000
0000
0100
0000
1000
0000
0001
0000
,
0100
0010
0000
0100
0001
0000
0010
0000
0000
0000
0100
0000
0010
0000
0001
0000
,
0100
0001
0000
0100
0001
0000
1000
0000
0000
0000
0001
0000
1000
0000
0010
0000
,
1000
0100
0000
0100
1000
0000
0010
0000
0000
0000
1000
0000
0001
0000
0100
0000
,
0010
0100
0000
0100
0001
0000
0010
0000
0000
0000
0100
0000
0010
0000
0001
0000
,
0100
0010
0000
0100
0001
0000
1000
0000
0000
0000
0001
0000
1000
0000
0010
0000
,
1000
0100
0000
1000
0010
0000
1000
0000
0000
0000
0001
0000
0100
0000
0010
0000
,
0100
0001
0010
0100
0010
0001
0100
0000
,
0101
0100
0010
1010
0000
1100
0000
1000
,
0001
0010
0100
0110
0000
0011
0000
0100
,
0001
0100
0010
1010
0000
1100
0000
1000
,
0100
0001
0100
1100
0000
1010
0000
1000
,
0001
0100
0010
0110
0000
0101
0000
0001
,
0010
0100
0010
0110
0000
0011
0000
0001
,
0100
1000
0100
0101
0000
1001
0000
1000
,
0010
1000
0100
0010
0001
0010
0200
0000
,
0310
0001
1000
0100
0010
0001
0100
0000
,
0001
1000
0010
0001
0010
1000
0100
0000
,
0010
0100
1000
0010
0100
0010
1000
0000
,
0010
1000
0100
0010
0001
0100
0002
0000
,
0013
0100
1000
0100
0010
0001
0100
0000
,
0010
0100
0001
0100
0001
0010
0100
0000
,
1000
0100
0010
0100
1000
0010
0100
0000
,
0011
0101
1100
1010
,
1001
0000
1000
0000
0010
0000
0000
0100
0000
0000
0010
0000
0000
0000
1000
0000
,
0010
0100
0010
0000
1000
0100
0010
0001
,
0100
0000
0001
0000
0010
0000
0000
0001
0000
0000
1000
0000
0000
0000
0010
0000
,
0100
0010
1000
0000
0100
0010
0100
1000
,
0001
0000
0100
0000
0010
0100
0000
0010
0100
0000
0001
0000
0000
0000
1000
0000
,
0010
0100
0010
1000
0100
0010
0001
0000
,
1000
0000
0010
0000
0100
0001
0000
0100
0001
0000
1000
0000
0000
0000
0001
0000
,
0100
0000
0010
1000
0010
0000
1000
0000
0001
0010
0001
0000
0100
0010
0100
0010
,
0100
0001
0010
0100
1000
0100
1000
0010
,
0100
0001
0010
0100
0010
0001
0100
0000
,
0001
0010
0100
1000
0010
1000
0100
0010
,
0100
0010
0100
1000
0001
0100
0010
0000
,
0100
0001
0010
0100
1000
0100
0010
0001
,
0010
0100
0010
0001
0100
0010
1000
0000
,
0100
1000
0001
0100
1000
0100
0001
1000
,
0100
0010
0100
1000
0010
1000
0001
0000
,
1001
0000
0000
1000
0000
1000
0000
1000
,
0010
0000
0000
0010
0000
0010
0000
0010
,
0100
0000
0000
0100
0000
0100
0000
0100
,
0001
0000
0000
0001
0000
0000
0000
0000
;

//---------------dance-single - ----------------
#NOTES:
     dance-single:
     :
     Medium:
     6:
     0.429,0.465,0.198,0.026,0.047: // measure 1
0000
0000
0000
0000
,  // measure 2
0000
0000
0000
0000
,  // measure 3
0000
0000
0000
0000
,  // measure 4
0000
0000
0000
0000
,  // measure 5
1100
0000
0000
1000
0000
1000
0000
0000
,  // measure 6
0011
0000
0000
0001
0000
0001
0000
0000
,  // measure 7
1000
0010
0100
0000
,  // measure 8
0001
0100
0001
0000
1000
0010
1000
0000
,  // measure 9
0001
0000
0100
0000
0010
0100
0010
0000
,  // measure 10
1000
0000
0100
0000
1000
0001
1000
0000
,  // measure 11
0001
0000
0010
0000
0001
1000
0001
0000
,  // measure 12
1000
0000
0010
0000
1000
0010
1000
0000
,  // measure 13
0001
0000
0010
0000
0100
0010
0100
0000
,  // measure 14
1000
0000
0010
0000
1000
0100
1000
0000
,  // measure 15
0001
0000
0100
0000
0001
0010
0001
0000
,  // measure 16
0100
0010
0100
0000
0110
0000
1001
0000
,  // measure 17
0001
0000
1000
0100
0000
0010
0000
0100
,  // measure 18
0010
0000
0001
0100
0000
0001
0000
0100
,  // measure 19
0010
0000
0010
1000
0000
0100
0000
1000
,  // measure 20
0001
0000
0100
0001
0000
0010
0000
0100
,  // measure 21
0010
0000
0001
0100
0000
0010
0000
0100
,  // measure 22
0001
0000
1000
0100
0000
1000
0000
0001
,  // measure 23
0010
0000
0100
0010
0000
0001
0000
0100
,  // measure 24
0010
0000
0100
0002
0000
1003
0010
0000
,  // measure 25
0100
0000
0000
0001
0000
0000
0010
0000
0000
0000
0100
0000
1000
0000
0000
0000
,  // measure 26
0010
0000
0000
1000
0000
0000
0001
0000
0000
0000
0100
0000
0001
0000
0000
0000
,  // measure 27
0010
0000
0000
0100
0000
0000
0010
0000
0000
0000
0001
0000
0100
0000
0000
0000
,  // measure 28
0001
0000
0000
1000
0000
0000
0010
0000
0000
0000
1000
0000
0100
0000
0000
0000
,  // measure 29
1000
0000
0000
0001
0000
0000
0100
0000
0000
0000
0010
0000
0100
0000
0000
0000
,  // measure 30
0001
0000
0000
0010
0000
0000
0100
0000
0000
0000
0010
0000
0001
0000
0000
0000
,  // measure 31
0100
0000
0000
0010
0000
0000
1000
0000
0000
0000
0100
0000
1000
0000
0000
0000
,  // measure 32
0001
0000
0100
0000
0010
1000
0010
0000
,  // measure 33
1000
0100
0000
1100
0000
1100
0000
1000
,  // measure 34
0001
1000
0000
0101
0000
0101
0000
0100
,  // measure 35
0010
0100
0000
0110
0000
0110
0000
0010
,  // measure 36
1000
0010
0000
1010
0000
1010
0000
1000
,  // measure 37
0001
1000
0000
1001
0000
1001
0000
0001
,  // measure 38
0010
0001
0000
0110
0000
0110
0000
0100
,  // measure 39
1000
0100
0000
1010
0000
1010
0000
0010
,  // measure 40
0100
0001
0100
0000
0010
1000
0020
0000
,  // measure 41
0130
0001
0100
0000
0001
0010
0100
0000
,  // measure 42
0010
0100
0010
0000
0001
0010
0001
0000
,  // measure 43
1000
0100
1000
0000
0010
1000
0010
0000
,  // measure 44
1000
0100
1000
0000
0010
0100
0020
0000
,  // measure 45
0130
0001
0100
0000
0001
1000
0001
0000
,  // measure 46
1000
0100
1000
0000
0010
1000
0010
0000
,  // measure 47
0100
0010
0100
0000
0001
0010
0001
0000
,  // measure 48
0011
1100
1010
0101
,  // measure 49
1001
0000
0000
0000
1000
0000
0000
0010
0000
0000
0100
0000
0000
0000
0000
0000
,  // measure 50
0001
0010
0100
0010
,  // measure 51
0001
0000
0000
0000
0100
0000
0000
0010
0000
0000
0100
0000
0000
0000
0000
0000
,  // measure 52
0001
1000
0100
1000
,  // measure 53
0010
0000
0000
0000
0100
0000
0000
0001
0000
0000
0010
0000
0000
0000
0100
0000
,  // measure 54
1000
0000
0010
0100
0010
0100
0010
0000
,  // measure 55
1000
0000
0000
0000
0010
0000
0000
1000
0000
0000
0010
0000
0000
0000
0100
0000
,  // measure 56
0010
1000
0010
0000
1000
0001
1000
0000
,  // measure 57
0001
0010
0100
0010
0000
0100
0000
0010
,  // measure 58
0100
1000
0010
1000
0000
0010
0000
0100
,  // measure 59
0010
0100
0001
0010
0000
0001
0000
0010
,  // measure 60
0001
0010
0100
0010
0000
0100
0000
0010
,  // measure 61
0100
1000
0010
1000
0000
0010
0000
0100
,  // measure 62
0001
0010
0001
0100
0000
0001
0000
0100
,  // measure 63
0010
1000
0100
1000
0000
0100
0000
0010
,  // measure 64
0001
0100
0010
0100
0000
0010
0000
1000
,  // measure 65
0001
0000
0000
0001
0000
0001
0000
0001
,  // measure 66
0010
0000
0000
0010
0000
0010
0000
0010
,  // measure 67
0100
0000
0000
0100
0000
0100
0000
0100
,  // measure 68
1000
0000
0000
1000
0000
0000
0000
0000
;

//---------------dance-single - ----------------
#NOTES:
     dance-single:
     :
     Easy:
     4:
     0.274,0.378,0.078,0.035,0.000: // measure 1
0000
0000
0000
0000
,  // measure 2
0000
0000
0000
0000
,  // measure 3
0000
0000
0000
0000
,  // measure 4
0000
0000
0000
0000
,  // measure 5
1100
0000
0000
1000
0000
0000
0000
0000
,  // measure 6
0011
0000
0000
0001
0000
0000
0000
0000
,  // measure 7
2002
0000
0000
3003
,  // measure 8
0010
0100
0001
1000
,  // measure 9
0001
0010
0100
0000
,  // measure 10
0010
0001
0100
0000
,  // measure 11
0001
1000
0100
0000
,  // measure 12
1000
0010
0100
0000
,  // measure 13
0001
0010
0100
0000
,  // measure 14
0010
0001
0100
0000
,  // measure 15
0010
0100
0001
0000
,  // measure 16
1000
0000
1001
0110
,  // measure 17
0010
0000
0000
0100
0000
0001
0000
0000
,  // measure 18
1000
0000
0000
0100
0000
0010
0000
0000
,  // measure 19
0100
0000
0000
0010
0000
0001
0000
0000
,  // measure 20
0100
0000
0000
0010
0000
0100
0000
0000
,  // measure 21
0001
0000
0000
1000
0000
0100
0000
0000
,  // measure 22
1000
0000
0000
0010
0000
0100
0000
0000
,  // measure 23
0001
0000
0000
0010
0000
0001
0000
0000
,  // measure 24
1000
0000
0000
0020
0000
0000
0130
0000
,  // measure 25
0010
0000
1000
0001
,  // measure 26
0010
0000
0001
0010
,  // measure 27
0100
0000
0010
0100
,  // measure 28
1000
0000
0100
1000
,  // measure 29
0010
0000
0100
0001
,  // measure 30
0010
0000
0001
1000
,  // measure 31
0100
0000
1000
0010
,  // measure 32
0100
0001
0010
0001
,  // measure 33
1000
0000
0010
0100
0000
0001
0000
0000
,  // measure 34
0010
0000
0100
1000
0000
0010
0000
0000
,  // measure 35
1000
0000
0001
0100
0000
0001
0000
0000
,  // measure 36
0010
0000
0001
0010
0000
0100
0000
0000
,  // measure 37
1000
0000
0100
1000
0000
0010
0000
0000
,  // measure 38
0100
0000
0010
0100
0000
0001
0000
0000
,  // measure 39
1000
0000
0100
0010
0000
0100
0000
0000
,  // measure 40
1000
0100
0010
0002
,  // measure 41
1003
0010
0100
0001
,  // measure 42
0010
0100
0010
0001
,  // measure 43
0100
0001
1000
0100
,  // measure 44
1000
0010
0100
0001
,  // measure 45
0010
0100
0010
0001
,  // measure 46
0100
0001
1000
0010
,  // measure 47
1000
0100
0010
0001
,  // measure 48
1001
0110
1001
0110
,  // measure 49
0010
0000
0000
0000
,  // measure 50
0100
0000
0001
0000
,  // measure 51
1000
0000
0000
0000
,  // measure 52
0001
0000
0010
0000
,  // measure 53
0100
0000
0000
0010
0000
0001
0000
0000
,  // measure 54
1000
0010
0100
0010
,  // measure 55
0100
0000
0000
0001
0000
1000
0000
0000
,  // measure 56
0001
0010
0100
0010
,  // measure 57
0001
0100
0001
0100
,  // measure 58
0010
1000
0100
0010
,  // measure 59
0001
0010
0100
0010
,  // measure 60
0001
0100
0010
1000
,  // measure 61
0100
0010
0001
0010
,  // measure 62
0100
1000
0010
0100
,  // measure 63
0001
0010
0100
0010
,  // measure 64
0001
1000
0010
1000
,  // measure 65
0001
0000
0000
0001
0000
0001
0000
0000
,  // measure 66
0010
0000
0000
0010
0000
0010
0000
0000
,  // measure 67
0100
0000
0000
0100
0000
0100
0000
0000
,  // measure 68
1000
0000
0000
1000
0000
0000
0000
0000
;
