#TITLE:Wuv U;
#SUBTITLE:;
#ARTIST:Kors K;
#TITLETRANSLIT:;
#SUBTITLETRANSLIT:;
#ARTISTTRANSLIT:;
#GENRE:;
#CREDIT:DDR Addict;
#MENUCOLOR:;
#METERTYPE:DDR X;
#BANNER:[Round 1] - Wuv U.png;
#BACKGROUND:[Round 1] - Wuv U-bg.png;
#LYRICSPATH:;
#CDTITLE:;
#MUSIC:[Round 1] - Wuv U.mp3;
#OFFSET:-0.873;
#SAMPLESTART:11.960;
#SAMPLELENGTH:15.000;
#SELECTABLE:YES;
#LISTSORT:;
#DISPLAYBPM:86.000;
#BPMS:0.000=86.520,15.500=173.060,78.000=86.520,78.500=173.040,107.000=86.520,138.000=173.040;
#STOPS:14.000=0.347
,45.500=0.260
,45.750=0.260
,94.000=0.260
,94.750=0.260
,95.500=0.260
,96.250=0.087
,132.000=0.347
,133.500=0.347
;
#BGCHANGES:-4.000=[Round 1] - Wuv U.avi=1.000=0=0=0,
99999=-nosongbg-=1.000=0=0=0 // don't automatically add -songbackground-
;
#ATTACKS:;

//---------------dance-single - ----------------
#NOTES:
     dance-single:
     :
     Hard:
     9:
     0.693,0.756,0.413,0.103,0.439:
1000
0100
0001
0000
0100
0001
0000
0001
0100
1000
0010
0000
1000
0010
0000
1000
,
0010
0100
0001
0000
0100
0001
0000
0001
1000
0100
0010
0000
0100
0010
0000
0010
,
0001
0100
1000
0000
0100
1000
0000
1000
0100
0001
0010
0000
0001
0010
0000
0010
,
0100
0000
1000
0000
0010
0000
0000
0000
1000
0000
0010
0000
0000
0000
0010
0000
1010
0000
1000
0010
1000
0000
0010
0000
0100
0000
0001
0000
1000
0000
0000
0000
,
0100
1000
0000
1000
0100
0000
0010
0000
0000
0000
0110
0000
0100
0000
1000
0000
,
0100
1000
0000
1000
0100
0000
0010
0000
0000
0000
0110
0000
0000
0000
0100
0000
,
1000
0100
0000
0100
0010
0000
0001
0000
0000
0000
1000
0000
0001
0000
0000
0000
,
0100
0001
0010
0001
0000
0011
0000
0001
,
0100
0001
0000
0001
0100
0000
0010
0000
0000
0000
0110
0000
0100
0000
0001
0000
,
0100
0001
0000
0001
0100
0000
0010
0000
0000
0000
0110
0000
0000
0000
1000
0000
,
0010
0100
0001
0010
0100
1000
0001
1000
,
0001
0000
1000
0000
0001
0000
0011
1100
1001
0000
0000
0000
1001
0000
0000
0000
,
0001
0010
0001
0010
0001
0100
0001
0100
,
0010
1000
0100
0010
0110
0000
1100
0000
,
1000
0001
0100
0000
0001
0000
1010
0000
,
1000
0100
1000
0100
1000
0000
0010
0000
0100
0000
0000
0000
0101
0000
0000
0000
,
0001
0010
0001
0010
0001
0100
0001
0100
,
0010
1000
0100
0010
0100
0100
1000
0001
,
0100
0100
0010
0000
0110
0000
1001
0000
,
1000
0010
1000
0010
0100
0000
0000
0000
0002
0003
0011
0000
0000
0000
0100
0000
,
1000
0010
1000
0100
1000
0010
1000
0001
,
0100
0001
0100
0010
0010
1000
0100
0010
,
0010
0001
0000
1001
0000
1001
0000
0001
,
0010
0000
0100
0000
0000
0000
1000
0000
0100
0100
0000
0010
0010
0000
0001
1000
,
0000
0001
0000
0000
0100
0000
0000
0000
0110
0000
0010
0000
1000
0000
0100
0000
,
0010
0100
1000
0001
0100
0001
0010
0100
,
1000
0000
0000
0000
0100
0000
0000
0000
0010
0000
0000
0000
0001
0000
0000
0000
0011
0000
0000
0000
0000
0000
0000
0000
0110
0000
0000
0000
0100
0000
0000
1000
,
0000
1000
0000
0000
0001
0000
0100
0000
0001
0000
0000
0000
0010
0000
0000
0100
0000
0100
0000
0000
1000
0000
0010
0000
0100
0000
0000
0000
0001
0000
0000
0010
,
0000
0010
0000
0000
0100
0000
1000
0000
0001
0000
0000
0000
0100
0000
0000
0001
0000
0001
0000
0000
1000
0000
0010
0000
0100
0000
0001
0000
1000
0000
0000
0000
,
0001
1000
0000
1000
0100
0010
0100
0000
0010
0100
0000
0010
0100
1000
0001
0000
,
1000
0000
0001
0000
0000
0000
0001
0000
0100
0000
0010
0000
0100
0000
0010
1000
0010
0000
1000
0000
0100
0000
0010
0000
0001
0000
0000
0000
1001
0000
0000
0000
,
1000
1001
0001
0011
0010
0110
1000
1001
,
0001
1001
1000
1010
0010
0110
0100
0101
,
0022
0033
0100
0000
1000
0000
2020
3030
1000
0000
0002
0000
0013
0000
2000
0000
,
3010
0000
0100
0000
0010
0000
0100
0001
0010
0000
0100
0000
1000
0000
0001
0000
0100
0000
0000
0000
0001
0000
0010
0000
0000
0000
0010
0000
0001
0000
0000
0000
,
0010
0000
0000
0000
0110
0000
0000
0000
0100
0000
1000
0010
0000
0010
1000
0000
,
0010
0000
0110
0000
0100
0001
1000
0100
,
0020
0000
0130
1000
0001
0001
1000
1000
,
0100
0000
0000
0000
1100
0000
0000
0000
1000
0000
0001
0100
0000
0100
0010
0000
,
1000
0000
0000
0000
1100
0000
0000
0000
1000
0000
0100
0010
0000
0010
0001
0000
,
0001
0000
0011
0000
0001
0010
0100
0001
,
0100
1000
0010
1000
0100
0100
1000
1000
,
0010
1000
0010
1000
0010
0000
0100
0000
0001
0000
0010
0000
0100
0000
0010
0000
,
1000
0010
0100
0010
0001
0010
0100
1000
,
0100
0010
0001
1000
0001
0100
0010
0100
,
1000
0100
0010
0100
0001
0100
0010
1000
,
0100
0010
0001
1000
0001
1000
0010
1000
,
0001
1000
0100
1000
0001
1000
0010
0100
,
0001
1000
0100
0010
0001
1000
0001
0010
,
0001
0100
0001
1000
0100
0010
0010
0001
,
0022
0033
1001
0000
;

//---------------dance-single - ----------------
#NOTES:
     dance-single:
     :
     Medium:
     7:
     0.450,0.547,0.289,0.031,0.129:
1000
0000
0100
0000
0000
0010
0000
0010
1000
0000
0100
0000
0000
0010
0000
0010
,
0001
0000
0100
0000
0000
0010
0000
0010
0001
0000
0100
0000
0000
0010
0000
0010
,
0100
0000
0001
0000
0000
0010
0000
0010
0100
0000
1000
0000
0000
0010
0000
0010
,
0100
0000
0010
0000
0000
0100
0000
0100
0010
0000
0100
0000
0001
0000
1000
0000
,
0000
0100
0000
0010
0000
0011
0000
0001
,
0000
0100
0000
0010
0000
1010
0000
1000
,
0000
0001
0000
0101
0000
0101
0000
0001
,
0000
1000
0000
1100
0000
1100
0000
0010
,
0000
0100
0000
1000
0000
0101
0000
0010
,
0000
0100
0000
0001
0000
1100
0000
1000
,
0001
1000
0001
0010
0001
0010
0001
0010
,
0100
0010
0100
1000
0001
0000
0001
0000
,
0010
0100
0010
0000
0001
1000
0001
1000
,
0100
0010
0001
1000
0010
0000
1000
0000
,
0010
0010
0100
0000
0001
0000
1000
0000
,
0001
1000
0100
0010
0001
0000
0001
0000
,
0010
0100
0010
0000
0001
1000
0001
1000
,
0100
0010
0001
1000
0010
0000
1000
0000
,
0010
0010
0100
0000
0001
0000
1000
0000
,
0010
0000
0100
0000
0110
0110
0000
0100
,
0001
0100
0000
0010
0000
1000
0000
0100
,
0010
0100
1000
0001
0000
0100
0000
0010
,
0010
1000
0000
0100
0000
0010
0000
0100
,
0010
0000
0100
0000
0000
0000
0100
0000
0000
1000
0000
0000
0001
0000
0000
0100
,
0000
0010
0010
1001
,
1010
0000
1001
0000
0011
0000
0001
0010
,
0100
1000
0100
0010
0001
0000
2000
0000
,
0100
0001
3100
0002
,
0100
0000
1000
0000
0103
0000
1000
0100
,
0000
0010
0000
0010
1000
0000
0100
0000
0000
0010
0000
0010
0100
0000
0010
0000
,
0000
0001
0000
0001
0100
0000
0000
0010
1000
0010
0100
0001
1000
0000
1000
0000
,
0001
0001
0010
0010
0100
0100
1000
0001
,
0100
0010
1000
0001
0100
0010
1000
1000
,
1100
0001
0001
0101
0010
0110
0100
1100
,
2000
0000
3001
0100
,
0010
1010
1000
0100
,
0010
0011
0001
1000
,
0100
1100
1000
0001
,
0101
0101
0010
0010
,
0110
1000
0001
0001
,
1001
0100
0010
0010
,
0110
0100
0001
0010
,
0100
0000
1000
0000
1001
0001
0000
0001
,
0000
0001
0000
0001
0000
0010
0000
0010
,
0000
0010
0000
0010
0000
0100
0000
0100
,
0000
0100
0000
0100
0000
1000
0000
1000
,
0000
1000
0000
1000
0000
0001
0000
0001
,
0000
0001
0000
0001
0000
0100
0000
0100
,
0000
0100
0000
0100
0010
1000
0010
0000
,
0100
0001
0100
0000
0001
0010
0100
1000
,
0001
0000
1001
0000
;

//---------------dance-single - ----------------
#NOTES:
     dance-single:
     :
     Challenge:
     7:
     0.397,0.495,0.155,0.031,0.186:
1000
0000
0100
0000
MMMM
0010
0000
0010
1000
0000
0100
0000
MMMM
0010
0000
0010
,
0001
0000
0100
0000
MMMM
0010
0000
0010
0001
0000
0100
0000
MMMM
0010
0000
0010
,
0100
0000
0001
0000
MMMM
0010
0000
0010
0100
0000
1000
0000
MMMM
0010
0000
0010
,
0100
0000
0010
0000
0000
0100
0000
0100
MMMM
0000
0100
0000
0001
0000
1000
0000
,
0000
0100
0000
0010
0000
MMMM
0000
0001
,
0000
0100
0000
0010
0000
MMMM
0000
1000
,
0000
0001
0000
0101
0000
0101
0000
0001
,
0000
1000
0000
1100
0000
1100
0000
0010
,
0000
0100
0000
1000
0000
MMMM
0000
0010
,
0000
0100
0000
0001
0000
MMMM
0000
1000
,
0001
1000
0001
0010
0001
0010
0001
0010
,
0100
0000
0010
0000
0100
0000
1000
MMMM
0001
0000
MMMM
0000
0001
0000
0000
0000
,
0010
0100
0010
0000
0001
1000
0001
1000
,
0100
0010
0001
1000
0010
0000
1000
0000
,
0010
0010
0100
0000
MMMM
0000
MMMM
0000
,
0001
1000
0100
0010
0001
MMMM
0001
0000
,
0010
0100
0010
0000
0001
1000
0001
1000
,
0100
0010
0001
1000
0010
0000
1000
0000
,
0010
0010
0100
0000
MMMM
0000
MMMM
0000
,
0010
0000
0100
0000
MMMM
0110
0000
0100
,
0001
0100
0000
0010
0000
1000
0000
0100
,
0010
0100
1000
0001
0000
0100
0000
0010
,
0010
1000
0000
MMMM
0000
MMMM
0000
0100
,
0010
0000
0100
0000
0000
0000
0100
0000
MMMM
1000
0000
MMMM
0001
0000
MMMM
0100
,
0000
MMMM
0000
0000
0010
0000
0000
0000
0010
0000
0000
0000
1001
0000
0000
0000
,
1010
0000
1001
0000
0011
0000
0001
0010
,
0100
1000
0100
0010
MMMM
0000
2000
0000
,
0100
0001
3100
0002
,
0100
0000
1000
0000
0103
0000
1000
0100
,
MMMM
0010
0000
0010
1000
0000
0100
0000
MMMM
0010
0000
0010
0100
0000
0010
0000
,
MMMM
0001
0000
0001
0100
0000
0000
0010
1000
0010
0100
0001
1000
0000
1000
MMMM
,
0001
0000
0001
MMMM
0010
0000
0010
MMMM
0100
0000
0100
MMMM
1000
0000
0001
MMMM
,
0100
0000
0010
MMMM
1000
0000
0001
MMMM
0100
0000
0010
MMMM
1000
0000
1000
0000
,
MMMM
0001
0001
MMMM
0010
MMMM
0100
MMMM
,
2000
0000
3001
0100
,
0010
MMMM
1000
0100
,
0010
MMMM
0001
1000
,
0100
MMMM
1000
0001
,
0101
0101
0010
0010
,
0110
MMMM
0001
0001
,
1001
MMMM
0010
0010
,
0110
0100
0001
0010
,
0100
0000
1000
0000
MMMM
0001
0000
0001
,
0000
0001
0000
0001
MMMM
0010
0000
0010
,
0000
0010
0000
0010
MMMM
0100
0000
0100
,
0000
0100
0000
0100
MMMM
1000
0000
1000
,
0000
1000
0000
1000
MMMM
0001
0000
0001
,
0000
0001
0000
0001
MMMM
0100
0000
0100
,
0000
0100
0000
0100
0010
1000
0010
0000
,
0100
0001
0100
0000
0001
0010
0100
1000
,
0001
0000
1001
0000
;

//---------------dance-single - ----------------
#NOTES:
     dance-single:
     :
     Easy:
     4:
     0.314,0.469,0.206,0.052,0.000: // measure 1
0000
0000
0000
0000
,  // measure 2
0000
0000
0000
0000
,  // measure 3
0000
0000
0000
0000
,  // measure 4
0000
0000
0000
0000
0000
0000
0000
1000
,  // measure 5
0000
0100
0000
1000
0000
1100
0000
0001
,  // measure 6
0000
0100
0000
0001
0000
0101
0000
0001
,  // measure 7
0000
0010
0000
0001
0000
0011
0000
0010
,  // measure 8
0000
1000
0000
0010
0000
1010
0000
1000
,  // measure 9
0000
0010
0000
0001
0000
0011
0000
0001
,  // measure 10
0000
0100
0000
1000
0000
1100
0000
1000
,  // measure 11
0000
0000
0000
0001
0000
0000
0000
1000
,  // measure 12
0000
1000
0000
1000
0010
0000
0000
0000
,  // measure 13
0100
0000
0010
0010
,  // measure 14
1000
0001
0100
0100
,  // measure 15
0001
0010
0100
0100
,  // measure 16
1000
0010
0100
0001
,  // measure 17
0100
0001
0010
0100
,  // measure 18
1000
0001
0100
0100
,  // measure 19
0010
1000
0001
0001
,  // measure 20
0001
0000
0001
0000
2000
3000
0000
0010
,  // measure 21
0000
0010
0000
0100
0000
0001
0000
1000
,  // measure 22
0000
0010
0000
0100
0000
0100
0000
0010
,  // measure 23
0000
1000
0000
0100
0000
0100
0000
0010
,  // measure 24
0000
0010
0000
0100
0000
0000
0000
0000
,  // measure 25
0000
0100
0001
1000
,  // measure 26
0010
0100
0001
1000
,  // measure 27
0001
0100
0010
0200
,  // measure 28
0001
1000
0301
0002
,  // measure 29
0010
0000
1000
0000
0013
0000
1000
0100
,  // measure 30
0010
0100
1000
0100
0010
0100
1000
0010
,  // measure 31
0100
0010
1000
0010
0100
0010
0110
0000
,  // measure 32
1010
0110
0101
0011
,  // measure 33
0110
0000
1100
0000
1001
0000
1000
1000
,  // measure 34
0001
0001
0001
1000
0010
1000
0001
0100
,  // measure 35
0202
0000
0303
0001
,  // measure 36
0010
0100
1000
0001
,  // measure 37
1000
0001
1000
0010
,  // measure 38
0100
0010
0100
0001
,  // measure 39
0100
0001
0010
0010
,  // measure 40
0100
0100
1000
0100
,  // measure 41
1000
0001
0100
0001
,  // measure 42
0100
0010
1000
0010
,  // measure 43
0100
0001
0010
0010
,  // measure 44
0100
0100
1000
0001
,  // measure 45
1000
0001
0100
0100
,  // measure 46
0010
0010
1000
0001
,  // measure 47
1000
0001
0010
0010
,  // measure 48
0100
0100
1000
0001
,  // measure 49
1000
0001
1001
0000
,  // measure 50
1100
0000
1001
0000
,  // measure 51
0101
0000
0110
0000
;
