#TITLE:Sunset;
#SUBTITLE:~Fading Day~;
#ARTIST:JAKAZiD;
#TITLETRANSLIT:;
#SUBTITLETRANSLIT:;
#ARTISTTRANSLIT:;
#CREDIT:;
#BANNER:Sunset.png;
#BACKGROUND:Sunset-bg.png;
#LYRICSPATH:;
#CDTITLE:;
#MUSIC:Sunset.mp3;
#OFFSET:-0.420;
#SAMPLESTART:67.95;
#SAMPLELENGTH:11.820;
#SELECTABLE:YES;
#BPMS:0.000=174.000,68.000=87.000,84.000=174.000;
#STOPS:;
#BGCHANGES:;

//---------------dance-single - ----------------
#NOTES:
     dance-single:
     :
     Hard:
     8:
     0.629,0.628,0.232,0.197,0.167:
0000
0000
0000
0000
,
1000
0000
0001
0000
1000
0100
1000
0000
,
0001
0000
1000
0000
0001
0100
0001
0000
,
1000
0000
0001
0000
1000
0010
1000
0000
,
0001
0000
1000
0000
0001
0010
0001
0000
,
0000
1000
0000
0001
0000
0100
0010
0100
,
0000
0001
0000
1000
0000
0100
0010
0100
,
0000
1000
0000
0001
0000
0010
0100
0010
,
0000
0000
0000
0000
0001
1000
0001
0000
0100
0010
0100
0000
0010
1000
0010
0000
,
0100
0002
0000
0010
0000
0103
0001
0010
,
0000
0200
0000
1000
0000
0301
0100
1000
,
0000
0020
0000
0100
0000
0031
0010
0100
,
0000
2000
0000
0010
0000
3100
0010
0001
,
1000
0020
0000
0130
0010
2000
0000
3100
,
0010
0002
0000
1003
0010
0200
0000
0301
,
1000
0001
0100
0001
0100
0001
0010
0100
,
2000
0000
3010
0101
,
1000
0000
0000
2000
0000
0000
0001
0000
0010
0000
0000
3020
0000
0000
0100
0000
,
1000
0000
0000
2030
0000
0000
0001
0000
0100
0000
0000
0100
0000
3200
0000
0000
,
0010
0000
0000
0320
0000
0000
0001
0000
0100
0000
0000
0230
0000
0000
0001
0000
,
1000
0000
0000
2300
0000
0000
0010
0000
0001
0000
0000
0001
0000
3001
0000
0000
,
0101
0000
1000
0100
0010
0001
0100
0000
,
1010
0000
0100
0000
0001
0010
0001
0000
,
1100
0000
0001
0100
0010
1000
0100
0000
,
0011
0000
0100
1000
0010
1000
0100
0000
,
1000
0010
1000
0000
0010
0001
0010
0000
,
0001
0100
0001
0000
0100
1000
0100
0000
,
0001
1000
0100
0001
0100
1000
0010
0100
,
0002
0000
0000
1003
,
0100
0001
0010
1000
0010
0001
0100
0010
,
1000
0100
1000
0001
1000
0010
1000
0100
,
0010
0001
0100
1000
0100
0001
0010
0100
,
0010
0001
1000
0010
0100
0001
0010
0000
,
0100
1000
0010
1000
0100
0010
0001
0100
,
0010
0100
0001
1000
0010
0100
1000
0100
,
0001
0010
0001
1000
0100
1000
0010
0100
,
0001
1000
0100
0001
0100
1000
0001
0000
,
0000
0000
0100
0000
0000
0100
0000
0000
0100
0000
0000
0001
0000
0000
1100
0000
,
0000
0000
1000
0000
0000
1000
0000
0000
1000
0000
0000
0001
0000
0000
0110
0000
,
0000
0000
0001
0000
0000
0001
0000
0000
0001
0000
0000
1000
0000
0000
0101
0000
,
0000
0000
0010
0000
0000
0010
0000
0000
0010
0000
0000
0100
0000
0000
1001
0000
,
0000
0000
0001
0000
0000
0100
0000
0000
1000
0000
0000
0001
0000
0000
1010
0000
,
0000
0000
1000
0000
0000
0010
0000
0000
0100
0000
0000
0001
0000
0000
1001
0000
,
0000
0000
1000
0000
0000
0100
0000
0000
0001
0000
0000
1000
0000
0000
0011
0000
,
0000
0000
0110
0000
0000
1100
0000
0000
1001
0000
0000
1010
0000
0000
0101
0000
,
0000
0000
0001
0100
1000
0100
0001
0000
,
1100
0000
0001
0000
0010
0100
1000
0000
,
0001
0000
1000
0100
0010
1000
0010
0000
,
0011
0000
0200
0000
0010
0020
0330
0000
,
1001
0000
1000
0100
0001
0100
1000
0000
,
0101
0000
1000
0000
0010
0100
0001
0000
,
1000
0000
0001
0100
0010
0001
0010
0000
,
1010
0000
0001
1000
0100
0001
1000
0010
,
0001
0000
0011
0000
0100
1000
0100
0010
,
0001
0000
0100
0010
1000
0010
0100
0000
,
1010
0000
0100
0001
0100
0010
1000
0000
,
0102
1000
0010
0103
,
0001
0100
0001
0000
0100
1000
0100
0000
,
1000
0010
1000
0000
0010
0001
0010
0000
,
0001
0100
0010
1000
0100
0010
0001
1000
,
0200
0000
0310
1100
,
0001
0100
0001
0000
1000
0000
0010
0000
0100
0000
0000
0000
0100
0000
0100
0000
,
0000
0001
0010
0100
1000
0000
0001
1000
,
0100
0010
0100
0000
1000
0000
0001
0000
0010
0000
0000
0000
0010
0000
0010
0000
,
0000
0000
0001
0000
1000
0000
0001
0000
0100
0000
0000
0001
0000
0000
1000
0000
,
0010
0100
0010
0000
1000
0000
0001
0000
0010
0000
0000
0000
0010
0000
0010
0000
,
0000
0100
1000
0001
1000
0000
0001
0100
,
0010
1000
0010
0000
0100
0000
0001
0000
1000
0000
0000
0000
1000
0000
1000
0000
,
0000
0000
0100
0000
0010
0000
0001
0000
1000
0000
0000
0010
0000
0000
0100
0000
,
0001
0010
0001
0000
1000
0000
0100
0000
0010
0000
0001
0000
1000
0000
0010
0000
,
0100
0001
0100
0000
0010
0000
1000
0000
0100
0000
0010
0000
0001
0000
1000
0000
,
0100
0010
0100
0000
1000
0000
0001
0000
0010
0000
0100
0000
1000
0000
0001
0000
,
0100
0010
0100
0000
0010
0000
1000
0000
0100
0000
0010
0000
0001
0000
1000
0000
,
0001
0100
0001
0000
0100
1000
0100
0000
,
1000
0010
1000
0000
0010
0001
0010
0000
,
0001
0100
1000
0001
0010
1000
0100
0010
,
0002
0000
0200
0303
,
1001
0000
0000
0000
;

//---------------dance-single - ----------------
#NOTES:
     dance-single:
     :
     Medium:
     7:
     0.513,0.529,0.137,0.206,0.052:
0000
0000
0000
0000
,
0000
1000
0000
0001
0000
1000
0100
1000
,
0000
0001
0000
1000
0000
0001
0100
0001
,
0000
1000
0000
0010
0000
1000
0001
1000
,
0000
0001
0000
0010
0000
0001
1000
0001
,
0000
0100
0010
1000
0000
0010
0100
0001
,
0000
1000
0100
0010
0000
0001
0010
0100
,
0000
1000
0001
0100
0000
0001
1000
0100
,
0000
1000
0001
1001
,
2000
0010
0100
0100
,
3020
0100
1000
1000
,
0230
0001
0010
0010
,
0302
0010
1000
1003
,
0101
0010
0101
0010
,
1001
0100
1001
0100
,
1000
0010
0100
0001
,
2002
0000
0000
3003
,
0001
0000
0000
1000
0000
0000
0001
0000
0010
0000
0000
0100
0000
0000
0010
0000
,
0100
0000
0000
1000
0000
0000
0001
0000
1000
0000
0000
0010
0000
0010
0000
0000
,
0100
0000
0000
0001
0000
0000
1000
0000
0100
0000
0000
0010
0000
0000
0001
0000
,
1000
0000
0000
0010
0000
0000
0100
0000
0001
0000
0000
0010
0000
0010
0000
0000
,
0001
0000
0100
0010
0100
0000
0001
0000
,
1000
0000
0100
0010
0100
0010
0100
0000
,
1000
0000
0010
0100
0010
0000
1000
0000
,
0001
0020
0100
0130
,
1000
0100
1000
0010
,
1000
0010
0001
0010
,
0001
0100
0001
0100
,
2000
0000
3001
1100
,
1000
0001
0100
0000
0001
0100
0010
0000
,
0100
0010
1000
0000
0010
1000
0100
0000
,
1000
0001
0100
0000
0001
0010
0100
0000
,
0010
0100
1000
0000
0100
1000
0001
0000
,
1000
0010
0100
0000
0010
0100
0001
0000
,
0100
0001
1000
0000
0001
1000
0100
0000
,
1000
0001
0100
0000
0001
0100
0010
0000
,
0100
0010
1000
0000
0010
1000
0001
0000
,
0201
0000
0310
0000
0100
0001
0100
0000
,
1020
0000
0130
0000
1000
0010
1000
0000
,
2001
0000
3100
0000
1000
0100
1000
0000
,
0001
0010
0100
1000
0010
0100
0001
0000
,
1002
0000
0013
0000
0001
0010
0001
0000
,
0210
0000
0310
0000
0100
1000
0100
0000
,
1200
0000
0310
0000
0010
0001
0010
0000
,
0000
0000
0100
0000
0000
1000
0000
0000
0001
0000
0000
0100
0000
0000
0010
0000
,
1000
0000
0010
0100
0010
0100
0010
0000
,
1000
0000
0001
0000
0010
0100
0010
0000
,
0001
0000
0100
0010
0100
0010
0100
0000
,
0001
0000
1000
0000
0001
0200
0000
0000
,
0301
0000
0100
0010
0100
0010
0100
0000
,
0001
0000
1000
0000
0100
0010
0100
0000
,
1000
0000
0010
0100
0010
0100
0010
0000
,
1000
2010
3100
1200
,
0310
0000
0001
0100
0001
1000
0001
0000
,
1000
0000
0001
0000
1000
0001
1000
0000
,
0100
0000
1000
0001
0100
0001
1000
0000
,
0010
0000
0100
0000
0001
0010
0001
0000
,
0001
0010
0001
0010
,
1000
0010
1000
0100
,
1000
0100
0001
0100
,
0002
0000
0013
0011
,
0001
0000
1000
0000
0020
0000
0100
0130
,
0000
0001
1000
0100
,
0010
0000
0001
0000
2000
0000
0010
3010
,
0000
0100
0001
0010
,
0100
0000
1000
0000
0020
0000
0100
0130
,
0000
0001
1000
0001
,
0010
0000
0100
0000
2000
0000
0001
3001
,
0000
0100
0010
0100
,
1000
0001
0100
0000
0001
1000
0100
0000
,
0001
1000
0100
1000
0001
1000
0010
0000
,
0100
0001
0010
0000
0001
1000
0010
0000
,
1000
0010
0100
0001
0010
0100
1000
0000
,
0001
0100
0001
0000
0010
0001
0010
0000
,
1000
0010
1000
0000
0100
0001
0100
0000
,
0001
0010
0100
1000
0010
0100
0001
1000
,
0002
0000
0020
0000
,
0033
0000
0000
0000
;

//---------------dance-single - ----------------
#NOTES:
     dance-single:
     :
     Easy:
     4:
     0.374,0.397,0.034,0.258,0.000: // measure 1
0000
0000
0000
0000
,  // measure 2
1000
0001
0100
0001
,  // measure 3
1000
0001
0100
0001
,  // measure 4
1000
0100
0010
0100
,  // measure 5
1000
0100
0010
0100
,  // measure 6
1000
0001
0010
0001
,  // measure 7
1000
0001
0010
0001
,  // measure 8
1000
0010
0100
0010
,  // measure 9
1000
0002
0023
0130
,  // measure 10
1000
0002
0000
0003
,  // measure 11
0100
0020
0000
0030
,  // measure 12
1000
0200
0000
0300
,  // measure 13
0010
0002
0000
0003
,  // measure 14
2000
0010
3002
0100
,  // measure 15
0023
1000
0230
0001
,  // measure 16
0310
0100
0010
0100
,  // measure 17
0220
0000
0000
0330
,  // measure 18
1000
0100
1000
0010
,  // measure 19
0100
0001
0010
0001
,  // measure 20
1000
0100
1000
0001
,  // measure 21
0100
0001
1000
0010
,  // measure 22
0100
0001
0010
0001
,  // measure 23
0100
0010
1000
0100
,  // measure 24
0010
1000
0100
1000
,  // measure 25
0010
0100
0010
0100
,  // measure 26
0002
0000
0023
0000
,  // measure 27
2030
0000
3200
0000
,  // measure 28
0301
0010
0001
0010
,  // measure 29
0200
0000
0300
1100
,  // measure 30
1000
0001
0100
0010
,  // measure 31
0100
0001
0100
0010
,  // measure 32
0100
0001
0100
0010
,  // measure 33
0100
0001
1000
0100
,  // measure 34
0010
0100
1000
0100
,  // measure 35
0010
0100
1000
0100
,  // measure 36
0010
0100
1000
0001
,  // measure 37
0100
0010
1000
0001
,  // measure 38
0010
0100
1000
0001
,  // measure 39
0100
0010
1000
0100
,  // measure 40
0010
0001
1000
0010
,  // measure 41
0100
0001
0100
0010
,  // measure 42
1000
0001
0010
0100
,  // measure 43
1000
0010
0100
0010
,  // measure 44
1000
0100
1000
0001
,  // measure 45
2002
0000
0000
3003
,  // measure 46
1000
0001
0010
0001
,  // measure 47
1000
0010
0100
0001
,  // measure 48
1000
0010
1000
0001
,  // measure 49
0010
0100
1000
0001
,  // measure 50
1000
0010
1000
0001
,  // measure 51
0010
0100
1000
0001
,  // measure 52
0010
0001
0100
1000
,  // measure 53
0001
0010
1000
0001
,  // measure 54
1000
0001
0100
0010
,  // measure 55
0100
0001
1000
0100
,  // measure 56
0010
0100
1000
0001
,  // measure 57
0100
0001
0010
0001
,  // measure 58
0200
0000
2300
0000
,  // measure 59
3020
0000
0032
0000
,  // measure 60
1003
0001
0100
0001
,  // measure 61
0020
0000
0000
0130
,  // measure 62
1000
0001
0010
0010
,  // measure 63
0001
1000
0100
0010
,  // measure 64
0001
1000
0010
0010
,  // measure 65
1000
0010
0100
0001
,  // measure 66
0010
0100
1000
1000
,  // measure 67
0001
1000
0010
0100
,  // measure 68
0001
0010
0100
0100
,  // measure 69
0010
0001
1000
0010
,  // measure 70
0100
0001
0010
0010
,  // measure 71
0100
1000
0001
0100
,  // measure 72
0010
1000
0001
0001
,  // measure 73
1000
0100
0010
0100
,  // measure 74
2000
0000
3020
0000
,  // measure 75
0032
0000
0203
0000
,  // measure 76
0310
1000
0010
0100
,  // measure 77
0220
0000
0000
0000
,  // measure 78
0330
0000
0000
0000
;
