#TITLE:Spooky;
#SUBTITLE:;
#ARTIST:good-cool;
#TITLETRANSLIT:;
#SUBTITLETRANSLIT:;
#ARTISTTRANSLIT:;
#GENRE:;
#CREDIT:;
#BANNER:;
#BACKGROUND:;
#LYRICSPATH:;
#CDTITLE:;
#MUSIC:Spooky.mp3;
#OFFSET:-0.349;
#SAMPLESTART:87.564;
#SAMPLELENGTH:11.980;
#SELECTABLE:YES;
#BPMS:0.000=140.000
;
#STOPS:
;
#BGCHANGES:;
#KEYSOUNDS:;
#ATTACKS:;

//---------------dance-single - Blank----------------
#NOTES:
     dance-single:
     :
     Hard:
     8:
     0.557,0.558,0.394,0.180,0.168,405.000,48.000,22.000,0.000,0.000,0.000,0.557,0.558,0.394,0.180,0.168,405.000,48.000,22.000,0.000,0.000,0.000:
0000
0000
0000
0000
,
0000
0000
0000
0000
,
0000
0000
0000
0000
,
2010
3001
0102
1003
,
0020
0000
0031
0010
1000
0000
1100
0000
,
0001
0000
0100
0100
0001
0000
0101
0000
,
1000
0000
0001
0000
0010
0010
0010
0000
,
0001
0001
0101
0000
2100
0000
3001
0100
,
0020
0000
0031
0010
1000
0000
1100
0000
,
0001
0000
1000
1000
0010
0000
1001
0000
,
0010
0001
0001
0000
1000
1000
0010
0100
,
0101
0000
0001
0001
0010
0100
1000
0000
,
0001
0010
0110
0000
1000
0010
1000
0000
,
0010
0000
0100
0000
0001
0000
0000
0000
0010
0000
0000
0010
0000
0000
0010
0000
,
0001
0000
1000
0000
0100
0000
0000
0000
1000
0000
0000
1000
0000
0000
1000
0000
,
0010
0000
1000
1000
0001
0000
0110
0000
,
0010
0000
1000
0100
0001
0100
1000
0000
,
0001
0000
0010
0000
0100
0000
0000
0000
1000
0000
0000
1000
0000
0000
1000
0000
,
0001
0010
0100
1000
0010
0100
0010
1000
,
0001
0000
0000
0001
0000
0000
1000
0000
0010
0000
0000
0010
0000
0000
0100
0000
,
0001
0000
0000
0001
0000
0000
0010
0000
0001
0000
0000
0001
0000
0000
0100
0000
,
0010
0000
0000
0010
0000
0000
1000
0000
0100
0000
0000
0100
0000
0000
1000
0000
,
0010
0000
0000
0010
0000
0000
0100
0000
0001
0000
0000
0001
0000
0000
1000
0000
,
0100
0000
0000
0100
0000
0000
0001
0000
0100
0000
0000
0100
0000
0000
1000
0000
,
0010
0000
0000
0010
0000
0000
0100
0000
1000
0000
0000
1000
0000
0000
0100
0000
,
0001
0000
0000
0001
0000
0000
1000
0000
0010
0000
0000
0010
0000
0000
0001
0000
,
0010
0100
0010
0100
0010
0000
1000
0000
0001
0100
0001
0000
1000
0000
0010
1000
,
0010
0100
0000
0101
0000
1100
0000
1001
,
1000
0000
0000
0000
0010
0100
0000
0100
0001
0000
0001
1000
0000
1000
0100
0000
,
1000
0010
0000
0110
0000
0101
0000
1001
,
0001
0010
0001
0010
0001
0000
1000
0000
0000
0000
0001
0000
0100
0000
0010
0000
,
0100
0001
0000
1100
0000
0101
0000
0110
,
0100
0000
0001
0000
1000
0100
0000
0100
1000
0000
0001
0010
0000
0010
0001
0000
,
1000
0010
0000
1010
0000
0011
0000
0110
,
0010
0100
1000
0100
0001
0100
1000
0100
,
0010
0000
0001
0100
0001
0000
1000
0000
0210
0000
0000
0000
0301
0000
0010
0000
,
2000
0000
3010
0001
0100
0010
0110
0000
,
0001
0000
1000
0000
0100
0000
1000
0001
0000
0000
0100
0000
0101
0000
0000
0000
,
1000
0000
0100
0000
0020
0002
0000
0000
0033
0000
0010
0000
1000
0000
0010
0000
,
0001
0000
0100
0010
0100
0000
0001
0000
0021
0000
0000
0000
0130
0000
1000
0000
,
0002
0000
1003
0010
0001
0010
1000
0000
,
0101
0100
0001
0000
1100
1000
0100
0000
,
0011
0000
0000
0000
1010
0000
0000
0000
0001
0100
0001
0000
1000
0100
1000
0000
,
0001
0100
1000
0000
1000
0100
0001
0000
,
1000
0000
0000
0000
0001
0000
0000
0000
1000
0000
0010
0100
0000
0100
0001
0000
,
1000
0010
0001
0000
0001
0010
1000
0000
,
0001
0010
0100
1000
0000
1100
0000
0011
,
0001
0010
1000
0000
1000
0010
0001
0000
,
1000
0000
0000
0000
0001
0000
0000
0000
1000
0000
0100
0010
0000
0010
0001
0000
,
1000
0100
0001
0000
0001
0100
1000
0000
,
0001
0010
0100
0010
0001
1000
0010
0100
,
0201
0310
1020
0130
,
0001
0000
1000
0010
0100
0001
1000
1000
,
0010
0000
0100
0100
0001
0000
1010
0000
,
0001
0000
1000
0100
1000
0010
0010
0100
,
0102
0000
1003
1000
1200
0000
0310
0001
,
0020
0000
1030
0010
0001
0010
1000
0000
,
1010
0000
0010
0010
0100
0010
0001
0000
,
1000
0010
0010
0100
0001
1000
0100
0100
,
2100
3010
0102
0013
,
0001
0100
1000
0000
1000
0100
0001
0000
,
1000
0000
0001
0001
0000
0110
0000
1000
,
1100
0000
0101
0000
1000
0100
0001
0100
,
2000
0000
3001
0001
0200
0000
0310
1000
,
1100
0000
0001
0100
0010
0100
0001
0010
,
0100
0000
1000
1000
0000
0101
0000
1010
,
1000
0100
0010
0001
1000
0010
0100
0202
,
0000
0000
0000
0000
,
0303
0000
0000
0000
;

//---------------dance-single - Blank----------------
#NOTES:
     dance-single:
     :
     Easy:
     3:
     0.277,0.335,0.139,0.254,0.000,188.000,17.000,31.000,0.000,0.000,0.000,0.277,0.335,0.139,0.254,0.000,188.000,17.000,31.000,0.000,0.000,0.000:
0000
0000
0000
0000
,
0000
0000
0000
0000
,
0000
0000
0000
0000
,
2000
3010
0002
0103
,
2000
0000
3001
0000
,
0001
0101
0000
0000
,
1000
0100
0010
0010
,
0002
0203
0320
1030
,
0002
0000
1003
0000
,
1000
1100
0000
0000
,
1000
0010
0010
1000
,
0002
0000
0203
0000
,
0320
0000
0230
0000
,
0301
1000
0010
0010
,
1000
0001
0100
0100
,
0002
0000
0203
0000
,
0320
0000
2030
0000
,
3001
1000
0010
0010
,
1000
0100
0010
0001
,
1000
0000
0100
0000
,
0001
0000
0010
0000
,
0001
0000
0100
0000
,
1000
0000
0010
0000
,
1001
0000
0100
0000
,
0001
0000
0010
0000
,
0001
0000
0100
0000
,
1000
0000
0010
0000
,
1000
0100
0001
0100
,
1000
0000
0010
0010
,
0001
0100
1000
0100
,
0001
1000
0000
0110
,
1000
0010
0001
0010
,
1000
0000
0100
0100
,
0001
0010
1000
0010
,
0001
0100
0010
1000
,
0001
0000
0110
0000
,
1000
0000
1010
0000
,
0001
0000
1001
0000
,
2000
0002
0000
3003
,
0100
0000
0101
0000
,
0010
0000
1001
0000
,
1100
0000
1001
0000
,
0110
0110
0001
1000
,
0001
0100
1000
0000
,
0010
1000
0100
0000
,
1000
0001
0100
0000
,
0001
0010
0100
1000
,
0001
1000
0100
0000
,
1000
0010
0001
0000
,
0010
0001
0100
0000
,
0001
0010
0100
1000
,
0002
0103
2000
3010
,
0001
0100
0010
0000
,
1000
1001
0000
0000
,
0001
0100
0000
0000
,
2000
3200
0320
0032
,
1003
0010
0100
0000
,
0010
0110
0000
0000
,
0001
1000
0010
0010
,
2000
3100
0002
0013
,
1000
0001
0100
0000
,
0010
0110
0000
0000
,
0001
0010
0100
1000
,
0002
0203
0320
2030
,
3001
1000
0010
0000
,
1000
1100
0000
0000
,
0001
0000
0100
0000
1000
0000
0020
0200
,
0000
0000
0000
0000
,
0330
0000
0000
0000
;

//---------------dance-single - Blank----------------
#NOTES:
     dance-single:
     :
     Medium:
     6:
     0.459,0.418,0.312,0.344,0.000,312.000,38.000,42.000,0.000,0.000,0.000,0.459,0.418,0.312,0.344,0.000,312.000,38.000,42.000,0.000,0.000,0.000:
0000
0000
0000
0000
,
0000
0000
0000
0000
,
0000
0000
0000
0000
,
2000
3020
0230
2300
,
3100
0001
0010
0110
,
1000
0000
0001
0001
0100
0000
0010
0000
,
0100
0000
0001
0000
1000
1000
1000
0000
,
0002
0023
0230
0302
,
0103
1000
0010
0110
,
0001
0000
1000
1000
0010
0000
0100
0000
,
0010
1000
1000
0000
0001
0001
0000
0100
,
0100
0102
1000
0013
,
2000
3020
0230
0301
,
1000
0100
0001
0000
1100
0000
0101
0000
,
1000
0010
0001
0000
1010
0000
0011
0000
,
0010
2010
0001
3100
,
0002
0203
0320
1030
,
0001
0010
1000
0000
0011
0000
1010
0000
,
0001
0100
1000
0000
0101
0000
1100
0000
,
0001
1000
0010
0110
,
1000
0001
0100
0110
,
0001
0010
0100
1100
,
1000
0010
0100
0101
,
1000
0100
1000
1001
,
0001
0100
0001
1001
,
1000
0010
0001
0101
,
1000
0100
0010
0000
0010
0001
1000
0000
,
0001
0100
0000
1000
0000
0010
0000
0001
,
0100
0000
0110
0000
0001
1000
0100
0000
,
1000
0100
0000
0001
0000
0010
0000
1000
,
0100
0000
1000
0001
0000
0110
0000
0100
,
0001
0010
0000
1000
0000
0100
0000
0001
,
0010
0100
1000
0000
0100
0010
0001
0000
,
1000
0010
0000
0001
0000
0100
0000
1000
,
0010
0100
0001
0000
0010
0100
1000
0000
,
0002
0000
1003
0010
0200
0000
1300
0100
,
0002
0000
0013
0100
1000
0000
1001
0000
,
0010
0000
0001
0000
1000
0010
0100
0000
,
0001
2000
0200
0000
3300
0000
1001
0000
,
0002
0000
0103
0010
2000
0000
3001
0100
,
2000
0000
3100
0001
0010
0000
0110
0000
,
1010
0100
1001
0010
,
0101
0000
1100
0000
1000
0100
0010
0000
,
0001
1000
0010
0000
0010
1000
0001
0000
,
1000
1010
0001
0101
,
1000
0001
0100
0000
0100
0001
0010
0000
,
0001
1000
0100
1000
0000
1010
0000
0100
,
0001
0010
0100
0000
0100
0010
0001
0000
,
0010
0011
0100
1100
,
0001
1000
0100
0000
0100
1000
0010
0000
,
0100
0001
0010
0000
0001
1000
0010
0000
,
2000
3002
0203
2300
,
3100
0000
0001
0010
0100
0000
1001
0000
,
0100
0000
1000
1000
0001
0000
0100
0000
,
0001
0000
0010
0100
1000
0001
0001
0000
,
2000
3020
0032
0023
,
1030
0000
0100
0010
0001
0000
0101
0000
,
1000
0000
0001
0001
0010
0000
1000
0000
,
0001
0001
0100
0000
1001
0000
0010
0010
,
2000
3020
0230
2300
,
3100
0000
0001
1000
0010
1000
0001
0000
,
1010
0000
0001
0001
0100
0000
0001
0000
,
1000
0010
0001
0100
,
0002
0023
0230
0302
,
0103
0000
1000
0010
0100
0010
1000
0000
,
0001
0000
1000
1000
0000
0001
0000
0100
,
0001
0000
0110
0000
0100
0000
2000
0002
,
0000
0000
0000
0000
,
3003
0000
0000
0000
;
