#TITLE:PONPONPON;
#SUBTITLE:;
#ARTIST:マチゲリータ;
#TITLETRANSLIT:;
#SUBTITLETRANSLIT:;
#ARTISTTRANSLIT:Machigerita;
#GENRE:Remix;
#CREDIT:AznPunk07/Frozen_Heat/GuardianFrozen;
#MENUCOLOR:#455e67;
#METERTYPE:DDR;
#BANNER:PONPONPON-bn.png;
#BACKGROUND:PONPONPON-bg.png;
#LYRICSPATH:PONPONPON.lrc;
#CDTITLE:!cdtitle.png;
#MUSIC:PONPONPON.mp3;
#OFFSET:-0.127;
#SAMPLESTART:61.000;
#SAMPLELENGTH:14.774;
#SELECTABLE:YES;
#LISTSORT:;
#BPMS:0.000=130.000;
#STOPS:;
#BGCHANGES:;
#ATTACKS:;

//---------------dance-single - ----------------
#NOTES:
     dance-single:
     :
     Hard:
     8:
     0.571,0.784,0.489,0.098,0.071: // measure 1
0000
0000
0000
0000
,  // measure 2
0001
0010
0100
0000
0010
0001
0000
1000
,  // measure 3
0000
0000
0000
0001
0100
0000
0010
0000
,  // measure 4
1000
0100
0010
0000
0100
1000
0000
0001
,  // measure 5
0000
0000
0000
0100
0010
0010
1000
0100
,  // measure 6
0010
0001
0100
0010
1000
0001
0000
1000
,  // measure 7
0000
0000
0000
0010
1000
0001
0010
0001
,  // measure 8
1000
0100
1000
0010
0100
0010
1000
0001
,  // measure 9
0000
0100
0000
0001
0010
0100
0010
0001
,  // measure 10
1000
0010
0100
0010
1000
0001
0000
1000
,  // measure 11
0001
0000
0000
0100
0010
0100
0001
0100
,  // measure 12
0010
1000
0001
0010
0100
0010
1000
0010
,  // measure 13
0001
0000
0000
0001
0010
0100
1000
0001
,  // measure 14
0100
0010
1000
0100
0010
0001
0000
1000
,  // measure 15
0001
0000
1000
1000
0100
0010
0001
1000
,  // measure 16
0010
0010
0100
0100
0001
1000
0000
0001
,  // measure 17
0000
1000
0100
0010
0001
0000
0000
0000
,  // measure 18
1000
0000
1010
0000
0001
0100
0001
0000
,  // measure 19
1000
0100
0001
0100
1000
0010
0100
0000
,  // measure 20
0001
0000
0011
0000
1000
0100
1000
0000
,  // measure 21
0001
0100
1000
0100
0001
0010
0100
0000
,  // measure 22
1000
0000
1100
0000
0001
0100
1000
0000
,  // measure 23
0100
0010
0100
0010
1000
0001
1000
0000
,  // measure 24
0001
0000
0101
0000
1000
0100
0001
0000
,  // measure 25
0100
0010
0100
0010
0001
1000
0001
0000
,  // measure 26
0000
0001
0010
0100
2000
0000
0000
3000
,  // measure 27
0000
1000
0010
0100
0002
0000
0000
0003
,  // measure 28
0000
0010
0100
1000
0020
0000
0230
0000
,  // measure 29
0301
1000
0001
0010
0200
0000
0000
0300
,  // measure 30
0000
1000
0100
0010
0002
0000
0000
0003
,  // measure 31
0000
0001
0100
0010
2000
0000
0000
3000
,  // measure 32
0000
0100
0010
0001
0200
0000
0320
0000
,  // measure 33
1030
0001
0000
1000
0001
1000
0001
0000
,  // measure 34
1000
0000
0000
0100
0010
0000
0000
0100
1000
0000
0001
0000
1000
0000
0000
0000
,  // measure 35
0001
0010
0100
1000
0001
0100
0010
0000
,  // measure 36
1000
0000
0000
0010
0001
0000
0000
0010
0100
0000
0010
0000
1000
0000
0000
0000
,  // measure 37
0001
0010
0100
0010
0001
1000
0001
0000
,  // measure 38
1000
0000
0000
0100
1000
0000
0000
1000
0010
0000
0100
0000
0101
0000
0000
0000
,  // measure 39
0010
1000
0100
0100
1000
0010
0100
0000
,  // measure 40
0001
0000
0000
0010
0001
0000
0000
0001
0100
0000
0010
0000
1010
0000
0000
0000
,  // measure 41
0100
0001
0010
0001
1000
0100
1000
0000
,  // measure 42
0110
0000
0110
0000
1001
1001
1001
0000
,  // measure 43
0110
0110
1001
0110
1001
0110
0110
0000
,  // measure 44
1001
0000
1001
0000
0110
0110
0110
0000
,  // measure 45
1001
1001
0110
1001
0110
1001
1001
0000
,  // measure 46
0110
0000
0110
0000
1001
1001
1001
0000
,  // measure 47
0110
0110
1001
0110
1001
0110
0110
0000
,  // measure 48
1001
0000
1001
0000
0110
0110
0110
0000
,  // measure 49
1001
1001
0110
1001
0110
1001
1001
0000
,  // measure 50
0001
0000
0000
0010
0000
0000
0100
0000
0000
0000
1000
0000
0001
0000
0000
0000
,  // measure 51
1000
0000
0000
0100
0000
0000
0010
0000
0000
0000
0001
0000
1000
0000
0000
0000
,  // measure 52
0001
0010
0100
1000
0100
0010
0001
0000
,  // measure 53
1000
0100
0010
0001
0010
0100
1000
0000
,  // measure 54
0100
0000
0000
1000
0000
0000
0010
0000
0000
0000
0100
0000
0001
0000
0000
0000
,  // measure 55
0100
0000
0000
0001
0000
0000
0010
0000
0000
0000
0100
0000
1000
0000
0000
0000
,  // measure 56
0001
0100
1000
0100
0010
0100
0001
0000
,  // measure 57
1000
0100
0001
0100
0010
0100
1000
0001
,  // measure 58
1000
0000
0001
0000
0000
0100
0001
0100
,  // measure 59
0010
0000
1000
0000
0000
0100
0010
0100
,  // measure 60
1000
0000
1000
0001
0000
0001
0100
0001
,  // measure 61
0010
0000
0000
0000
0010
0000
0100
0000
0000
0000
0100
0000
0000
1000
0000
0000
,  // measure 62
0100
0010
0001
1000
0001
0100
0010
0000
,  // measure 63
1000
0000
0010
0000
0100
0000
0001
0000
1000
0000
0001
0000
0000
0010
0000
0000
,  // measure 64
0100
0010
0001
0000
0010
0100
1000
0000
,  // measure 65
0001
0000
1000
0000
0000
0001
0000
0000
0100
0000
0010
0000
0000
0100
0000
0000
,  // measure 66
0220
0000
0000
0000
,  // measure 67
0000
0000
0000
0000
,  // measure 68
0000
0000
0000
0000
0000
0000
0300
0030
;

//---------------dance-single - ----------------
#NOTES:
     dance-single:
     :
     Medium:
     6:
     0.411,0.404,0.089,0.187,0.000: // measure 1
0000
0000
0000
0000
,  // measure 2
0001
0000
0010
0000
0100
0000
0000
0010
,  // measure 3
0001
0000
1000
0000
,  // measure 4
0001
0000
0100
0000
0010
0000
0000
1000
,  // measure 5
0100
0000
0010
0000
,  // measure 6
0100
0000
1000
0000
0001
0000
0000
0100
,  // measure 7
0010
0000
1000
0000
,  // measure 8
0001
0000
0010
0000
0100
0000
0000
0010
,  // measure 9
0001
0000
1000
1000
,  // measure 10
0001
0000
0100
0000
0010
0000
0000
1000
,  // measure 11
0100
0000
0010
0001
,  // measure 12
1000
0000
0001
0000
0100
0000
0000
0010
,  // measure 13
0100
0000
0010
1000
,  // measure 14
0001
0000
0010
0000
0100
0000
0000
0010
,  // measure 15
0001
1000
0010
0100
,  // measure 16
0001
0001
1000
1000
,  // measure 17
1001
0010
1001
0000
,  // measure 18
0001
0101
1000
1000
,  // measure 19
0001
0010
0001
0000
1000
0001
1000
0000
,  // measure 20
0010
1010
1000
1100
,  // measure 21
0100
0010
0100
0000
0010
0001
0010
0000
,  // measure 22
0100
1100
0010
0011
,  // measure 23
1000
0010
1000
0000
0100
1000
0100
0000
,  // measure 24
0010
0011
1000
1001
,  // measure 25
0001
0100
0001
0000
1000
0100
1000
0000
,  // measure 26
0001
0100
0020
0030
,  // measure 27
1000
0100
0020
0030
,  // measure 28
0001
0100
0020
0130
,  // measure 29
1000
0100
0020
0130
,  // measure 30
1000
0001
0200
0300
,  // measure 31
0001
1000
0200
0300
,  // measure 32
1000
0001
0200
0310
,  // measure 33
0001
0000
1000
0000
,  // measure 34
0001
0010
0001
0000
0100
0001
0100
0000
,  // measure 35
0010
1000
0010
0000
1000
0100
1000
0000
,  // measure 36
0100
0010
0100
0000
0010
0001
0010
0000
,  // measure 37
0001
0100
0001
0000
0100
0010
0100
0000
,  // measure 38
0010
1000
0010
0000
0100
0010
0100
0000
,  // measure 39
0001
0100
0001
0000
1000
0100
1000
0000
,  // measure 40
0001
0010
0001
0000
0010
0100
0010
0000
,  // measure 41
0001
0010
0001
0000
1000
0001
1000
0000
,  // measure 42
0010
0000
0010
0000
0100
0100
0100
0000
,  // measure 43
0010
0010
0100
0010
0100
0010
0010
0000
,  // measure 44
0100
0000
0100
0000
0010
0010
0010
0000
,  // measure 45
0100
0100
0010
0100
0010
0100
0100
0000
,  // measure 46
0010
0000
0010
0000
0100
0100
0100
0000
,  // measure 47
0010
0010
0100
0010
0100
0010
0010
0000
,  // measure 48
0100
0000
0100
0000
0010
0010
0010
0000
,  // measure 49
0100
0100
0010
0100
0010
0100
0100
0000
,  // measure 50
0002
0023
0230
0300
,  // measure 51
2000
3020
0230
0300
,  // measure 52
0001
0010
0001
0000
0001
0100
0001
0000
,  // measure 53
1000
0010
1000
0000
1000
0100
1000
0000
,  // measure 54
2000
3020
0230
0300
,  // measure 55
0002
0023
0230
0300
,  // measure 56
1000
0010
1000
0000
1000
0100
1000
0000
,  // measure 57
0001
0010
0001
0000
0001
0100
0001
0000
,  // measure 58
2000
0000
3001
0000
0000
0001
1000
0000
,  // measure 59
0002
0000
1003
0000
0000
1000
0001
0000
,  // measure 60
1000
0000
0100
0000
0010
0100
1000
0000
,  // measure 61
0001
0000
0100
0000
0010
0100
0001
0000
,  // measure 62
1000
0000
0100
0000
0010
0001
0010
0000
,  // measure 63
0100
0000
1000
0000
0001
0100
0001
0000
,  // measure 64
1000
0010
1000
0000
0001
0010
0001
0000
,  // measure 65
1000
0100
0010
0001
1000
0000
0001
0000
,  // measure 66
1001
0000
0000
0000
;

//---------------dance-single - ----------------
#NOTES:
     dance-single:
     :
     Challenge:
     9:
     0.711,0.845,0.507,0.249,0.329: // measure 1
0000
0000
0000
0000
,  // measure 2
1000
0100
0010
0001
0010
0100
0000
1000
,  // measure 3
0001
1000
0000
0001
0100
0010
1000
1000
,  // measure 4
0001
0010
0100
1000
0100
0010
0000
0001
,  // measure 5
1000
0001
0000
1000
0010
0100
0001
0001
,  // measure 6
1000
0010
0001
0010
0100
0010
0000
1000
,  // measure 7
0001
0100
0000
0001
0010
1000
0001
0100
,  // measure 8
0010
0001
1000
0100
0001
1000
0010
0100
,  // measure 9
0000
1000
0000
0001
1000
0010
0100
0001
,  // measure 10
1000
0100
0010
0100
1000
0001
0000
1000
,  // measure 11
0010
1000
0000
0001
0100
0010
1000
0001
,  // measure 12
0010
1000
0010
0001
1000
0001
0000
0001
,  // measure 13
0100
0010
0000
1000
1000
0001
0001
0100
,  // measure 14
0010
1000
0001
0010
0100
0010
0000
0001
,  // measure 15
0010
0100
0100
1000
0100
0001
1000
0010
,  // measure 16
0100
0000
1000
0000
0001
0000
0010
0001
0010
0000
0100
0000
1000
0000
0010
0000
,  // measure 17
0000
0000
1000
0000
1000
0000
0001
0000
0001
0000
1000
0100
1000
0000
0000
0000
,  // measure 18
0001
0000
0100
0000
0001
0010
0100
1000
0000
0000
0100
0000
1000
0100
0010
0001
,  // measure 19
1000
0000
0001
0000
0100
0000
0001
0010
0000
0001
0100
0001
0100
0000
0001
0000
,  // measure 20
1000
0000
0100
0000
0010
0100
1000
0100
0000
0000
0010
0000
0001
0000
1000
0000
,  // measure 21
0012
1003
0102
0013
2100
3001
2010
3100
,  // measure 22
1000
0000
0010
0000
1000
0100
0010
0001
0000
0000
0010
0000
0001
0010
0100
1000
,  // measure 23
0001
0000
1000
0000
0010
0000
1000
0100
0000
1000
0010
1000
0010
0000
1000
0000
,  // measure 24
0001
0000
0010
0000
0100
0010
0001
0010
0000
0000
0001
0000
1000
0000
0001
0000
,  // measure 25
2100
3001
2010
3100
0012
1003
0102
0013
,  // measure 26
0100
0000
0000
1000
0100
0000
1000
0000
0002
0000
0000
0010
0000
0000
1003
0000
,  // measure 27
0010
0000
0000
0010
0100
0000
0001
0000
2000
0000
0000
0100
0000
0000
3001
0000
,  // measure 28
0100
0000
0000
0100
0010
0000
1000
0000
0002
0000
0000
0010
0000
0000
1003
0000
,  // measure 29
0010
0000
0010
0000
0100
0000
0010
0000
2000
0000
0000
0010
0000
0000
3001
0000
,  // measure 30
0100
0000
0001
0010
0100
0000
1000
0000
0020
0000
0000
0100
0000
0000
1030
0000
,  // measure 31
0100
0000
1000
0010
0100
0000
0001
0000
0200
0000
0000
0010
0000
0000
0301
0000
,  // measure 32
0010
0000
1000
0100
0010
0000
0001
0000
1000
0000
1000
0000
0001
0000
0001
0000
,  // measure 33
1000
0010
1000
0000
0000
0000
0001
0100
0001
0000
0010
0100
1000
0001
0010
0000
,  // measure 34
0100
0000
0000
1000
0100
0000
0000
0010
0001
0000
1000
0000
0001
0000
0100
0000
,  // measure 35
1000
0100
0010
0100
0001
0001
1000
0001
,  // measure 36
0010
0000
0000
0001
0010
0000
0000
0100
1000
0000
0001
0000
0100
0000
0010
0000
,  // measure 37
0001
0010
1000
0010
0100
0001
1000
0100
,  // measure 38
0010
0000
0000
0100
0010
0000
0000
0001
1000
0000
0010
0000
1000
0000
0001
0000
,  // measure 39
0010
0010
1000
0001
0100
0100
1000
0001
,  // measure 40
1000
0000
0000
0100
1000
0000
0000
0010
0001
0000
0010
0000
0100
0000
0001
0000
,  // measure 41
1000
0100
0001
0010
1000
0001
1000
0000
,  // measure 42
0110
0000
0110
0000
1001
1001
1001
0000
,  // measure 43
0110
0110
1001
0110
1001
0110
0110
0000
,  // measure 44
1001
0000
1001
0000
0110
0110
0110
0000
,  // measure 45
1001
1001
0110
1001
0110
1001
1001
0000
,  // measure 46
0110
0000
0110
0000
1001
1001
1001
0000
,  // measure 47
0110
0110
1001
0110
1001
0110
0110
0000
,  // measure 48
1001
0000
1001
0000
0110
0110
0110
0000
,  // measure 49
1001
1001
0110
1001
0110
1001
1001
0000
,  // measure 50
0002
0000
0000
0023
0000
0000
0230
0000
0000
0300
1000
0000
0001
0000
0001
0000
,  // measure 51
2000
0000
0000
3200
0000
0000
0320
0000
0000
0030
0001
0000
1000
0000
0000
0001
,  // measure 52
0000
0000
0100
0000
0010
0000
0100
0001
0000
0010
0000
0100
0000
0000
1000
0100
,  // measure 53
0000
0000
0010
0000
0100
0000
1000
0010
0000
0100
0000
0001
0000
0000
1000
0000
,  // measure 54
0200
0000
0000
2300
0000
0000
3020
0000
0000
0030
0100
0000
0001
0000
0000
0000
,  // measure 55
0200
0000
0000
0302
0000
0000
0023
0000
0000
0030
0100
0000
1000
0000
0000
0100
,  // measure 56
0000
0000
0010
0000
0010
0000
0001
0100
0000
0100
0000
0010
0000
0000
1000
0100
,  // measure 57
0000
0000
1000
0000
1000
0000
0001
0010
0000
0001
0000
0001
0000
0000
0100
0010
,  // measure 58
0000
0000
0000
0000
1000
0000
0000
0000
0010
0000
0100
0000
0000
0010
0000
0000
,  // measure 59
1000
0000
0000
0000
0001
0000
0000
0000
0010
0000
0001
0000
0000
0100
0000
0000
,  // measure 60
0001
0000
1000
0100
0000
0010
0001
1000
,  // measure 61
0100
0000
0000
0000
0010
0000
0001
0000
0000
0000
1000
0000
0000
0001
0000
0000
,  // measure 62
0100
0010
0100
1000
0100
0001
1000
0000
,  // measure 63
0001
0000
0010
0000
1000
0000
0010
0000
0100
0000
0010
0000
0000
0001
0000
0000
,  // measure 64
1000
0000
0100
0000
1000
0000
0001
0000
0100
0000
0001
0000
1000
0000
0100
0010
,  // measure 65
0100
0000
0100
0000
0000
1000
0000
0000
0001
0000
0010
0000
0000
0100
0000
0000
,  // measure 66
0120
0000
0000
0000
0000
0000
1000
0000
0000
1000
0000
0000
0000
0000
0001
0000
,  // measure 67
0000
0000
0000
0000
0001
0000
0000
0000
0000
0000
0000
0200
0000
0000
0000
0000
,  // measure 68
0000
0000
0000
0000
0000
0000
0000
0000
0000
0000
0000
0000
0000
0300
0030
0000
;

//---------------dance-single - ----------------
#NOTES:
     dance-single:
     :
     Beginner:
     1:
     0.103,0.173,0.000,0.107,0.000:
0000
0000
0000
0000
,
1000
0000
0000
0000
,
0000
0000
0000
0000
,
0001
0000
0000
0000
,
0000
0000
0000
0000
,
1000
0000
0000
0000
,
0000
0000
0000
0000
,
0001
0000
0000
0000
,
0000
0000
0000
0000
,
0100
0000
0000
0000
,
0000
0000
0000
0000
,
0010
0000
0000
0000
,
0000
0000
0000
0000
,
0100
0000
0000
0000
,
0000
0000
0000
0000
,
0010
0000
0000
0000
,
0000
0000
0000
0000
,
1000
0000
0000
0000
,
0001
0000
0000
0000
,
0010
0000
0000
0000
,
0100
0000
0000
0000
,
0010
0000
0000
0000
,
0001
0000
0000
0000
,
1000
0000
0000
0000
,
0100
0000
0000
0000
,
1000
1000
0000
0000
,
0000
0000
0000
0000
,
0001
0001
0000
0000
,
0000
0000
0000
0000
,
0100
0100
0000
0000
,
0000
0000
0000
0000
,
0010
0010
0000
0000
,
0000
0000
0000
0000
,
1000
0000
0100
0000
,
0001
0000
0000
0000
,
1000
0000
0100
0000
,
0001
0000
0000
0000
,
0001
0000
0100
0000
,
1000
0000
0000
0000
,
0001
0000
0100
0000
,
1000
0000
0000
0000
,
0010
0000
0010
0000
,
0010
0010
0010
0000
,
0010
0000
0010
0000
,
0010
0010
0010
0000
,
0010
0000
0010
0000
,
0010
0010
0010
0000
,
0010
0000
0010
0000
,
0010
0010
0010
0000
,
2000
3000
0000
0000
,
0000
0000
0000
0000
,
0002
0003
0000
0000
,
0200
0300
0000
0000
,
0020
0030
0000
0000
,
0000
0000
0000
0000
,
2000
3000
0000
0000
,
0002
0003
0000
0000
,
0020
0030
0000
0000
,
0000
0000
0000
0000
,
0200
0300
0000
0000
,
2000
3000
0000
0000
,
0002
0003
0000
0000
,
0000
0000
0000
0000
,
0200
0300
0000
0000
,
0020
0030
0000
0000
,
1000
0000
0000
0000
;

//---------------dance-single - ----------------
#NOTES:
     dance-single:
     :
     Easy:
     3:
     0.283,0.318,0.053,0.151,0.000:
0000
0000
0000
0000
,
1000
0000
0100
0000
,
1000
0000
0001
0000
,
0100
0000
0010
0000
,
1000
0000
0001
0000
,
0010
0000
0100
0000
,
0010
0000
0001
0000
,
1000
0000
0010
0000
,
0100
0000
0010
0000
,
1000
0000
0001
0000
,
0010
0000
0100
0000
,
0010
0000
0001
0000
,
1000
0000
0010
0000
,
0100
0000
1000
0000
,
0100
0000
0001
0000
,
0010
0000
0100
0000
,
1000
0001
1001
0000
,
1000
1000
0001
0001
,
0100
0010
0110
0000
,
0001
0001
1000
1000
,
0100
0010
0100
1000
,
0001
0001
0100
0010
,
1000
1001
0001
1001
,
0001
0001
1000
1000
,
0100
0010
0001
1001
,
0000
0002
0100
1003
,
0000
2000
0100
3001
,
0000
0002
0100
1003
,
2000
0100
3001
0000
,
0000
0002
0010
1003
,
0000
2000
0010
3001
,
0000
0002
0010
1003
,
1000
0000
0001
0000
,
1000
0100
0010
0100
,
1000
0001
1000
0000
,
0001
0100
0010
0100
,
0001
1000
0001
0000
,
1000
0100
0001
0100
,
1000
0100
0010
0000
,
0001
0100
1000
0100
,
0001
0100
0010
0000
,
1000
1000
0001
0001
,
1000
0001
1000
0001
,
0001
0001
1000
1000
,
0001
1000
0001
1000
,
1000
1000
0001
0001
,
1000
0001
1000
0001
,
0001
0001
1000
1000
,
0001
1000
0001
1000
,
0002
0000
0103
0000
,
2000
0000
3100
0000
,
0001
0010
0100
1000
,
0001
0010
0100
1000
,
0002
0000
0013
0000
,
2000
0000
3010
0000
,
0001
0010
0100
1000
,
0001
0010
0100
1000
,
0002
0103
0000
1000
,
0200
0310
0000
0100
,
2000
3010
0002
0013
,
2000
3100
0002
0103
,
1000
0100
0010
0001
,
1000
0010
0100
0001
,
1000
0000
0001
0000
,
0100
0100
0010
0010
,
1001
0000
0000
0000
;
