#TITLE:MultiPONPONPON;
#SUBTITLE:;
#ARTIST:Kyari+Xilent+TANUKI;
#TITLETRANSLIT:;
#SUBTITLETRANSLIT:;
#ARTISTTRANSLIT:;
#CREDIT:TaroNuke;
#BANNER:;
#BACKGROUND:;
#LYRICSPATH:;
#CDTITLE:;
#MUSIC:MultiPON.mp3;
#OFFSET:-0.950;
#SAMPLESTART:22.888;
#SAMPLELENGTH:12.000;
#SELECTABLE:YES;
#BPMS:0.000=175.000;
#STOPS:;
#BGCHANGES:;

//---------------dance-single - TaroNuke----------------
#NOTES:
     dance-single:
     TaroNuke:
     Hard:
     9:
     0.583,0.655,0.076,0.395,0.008: // measure 1
0000
0000
0000
0000
,  // measure 2
0000
0000
0000
0000
,  // measure 3
0000
0000
0000
0000
,  // measure 4
0000
0000
0000
0000
,  // measure 5
0010
1000
0001
1000
,  // measure 6
0100
0000
1000
0000
0001
0010
0100
0000
,  // measure 7
0010
0001
1000
0001
,  // measure 8
0100
0001
1000
0001
,  // measure 9
2010
0000
0000
0010
0000
0010
0000
3100
,  // measure 10
0000
0001
0001
0000
1000
0000
0100
0000
,  // measure 11
0012
0000
0000
0010
0000
0010
0000
0103
,  // measure 12
0000
1000
1000
0000
0001
0000
0010
0000
,  // measure 13
1001
0000
0001
0000
0100
0020
0000
1030
,  // measure 14
0000
0010
1000
0001
,  // measure 15
0100
0010
0100
0010
0100
0010
0100
0010
,  // measure 16
2000
3200
0320
0031
,  // measure 17
1000
0100
1000
0000
0001
0100
0001
0000
,  // measure 18
1000
0100
0001
0100
1000
0010
0100
0000
,  // measure 19
0001
0100
0001
0000
1000
0100
1000
0000
,  // measure 20
0001
0100
1000
0100
0002
0000
0100
0003
,  // measure 21
1000
0010
1000
0000
0001
0010
0001
0000
,  // measure 22
1000
0010
0001
0010
1000
0100
0010
0000
,  // measure 23
0002
0203
0320
2030
,  // measure 24
3001
0010
1000
0010
0001
0100
0010
1000
,  // measure 25
0002
0000
0013
0001
0010
0000
0001
0100
,  // measure 26
1000
0001
0010
0000
0100
0000
0110
0000
,  // measure 27
2000
3000
2000
3000
0010
0100
0001
0010
,  // measure 28
0100
0010
0001
0100
0020
0000
0100
0000
,  // measure 29
2030
0000
3010
1000
0010
0000
1000
0100
,  // measure 30
0001
1000
0010
0000
0100
0000
0110
0000
,  // measure 31
0200
0010
1000
0310
,  // measure 32
0001
0000
1000
0001
0000
1000
0001
0100
,  // measure 33
0010
1000
0010
0100
0020
0000
0000
0000
,  // measure 34
0130
0001
0100
0010
0200
0000
0000
0000
,  // measure 35
0301
0001
1000
1000
,  // measure 36
0001
0100
1000
0100
0002
0000
0003
0000
,  // measure 37
0010
0001
0010
0100
0020
0000
0000
0000
,  // measure 38
0130
1000
0100
0010
0200
0000
0000
0000
,  // measure 39
1300
1000
0001
0001
,  // measure 40
0100
0001
0010
0001
1000
0001
0100
0001
,  // measure 41
0020
0030
0020
0030
0100
0100
0100
0000
,  // measure 42
1000
0010
0100
0001
0010
0100
1000
0000
,  // measure 43
0020
0030
0020
0030
0100
0100
0100
0000
,  // measure 44
0001
0010
0100
1000
0010
0100
0001
0000
,  // measure 45
0020
0030
0020
0030
0100
0100
0100
0000
,  // measure 46
1000
0010
0100
0001
0010
0100
1000
0000
,  // measure 47
0020
0030
0020
0030
0100
0100
0100
0000
,  // measure 48
0002
0023
0230
2300
,  // measure 49
3010
0100
0010
0100
0001
1000
0001
1000
,  // measure 50
0100
0010
0100
0001
0100
0010
0100
1000
,  // measure 51
0100
0010
0100
0010
0001
1000
0001
1000
,  // measure 52
0010
0100
0010
0001
0010
0100
0010
1000
,  // measure 53
0010
0100
0010
0100
0001
1000
0001
1000
,  // measure 54
0100
0010
0100
1000
0010
0100
0010
1000
,  // measure 55
0020
1000
0100
1030
,  // measure 56
1000
0000
0100
0010
0000
0100
0010
0001
,  // measure 57
1000
0010
0100
0010
1000
0010
0100
0010
,  // measure 58
1000
0100
0010
0001
0200
0000
0001
0001
,  // measure 59
0301
0010
0100
0010
0001
0010
0100
0010
,  // measure 60
0001
0100
0010
1000
0200
0000
1000
0000
,  // measure 61
1300
0001
0010
0001
1000
0001
0010
0001
,  // measure 62
1000
0100
0001
0100
2000
0000
0001
0001
,  // measure 63
3001
0100
1000
0100
0001
0100
1000
0100
,  // measure 64
0001
0000
0010
0000
0100
0010
0100
0010
0100
0000
0010
0000
0001
0000
1000
0000
,  // measure 65
0010
0000
0100
0200
0000
0000
0310
0000
,  // measure 66
1000
0010
0100
0000
0010
1000
0100
0000
,  // measure 67
0010
0000
0100
0200
0000
0000
0310
0000
,  // measure 68
0001
0100
0010
0100
0002
0000
0000
0000
,  // measure 69
0013
0000
0100
0200
0000
0000
0310
0000
,  // measure 70
0001
0010
0100
0000
0010
0001
0100
0000
,  // measure 71
0010
0000
0100
0200
0000
0000
0310
0000
,  // measure 72
1000
0000
0100
0010
0000
0100
0010
0000
,  // measure 73
0001
0000
0100
0000
0010
0000
1000
0010
,  // measure 74
0100
0000
0001
0000
0010
0000
0100
1000
,  // measure 75
0010
0100
0001
0011
,  // measure 76
0100
1010
0100
1100
,  // measure 77
1000
0000
0001
0100
0010
0000
1000
0001
,  // measure 78
0100
0000
0010
0100
1000
0100
0010
0000
,  // measure 79
2002
0000
0000
0000
,  // measure 80
3003
0000
0001
0100
0000
0001
1000
0000
,  // measure 81
0100
0000
0020
0200
0000
0000
0000
0000
,  // measure 82
0000
0000
0000
0000
,  // measure 83
0330
0000
0000
0000
;

//---------------dance-single - TaroNuke----------------
#NOTES:
     dance-single:
     TaroNuke:
     Medium:
     6:
     0.375,0.483,0.093,0.151,0.000: // measure 1
0000
0000
0000
0000
,  // measure 2
0000
0000
0000
0000
,  // measure 3
0000
0000
0000
0000
,  // measure 4
0000
0000
0000
0000
,  // measure 5
1000
0000
0100
0000
,  // measure 6
0001
0000
0010
0000
,  // measure 7
0001
0000
0100
0000
,  // measure 8
1000
0000
0010
0000
,  // measure 9
1001
1000
0001
1000
,  // measure 10
0010
0100
0010
0100
,  // measure 11
0110
0010
0100
0010
,  // measure 12
1000
0001
1000
0001
,  // measure 13
1001
1000
0001
1000
,  // measure 14
0100
0010
0100
0010
,  // measure 15
0110
0100
0010
0100
,  // measure 16
2000
3200
0320
0032
,  // measure 17
1003
1000
0001
0001
,  // measure 18
0100
0010
0100
0010
0100
0000
0110
0000
,  // measure 19
0001
0001
1000
1000
,  // measure 20
0100
0010
0100
0010
0002
0000
0000
0000
,  // measure 21
1003
1000
0001
0001
,  // measure 22
0100
0010
0100
0010
0100
0000
0110
0000
,  // measure 23
1000
1000
0001
0001
,  // measure 24
2000
3020
0230
0302
,  // measure 25
1003
1000
0100
0100
,  // measure 26
0010
0001
0010
0001
0010
0000
0011
0000
,  // measure 27
0001
0001
0100
0100
,  // measure 28
0010
1000
0010
1000
0010
0000
1010
0000
,  // measure 29
1000
1000
0010
0010
,  // measure 30
0100
0001
0100
0001
0100
0000
0101
0000
,  // measure 31
0001
0001
0010
0010
,  // measure 32
0100
0000
1000
0100
1000
0100
1000
0000
,  // measure 33
0001
0100
1000
0000
,  // measure 34
1000
0010
0001
0000
,  // measure 35
0001
0100
1000
0100
,  // measure 36
0001
0001
0001
0000
,  // measure 37
1000
0100
0001
0000
,  // measure 38
0001
0010
1000
0000
,  // measure 39
1000
0100
0001
0100
,  // measure 40
1000
1000
1000
0000
,  // measure 41
0010
0010
0100
0100
,  // measure 42
0001
1000
0001
1000
0001
0000
0000
0000
,  // measure 43
0100
0100
0010
0010
,  // measure 44
1000
0001
1000
0001
1000
0000
0110
0000
,  // measure 45
0001
0001
0100
0100
,  // measure 46
0010
1000
0010
0100
0010
0000
0000
0000
,  // measure 47
1000
1000
0100
0100
,  // measure 48
0020
0032
0203
0320
,  // measure 49
1030
0100
1000
0001
,  // measure 50
0010
0010
0010
0000
,  // measure 51
0001
0100
0010
1000
,  // measure 52
0010
0010
0010
0000
,  // measure 53
0100
0010
0100
0010
,  // measure 54
1000
1000
1000
0000
,  // measure 55
0100
0100
0100
0000
,  // measure 56
0010
0010
0010
0001
,  // measure 57
1000
0100
0001
0100
,  // measure 58
1000
0100
0001
0000
,  // measure 59
1000
0010
0001
0010
,  // measure 60
1000
0010
0001
0000
,  // measure 61
1000
0010
0001
0010
,  // measure 62
1000
0010
0001
0000
,  // measure 63
1000
0100
0001
0100
,  // measure 64
1000
0000
0100
0001
0100
0000
0010
0000
,  // measure 65
1000
0000
0000
1000
0000
0000
0000
0000
,  // measure 66
0001
0100
0001
0000
1000
0000
0000
0000
,  // measure 67
0001
0000
0000
0001
0000
0000
0000
0000
,  // measure 68
1000
0010
1000
0100
0020
0000
0000
0000
,  // measure 69
0031
0000
0000
0001
0000
0000
0000
0000
,  // measure 70
1000
0100
1000
0000
0001
0000
0000
0000
,  // measure 71
1000
0000
0000
1000
0000
0000
0000
0000
,  // measure 72
1000
0000
0000
0100
0000
0000
0010
0000
,  // measure 73
0001
0000
0010
0000
,  // measure 74
0100
0000
0000
0000
1000
0000
0010
0100
,  // measure 75
0010
0000
1000
0000
,  // measure 76
0100
0010
0001
0100
0020
0000
0000
0000
,  // measure 77
1030
0000
0100
0000
,  // measure 78
0010
0000
0001
0000
,  // measure 79
2002
0000
0000
0000
,  // measure 80
0003
0000
0000
0010
0000
0000
0010
0000
,  // measure 81
0100
0000
0000
0200
0000
0000
0000
0000
,  // measure 82
0000
0000
0000
0000
,  // measure 83
3300
0000
0000
0000
;

//---------------dance-single - Ama-tan----------------
#NOTES:
     dance-single:
     Ama-tan:
     Beginner:
     1:
     0.130,0.172,0.118,0.084,0.000: // measure 1
0000
0000
0000
0000
,  // measure 2
0000
0000
0000
0000
,  // measure 3
0000
0000
0000
0000
,  // measure 4
0000
0000
0000
0000
,  // measure 5
0000
0000
0000
0000
,  // measure 6
0000
0000
0000
0000
,  // measure 7
0000
0000
0000
0000
,  // measure 8
0000
0000
0000
0000
,  // measure 9
1001
0000
0000
0000
,  // measure 10
0000
0000
0000
0000
,  // measure 11
0110
0000
0000
0000
,  // measure 12
0000
0000
0000
0000
,  // measure 13
1001
0000
0000
0000
,  // measure 14
0000
0000
0000
0000
,  // measure 15
1000
0000
0000
0000
,  // measure 16
0001
0000
0000
0000
,  // measure 17
1000
0000
1000
0000
,  // measure 18
0001
0000
0000
0000
,  // measure 19
0001
0000
0001
0000
,  // measure 20
0100
0000
0000
0000
,  // measure 21
0100
0000
0100
0000
,  // measure 22
0010
0000
0000
0000
,  // measure 23
0010
0000
0000
0000
,  // measure 24
0110
0000
0000
0000
,  // measure 25
1001
0000
0000
0000
,  // measure 26
1000
0000
0000
0000
,  // measure 27
1001
0000
0000
0000
,  // measure 28
0001
0000
0000
0000
,  // measure 29
0110
0000
0000
0000
,  // measure 30
0010
0000
0000
0000
,  // measure 31
0110
0000
0000
0000
,  // measure 32
0100
0000
0000
0000
,  // measure 33
1000
0000
0010
0000
,  // measure 34
1000
0000
0100
0000
,  // measure 35
1000
0000
0001
0000
,  // measure 36
0001
0000
0000
0000
,  // measure 37
0001
0000
0010
0000
,  // measure 38
0001
0000
0100
0000
,  // measure 39
0001
0000
1000
0000
,  // measure 40
1000
0000
0000
0000
,  // measure 41
1000
0000
1000
0000
,  // measure 42
0001
0000
0000
0000
,  // measure 43
0001
0000
0001
0000
,  // measure 44
0100
0000
0000
0000
,  // measure 45
0100
0000
0100
0000
,  // measure 46
0010
0000
0000
0000
,  // measure 47
0010
0000
0000
0000
,  // measure 48
0110
0000
0000
0000
,  // measure 49
1001
0000
0000
0000
,  // measure 50
1000
0000
0000
0000
,  // measure 51
1001
0000
0000
0000
,  // measure 52
0001
0000
0000
0000
,  // measure 53
0110
0000
0000
0000
,  // measure 54
0010
0000
0000
0000
,  // measure 55
0110
0000
0000
0000
,  // measure 56
0100
0000
0000
0000
,  // measure 57
0002
0000
0000
0000
,  // measure 58
2003
0000
0000
0000
,  // measure 59
3020
0000
0000
0000
,  // measure 60
2030
0000
0000
0000
,  // measure 61
3002
0000
0000
0000
,  // measure 62
0023
0000
0000
0000
,  // measure 63
0032
0000
0000
0000
,  // measure 64
2003
0000
0000
0000
,  // measure 65
3001
0000
0000
0000
,  // measure 66
0001
0000
0000
0000
,  // measure 67
1000
0000
0000
0000
,  // measure 68
1000
0000
0000
0000
,  // measure 69
0010
0000
0000
0000
,  // measure 70
0010
0000
0000
0000
,  // measure 71
0100
0000
0100
0000
,  // measure 72
0100
0000
0000
0000
,  // measure 73
0001
0000
0000
0000
,  // measure 74
0010
0000
0000
0000
,  // measure 75
1000
0000
0000
0000
,  // measure 76
0010
0000
0000
0000
,  // measure 77
0001
0000
0000
0000
,  // measure 78
0100
0000
0000
0000
,  // measure 79
0010
0000
0010
0000
,  // measure 80
0010
0000
0000
0000
,  // measure 81
2002
0000
0000
0000
,  // measure 82
0000
0000
0000
0000
,  // measure 83
3003
0000
0000
0000
;

//---------------dance-single - TaroNuke----------------
#NOTES:
     dance-single:
     TaroNuke:
     Easy:
     4:
     0.267,0.379,0.109,0.118,0.000: // measure 1
0000
0000
0000
0000
,  // measure 2
0000
0000
0000
0000
,  // measure 3
0000
0000
0000
0000
,  // measure 4
0000
0000
0000
0000
,  // measure 5
0000
0000
0000
0000
,  // measure 6
0000
0000
0000
0000
,  // measure 7
0000
0000
0000
0000
,  // measure 8
0000
0000
0000
0000
,  // measure 9
1001
0000
0000
1000
0000
1000
0000
0100
,  // measure 10
0000
0000
0000
0000
,  // measure 11
0110
0000
0000
0010
0000
0010
0000
0100
,  // measure 12
0000
0000
0000
0000
,  // measure 13
1001
0000
1000
0100
,  // measure 14
1000
0000
0000
0000
,  // measure 15
1001
0000
0001
0100
,  // measure 16
0002
0023
0230
0300
,  // measure 17
1000
0000
1000
0000
,  // measure 18
0001
0100
0010
1000
,  // measure 19
0001
0000
0001
0000
,  // measure 20
0100
0010
1000
0001
,  // measure 21
0100
0000
0100
0000
,  // measure 22
0010
0100
0001
1000
,  // measure 23
0020
0000
0000
0000
,  // measure 24
0130
0000
0110
0000
,  // measure 25
1001
1000
0001
0000
,  // measure 26
1000
0100
0010
0000
,  // measure 27
1001
0001
0100
0000
,  // measure 28
0001
0100
0010
1000
,  // measure 29
0010
1000
0001
0000
,  // measure 30
1000
0010
0100
0000
,  // measure 31
0120
0000
0000
0000
,  // measure 32
0130
0001
0100
0010
,  // measure 33
1000
0100
0002
0000
,  // measure 34
1003
0100
0001
0000
,  // measure 35
1000
1000
0001
0001
,  // measure 36
1000
0010
0100
0000
,  // measure 37
0001
0100
2000
0000
,  // measure 38
3001
0100
1000
0000
,  // measure 39
0001
0000
1000
0000
,  // measure 40
1000
0001
0100
0010
,  // measure 41
1000
1000
0001
0001
,  // measure 42
0010
0000
0010
0000
,  // measure 43
1000
1000
0001
0001
,  // measure 44
0100
0000
0100
0000
,  // measure 45
1000
1000
0001
0001
,  // measure 46
0010
0000
0010
0000
,  // measure 47
1000
1000
0001
0001
,  // measure 48
0100
0000
1001
0000
,  // measure 49
1001
1000
0001
0000
,  // measure 50
1000
0100
0010
0000
,  // measure 51
1001
0001
0100
0000
,  // measure 52
0001
0100
0010
1000
,  // measure 53
0010
1000
0001
0000
,  // measure 54
1000
0010
0100
0000
,  // measure 55
0120
0000
0000
0000
,  // measure 56
0130
0001
0100
0010
,  // measure 57
1000
1000
1000
1000
,  // measure 58
1000
1000
2000
0000
,  // measure 59
3001
0001
0001
0001
,  // measure 60
0001
0001
0002
0000
,  // measure 61
0013
0010
0010
0010
,  // measure 62
0010
0010
0020
0000
,  // measure 63
0031
1000
0001
1000
,  // measure 64
0001
0001
0002
0000
,  // measure 65
1003
0000
0000
0000
,  // measure 66
0001
0000
0000
0000
,  // measure 67
1000
0100
1000
0100
,  // measure 68
0010
0001
0010
0001
,  // measure 69
1000
0000
0000
0000
,  // measure 70
0001
0000
0000
0000
,  // measure 71
1000
0010
1000
0010
,  // measure 72
0100
0001
0100
0001
,  // measure 73
1000
0000
0000
0000
,  // measure 74
0010
0000
0000
0000
,  // measure 75
0001
0000
0100
0000
,  // measure 76
1000
0000
0000
0000
,  // measure 77
0001
0000
0000
0000
,  // measure 78
0010
0000
0000
0000
,  // measure 79
1000
0000
0100
0000
,  // measure 80
0001
0000
0000
0000
,  // measure 81
2002
0000
0000
0000
,  // measure 82
0000
0000
0000
0000
,  // measure 83
3003
0000
0000
0000
;
