#TITLE:LoveGame;
#SUBTITLE:;
#ARTIST:Lady Gaga;
#TITLETRANSLIT:;
#SUBTITLETRANSLIT:;
#ARTISTTRANSLIT:;
#CREDIT:;
#BANNER:;
#BACKGROUND:;
#LYRICSPATH:;
#CDTITLE:;
#MUSIC:Lady Gaga - Lovegame.mp3;
#OFFSET:0.767;
#SAMPLESTART:55.130;
#SAMPLELENGTH:15.000;
#SELECTABLE:YES;
#BPMS:0.000=105.000;
#STOPS:;
#BGCHANGES:0.000=[Round 1] - LoveGame.avi=1.000=0=0=1,
99999=-nosongbg-=1.000=0=0=0 // don't automatically add -songbackground-
;

//---------------dance-single - ----------------
#NOTES:
     dance-single:
     :
     Hard:
     8:
     0.454,0.515,0.142,0.071,0.218:
0000
0000
0000
0000
,
0000
0000
0000
0000
,
0000
0000
0000
0000
,
0000
0000
0000
0000
,
0000
0000
0000
0000
0000
0000
0000
0000
0001
0000
0100
0000
0010
1000
0000
0010
,
1000
0000
0000
0000
0010
0000
1000
0000
0000
0000
1000
0000
0001
0100
0000
0001
,
0100
0000
0000
0000
0001
0000
1000
0000
0001
0000
0100
0000
0010
0100
0000
0010
,
0100
0000
0000
0000
0010
0000
1000
0000
0001
0000
1000
0000
0001
0010
0000
0001
,
0010
0100
1000
0001
0100
0010
2000
0000
,
3010
0000
1000
0001
0000
1000
0100
0001
,
0100
0010
0001
0100
0010
1000
0200
0000
,
1300
0000
0000
0000
0001
0000
0100
0000
0000
0000
0001
0000
1000
0010
0000
1000
,
0010
1000
0001
0100
1000
0100
0001
0010
,
1000
0010
0100
1000
0010
0100
0001
0001
,
1000
0010
0100
0001
1000
0100
0010
0000
,
0001
0100
0010
0000
1000
0001
0100
0000
,
0001
1000
0100
0010
0012
0000
0013
0100
,
0210
0000
0000
0000
0310
0000
0000
0000
0001
0000
0100
0010
1000
0000
0010
0000
,
1020
0000
1030
0100
0020
0000
0031
0100
,
1000
0100
0001
0010
0100
1000
0010
0001
,
0020
0000
0130
0001
1000
0000
0100
0000
,
0001
0100
1000
0000
0010
0000
0001
0000
,
0010
1000
0100
0000
1000
0000
0010
0000
,
0001
0010
1000
0000
0100
0000
0001
0000
,
0100
0000
1000
0000
0010
0000
0000
0000
0101
0000
0001
0010
0001
0000
1000
0000
,
0010
0100
0010
0000
0100
0000
0001
1000
0001
0000
1000
0000
0001
0100
0001
0000
,
0100
0000
0010
1000
0100
0000
0010
0000
0001
0000
1000
0000
0100
1000
0000
0100
,
1000
0000
0000
0000
0010
0000
0100
0000
0000
0000
0001
0000
0100
0001
0000
0100
,
0001
0000
0000
0000
1000
0000
0001
1000
0001
0000
0010
0000
0001
0100
0001
0000
,
1000
0000
0100
1000
0100
0000
1000
0000
0010
0100
0001
0000
1000
0000
0100
0010
,
0001
0000
0100
0000
0010
0000
1000
0000
0100
0000
0010
0000
0001
0010
0000
0001
,
0010
0000
0000
0000
0010
0000
0100
0000
0000
0000
1000
0000
0010
0100
0000
0010
,
0100
0000
0000
0000
0001
0000
1000
0000
1010
0000
1000
0010
1000
0000
0010
0000
,
0100
0001
1000
0000
1001
0000
1000
0100
1000
0000
0001
0000
0100
0001
1000
0000
,
1010
0000
1000
0100
1000
0000
0001
0000
0100
0000
0010
0000
1000
0000
0100
0000
,
0001
0100
1100
0000
1000
0010
0100
0001
,
0010
0000
0100
0000
1100
0000
1000
0001
0010
0000
0001
0000
0100
0010
0100
0000
,
0110
0000
0100
0010
1000
0000
0001
0000
0100
0010
1000
0000
0100
0000
1000
0100
,
1000
0001
0101
0001
1000
0100
0001
0100
,
1000
0010
0110
0000
0010
0100
0001
1000
,
0100
0000
1000
0000
1001
0000
0001
0000
0000
0000
0001
0000
0100
0010
0000
0100
,
0010
0000
0000
0000
1000
0000
0100
0000
0000
0000
0100
0000
1000
0100
0000
1000
,
0100
0000
1000
1001
0000
0000
0000
0000
;

//---------------dance-single - ----------------
#NOTES:
     dance-single:
     :
     Medium:
     5:
     0.295,0.300,0.051,0.030,0.000:
0000
0000
0000
0000
,
0000
0000
0000
0000
,
0000
0000
0000
0000
,
0000
0000
0000
0000
,
0000
0000
0000
0000
1000
0001
0100
0000
,
0001
0000
1000
0100
0000
0010
0100
0010
,
0001
0000
0001
0100
0000
0001
1000
0001
,
0100
0000
0100
0010
0000
1000
0100
0010
,
0001
0000
0001
0100
0010
0000
1000
0000
,
0100
0000
1000
1000
0000
0000
0001
0000
,
0100
0000
0010
0010
0000
0000
1000
0000
,
0100
0000
1000
1000
0000
0000
0001
0000
,
0100
0000
0010
0010
1000
0000
1100
0000
,
1000
0101
0001
1001
,
0010
0000
0010
0000
1000
1000
0100
0000
,
0010
0010
0001
0000
0100
0100
0010
0000
,
1000
1000
0100
0000
0020
0000
0031
0100
,
0020
0000
1030
0000
0100
1000
0010
0000
,
0200
0000
0301
1000
0100
0000
0100
1000
,
0010
0000
0100
0000
0001
1000
0100
0000
,
0010
0000
0001
0100
0010
0000
0010
0000
,
0010
0010
1000
1000
,
1000
1000
0001
0001
,
0001
0001
0010
0100
,
1000
0000
0001
0000
0100
0100
0001
0000
,
0100
0100
0010
0000
1000
0100
0010
0001
,
1000
0100
1000
0010
0100
0000
0001
0000
,
1000
0000
0100
0010
0000
0010
0001
0000
,
0100
0000
0010
1000
0100
0000
1000
0000
,
0001
0000
0100
0100
0010
0000
1000
0000
,
0100
1000
0001
0000
0100
0000
0010
0000
,
1000
0000
0100
0010
0000
0010
0001
0000
,
0100
0000
0010
1000
0001
0000
1000
0000
,
0100
0100
0010
0000
0001
0000
0010
0010
,
0100
0000
1000
0000
0001
0100
0001
0000
,
1000
0100
1000
0000
0001
0000
1000
0000
,
0010
0000
0110
0000
0010
0010
1000
0000
,
0100
1000
0001
0000
0001
0000
0100
0000
,
0010
1000
0100
0000
0010
0000
0001
0000
,
0100
0010
1000
0000
1000
0100
0010
0001
,
1000
0000
1001
0000
0001
0100
0001
0000
,
1000
0000
0100
0010
0000
0010
0001
0000
,
0100
0000
0010
1000
0000
0000
0000
0000
;

//---------------dance-single - ----------------
#NOTES:
     dance-single:
     :
     Easy:
     3:
     0.204,0.257,0.030,0.030,0.000:
0000
0000
0000
0000
,
0000
0000
0000
0000
,
0000
0000
0000
0000
,
0000
0000
0000
0000
,
0000
0000
1000
0001
,
0100
0010
0010
0010
,
0110
0001
1000
0100
,
1000
0001
0001
0001
,
1000
0010
0100
0000
,
0000
0000
0000
0001
,
0010
0001
1000
0100
,
0100
1000
0010
0010
,
0100
0001
1000
0100
,
0001
0100
1000
0010
,
0100
0001
1000
1000
,
0001
0001
1000
1010
,
0001
0101
0002
1003
,
2000
3001
0100
0100
,
0010
0010
1000
0100
,
1000
0001
0100
0010
,
1000
0001
1000
0000
,
1000
0000
0001
0000
,
0001
0000
0100
0000
,
0100
0000
0010
0000
,
0010
0000
1000
0100
,
0001
0001
0100
1000
,
0010
0100
0002
0003
,
0000
1000
0001
1000
,
0000
0100
1000
0010
,
0001
0010
0100
0001
,
1000
0100
0010
0000
,
0001
1000
0100
1000
,
0000
0010
0100
0100
,
0001
0010
1000
0010
,
0001
0100
1000
0100
,
0001
0100
1000
0100
,
0001
0010
0100
0100
,
1000
0010
0100
0001
,
1000
0100
1000
1000
,
0010
0001
0001
0010
,
1000
0100
0010
0010
,
0010
0001
1000
1000
,
1000
0001
0000
0000
;
