#TITLE:La Noche Es Para Mi;
#SUBTITLE:;
#ARTIST:Soraya;
#TITLETRANSLIT:;
#SUBTITLETRANSLIT:;
#ARTISTTRANSLIT:;
#CREDIT:;
#BANNER:;
#BACKGROUND:;
#LYRICSPATH:;
#CDTITLE:;
#MUSIC:La Noche Es Para Mi.mp3;
#OFFSET:-7.640;
#SAMPLESTART:37.420;
#SAMPLELENGTH:15.230;
#SELECTABLE:YES;
#BPMS:0.000=126.000;
#STOPS:;
#BGCHANGES:;

//---------------dance-single - ----------------
#NOTES:
     dance-single:
     :
     Hard:
     8:
     0.522,0.503,0.433,0.175,0.253: // measure 1
1001
0000
0000
0001
0000
0000
1000
0000
0100
0000
0010
0000
0100
0000
1000
0000
,  // measure 2
0001
0000
0000
0100
0001
0000
0100
0000
0010
0000
1000
0000
0100
0000
0000
0000
,  // measure 3
0010
0000
0000
0001
0000
0000
0010
0000
0001
0000
0100
0000
0010
0000
1000
0000
,  // measure 4
0100
0000
0000
0010
0001
0000
1000
0000
0001
1000
0001
1000
0001
0000
0000
0000
,  // measure 5
1002
0000
0000
1000
0000
0000
0100
0000
0200
0000
0000
0000
0003
0000
0000
0000
,  // measure 6
0010
0000
0000
0010
0000
0000
0001
0000
0301
0000
0000
0001
1000
0000
0000
0000
,  // measure 7
0110
0000
0001
0010
0100
0010
0001
0000
,  // measure 8
1010
0000
0000
0000
1000
0000
0010
0000
0100
0001
0100
0001
0100
0000
0000
0000
,  // measure 9
0001
0000
0000
0010
0000
0000
0100
0000
2000
0000
0000
0000
3010
0000
0000
0000
,  // measure 10
1000
0000
0000
0010
0000
0000
0100
0000
0002
0000
0000
0000
0103
0000
0000
0000
,  // measure 11
0001
0000
1000
0100
0001
0100
1000
0000
,  // measure 12
0011
0000
0000
0000
0001
0000
0100
0000
0010
1000
0010
1000
0010
0000
0000
0000
,  // measure 13
1000
0000
0000
0100
0000
0000
1000
0000
0001
0000
0000
0100
0000
0000
0001
0000
,  // measure 14
1000
0000
0000
1000
0100
0000
0010
0000
0001
0000
0000
0100
0000
0000
0010
0000
,  // measure 15
1000
0010
1000
0000
0001
0000
0100
0000
0001
0100
0001
0000
1000
0000
0001
0000
,  // measure 16
2002
0000
0000
0000
0000
0000
0000
0000
3003
0000
0000
1000
0001
0000
0000
0000
,  // measure 17
0011
0000
0101
0000
0010
1000
0100
1000
,  // measure 18
1001
0000
0110
0000
0010
1000
0100
0010
,  // measure 19
0100
0000
0000
0010
0000
0000
1000
0000
0001
0000
0000
0010
0000
0000
0100
0000
,  // measure 20
0010
0001
0100
1000
0001
0010
0100
0001
,  // measure 21
0101
0000
1010
0000
1000
0100
0010
0001
,  // measure 22
0011
0000
1100
0000
1000
0100
0001
0100
,  // measure 23
1000
0000
0000
0100
0000
0000
0001
0000
1000
0000
0000
0010
0000
0000
0001
0000
,  // measure 24
1000
0000
0001
0100
0010
0000
1001
0000
,  // measure 25
1000
0000
0000
1000
0100
0000
0010
0000
0001
0000
0000
0000
0011
0000
0000
0000
,  // measure 26
0001
0000
0000
0001
0100
0000
0010
0000
1000
0000
0000
0000
0010
0000
0100
0000
,  // measure 27
0202
0000
0303
1001
2002
0000
3003
1100
,  // measure 28
2200
0000
0000
0000
0000
0000
0000
0000
3300
0000
0000
1000
0100
0000
1000
0000
,  // measure 29
0001
0000
0000
1000
0000
0000
0001
0000
0001
0000
0010
0001
0010
0000
0000
0000
,  // measure 30
0001
0000
0000
0010
0000
0000
0100
0000
0100
0000
1000
0100
1000
0000
0000
0000
,  // measure 31
0010
0000
0000
0100
0000
0000
0010
0000
0010
0000
1000
0010
1000
0000
0001
0000
,  // measure 32
0010
0000
0000
0001
0000
0000
1000
0000
0001
1000
0001
1000
0001
0000
0000
0000
,  // measure 33
1001
0000
0000
1001
0000
0000
1001
0000
0000
0000
0100
0010
0100
0000
0000
0000
,  // measure 34
1010
0000
0000
1010
0000
0000
1010
0000
0000
0000
0001
0100
0001
0000
0000
0000
,  // measure 35
0011
0000
0000
0011
0000
0000
0011
0000
0000
0000
1000
0100
1000
0000
0001
0000
,  // measure 36
0100
0001
0000
0001
0100
0000
0010
0000
1001
0000
0000
0000
0110
0000
0000
0000
,  // measure 37
1010
0000
1100
0000
1000
0100
0001
0100
,  // measure 38
0110
0000
0011
0000
0001
0100
0010
1000
,  // measure 39
0001
0000
0000
1000
0100
0000
0010
0000
0001
0000
0000
1000
0010
0000
0100
0000
,  // measure 40
0001
0010
1000
0010
0100
1000
0001
0100
,  // measure 41
0110
0000
1010
0000
1000
0100
0010
0001
,  // measure 42
0101
0000
0011
0000
0010
0001
1000
0100
,  // measure 43
1000
0000
0000
0001
0100
0000
0001
0000
1000
0000
0000
0100
1000
0000
0010
0000
,  // measure 44
0100
0000
0000
0001
0000
0000
1000
0000
1002
0000
0000
0000
0013
0000
0001
0000
,  // measure 45
0100
0000
0010
1000
0100
0000
0010
0001
,  // measure 46
0100
0001
0100
1000
0100
0010
1000
0100
,  // measure 47
0010
0000
0001
0100
0010
0000
1000
0100
,  // measure 48
0001
0100
1000
0100
0010
0001
0100
0010
,  // measure 49
0110
0000
0000
0100
0000
0000
0001
0000
1000
0000
0000
0000
0001
1000
0001
1000
,  // measure 50
0001
0000
0000
1000
0000
0000
0100
0000
0010
0000
0000
0000
0010
0000
0001
0000
,  // measure 51
2002
0000
3003
0101
0202
0000
0303
0110
,  // measure 52
0220
0000
0000
0000
,  // measure 53
0330
0000
0000
0000
;

//---------------dance-single - ----------------
#NOTES:
     dance-single:
     :
     Medium:
     5:
     0.388,0.383,0.285,0.285,0.023: // measure 1
1000
0000
0100
1000
0001
0000
0100
0000
,  // measure 2
0001
0000
1000
0001
0010
0000
0100
0000
,  // measure 3
0010
0000
0001
0010
0001
0000
1000
0000
,  // measure 4
0001
0000
0100
0010
0100
0001
1000
0000
,  // measure 5
2002
0000
0000
3000
,  // measure 6
0200
0000
0003
0310
,  // measure 7
1001
0000
0001
0000
1000
0001
1000
0000
,  // measure 8
0001
0000
1000
0000
0100
1000
0100
0000
,  // measure 9
0010
0000
0001
0100
0001
0000
0000
0000
,  // measure 10
0100
0000
0010
1000
0010
0000
1000
0000
,  // measure 11
0001
0000
0010
0000
0100
0010
0001
0000
,  // measure 12
0100
0000
0010
0100
0001
1000
0001
0000
,  // measure 13
1000
0000
0000
0100
0000
0000
1000
0000
0100
0000
0000
0000
0010
0000
0000
0000
,  // measure 14
0001
0000
0100
0001
1000
0000
0001
0000
,  // measure 15
1000
0100
0010
0000
0100
0010
0001
0000
,  // measure 16
2002
0000
0000
3003
,  // measure 17
1001
0000
1001
0000
1000
0010
0100
0000
,  // measure 18
0110
0000
0110
0000
0010
0100
0001
0000
,  // measure 19
1000
0000
0001
0010
0100
0000
1000
0010
,  // measure 20
0100
0010
0100
0000
0001
0100
0001
0000
,  // measure 21
1001
0000
1001
0000
0001
0010
0100
0000
,  // measure 22
0110
0000
0110
0000
0100
1000
0001
0000
,  // measure 23
1000
0000
0010
0100
0001
0000
0010
0100
,  // measure 24
1000
0000
0001
1000
0002
0000
0003
0000
,  // measure 25
1001
0000
0000
1000
0000
0000
1000
0000
2000
0000
0000
0000
3000
0000
0000
0000
,  // measure 26
0001
0000
0000
0001
0000
0000
0001
0000
0002
0000
0000
0000
0003
0000
0100
0000
,  // measure 27
0200
0000
0000
0010
0320
0000
0000
0100
,  // measure 28
0200
0000
0000
0330
,  // measure 29
2002
0000
3003
0000
1000
0001
1000
0000
,  // measure 30
0220
0000
0330
0000
0010
0100
0010
0000
,  // measure 31
2002
0000
3003
0000
1000
0100
0010
0000
,  // measure 32
0110
0000
0011
0000
0001
1000
0001
0000
,  // measure 33
2002
0000
3003
0000
1000
0010
1000
0000
,  // measure 34
0202
0000
0303
0000
0010
1000
0100
0000
,  // measure 35
0022
0000
0033
0000
0010
0001
0100
0000
,  // measure 36
0110
0000
0010
1000
0002
0000
1003
0000
,  // measure 37
1001
0000
1001
0000
1000
0001
0100
0000
,  // measure 38
0110
0000
0110
0000
0010
0000
0100
0001
,  // measure 39
0100
0000
0010
1000
0100
0000
0010
0001
,  // measure 40
1000
0000
0001
0000
0100
0010
1000
0000
,  // measure 41
1100
0000
1100
0000
0100
0010
0001
0000
,  // measure 42
0011
0000
0011
0000
0001
0000
0100
0010
,  // measure 43
1000
0000
0001
0010
0100
0000
0010
0001
,  // measure 44
1000
0010
0220
0330
,  // measure 45
1001
0000
0000
1000
0100
0000
0000
0010
,  // measure 46
0001
0000
0100
0000
0010
0000
1000
0010
,  // measure 47
0100
0000
0000
0010
0100
0000
0000
0100
,  // measure 48
0001
0000
1000
0000
0001
1000
0100
0000
,  // measure 49
0010
0000
0000
0010
0000
0000
0010
0000
0020
0000
0000
0000
0030
0000
0000
0000
,  // measure 50
0100
0000
0000
0100
0000
0000
0100
0000
0200
0000
0000
0000
0300
0000
1000
0000
,  // measure 51
2000
0000
0000
0001
3002
0000
0000
1000
,  // measure 52
2000
0000
0000
0000
,  // measure 53
3003
0000
0000
0000
;

//---------------dance-single - ----------------
#NOTES:
     dance-single:
     :
     Easy:
     3:
     0.267,0.287,0.276,0.166,0.000: // measure 1
1000
0001
0100
0000
,  // measure 2
0010
0100
0001
0100
,  // measure 3
0010
1000
0100
0000
,  // measure 4
0010
0100
0010
0001
,  // measure 5
2002
0000
0000
0000
,  // measure 6
0000
0000
0000
3003
,  // measure 7
0001
0100
0010
0010
,  // measure 8
0100
0001
1000
1000
,  // measure 9
0001
0010
0001
0000
,  // measure 10
1000
0010
1000
0000
,  // measure 11
0010
0100
0001
0001
,  // measure 12
1000
0100
0010
0010
,  // measure 13
1001
0000
0001
0000
,  // measure 14
1000
0000
0010
0100
,  // measure 15
0001
0001
1000
1000
,  // measure 16
2002
0000
0000
3003
,  // measure 17
1001
1001
0000
0100
,  // measure 18
0110
0110
0000
0010
,  // measure 19
1000
0100
0010
0001
,  // measure 20
0100
0000
0001
1000
,  // measure 21
1001
1001
0000
0010
,  // measure 22
0110
0110
0000
0100
,  // measure 23
0001
1000
0100
0010
,  // measure 24
0001
0000
1000
0010
,  // measure 25
0110
0000
0010
1000
,  // measure 26
0100
0000
0010
0001
,  // measure 27
1001
0000
0110
0000
,  // measure 28
2002
0000
0000
3003
,  // measure 29
1001
0000
0001
1000
,  // measure 30
0001
0000
0100
0010
,  // measure 31
0100
0000
0010
1000
,  // measure 32
0010
0100
0001
1000
,  // measure 33
1001
0000
0001
0010
,  // measure 34
0100
0000
0100
0010
,  // measure 35
0001
0000
1000
0010
,  // measure 36
0100
0001
2002
3003
,  // measure 37
0110
0110
0000
1000
,  // measure 38
1001
1001
0000
0001
,  // measure 39
0010
0001
1000
0100
,  // measure 40
0010
0000
0100
0010
,  // measure 41
0110
0110
0000
0001
,  // measure 42
1001
1001
0000
1000
,  // measure 43
0010
0100
0001
0010
,  // measure 44
0100
0000
0010
0001
,  // measure 45
2001
0000
3020
0000
,  // measure 46
0130
0010
1000
0100
,  // measure 47
0020
0000
0032
0000
,  // measure 48
0103
0010
0100
0001
,  // measure 49
1000
0100
1000
0000
,  // measure 50
0001
0100
0001
1000
,  // measure 51
2002
3003
0220
0330
,  // measure 52
2002
0000
0000
0000
,  // measure 53
3003
0000
0000
0000
;

//---------------dance-single - ----------------
#NOTES:
     dance-single:
     :
     Beginner:
     1:
     0.142,0.188,0.249,0.000,0.000: // measure 1
1001
0000
0001
0000
,  // measure 2
1000
0000
0100
0000
,  // measure 3
0010
0000
0100
0000
,  // measure 4
1000
0000
0001
0000
,  // measure 5
1001
0000
0000
0000
,  // measure 6
0000
0000
0000
0000
,  // measure 7
1001
0000
0001
0000
,  // measure 8
0100
0000
0010
0000
,  // measure 9
0100
0000
0000
0000
,  // measure 10
0010
0000
1000
0000
,  // measure 11
0001
0000
1000
0000
,  // measure 12
0001
0000
0010
0000
,  // measure 13
0100
0000
0000
0000
,  // measure 14
0010
0000
0001
0000
,  // measure 15
1000
0000
0010
0000
,  // measure 16
0110
0000
0000
0000
,  // measure 17
1001
0000
0000
0000
,  // measure 18
1001
0000
0000
0000
,  // measure 19
1000
0000
0100
0000
,  // measure 20
0010
0000
0000
0000
,  // measure 21
0110
0000
0000
0000
,  // measure 22
0110
0000
0000
0000
,  // measure 23
0010
0000
0001
0000
,  // measure 24
1000
0000
0001
0000
,  // measure 25
1001
0000
1000
0000
,  // measure 26
0010
0000
0100
0000
,  // measure 27
0110
0000
1001
0000
,  // measure 28
0110
0000
0000
0000
,  // measure 29
1001
0000
0000
0000
,  // measure 30
1001
0000
0000
0000
,  // measure 31
0110
0000
0000
0000
,  // measure 32
0110
0000
0001
0000
,  // measure 33
1001
0000
0000
0000
,  // measure 34
1001
0000
0000
0000
,  // measure 35
0110
0000
0000
0000
,  // measure 36
0110
0000
1000
0000
,  // measure 37
1001
0000
0000
0000
,  // measure 38
1001
0000
0000
0000
,  // measure 39
0001
0000
0010
0000
,  // measure 40
0100
0000
0010
0000
,  // measure 41
0110
0000
0000
0000
,  // measure 42
0110
0000
0000
0000
,  // measure 43
0100
0000
0010
0000
,  // measure 44
0001
0000
1000
0000
,  // measure 45
0001
0000
0001
0000
,  // measure 46
1000
0000
1000
0000
,  // measure 47
0010
0000
0010
0000
,  // measure 48
0100
0000
0100
0000
,  // measure 49
0010
0000
1000
0000
,  // measure 50
0001
0000
0010
0000
,  // measure 51
0110
0000
1001
0000
,  // measure 52
0110
0000
0000
0000
;
