#TITLE:Hanz up!;
#SUBTITLE:;
#ARTIST:Mr.Funky;
#TITLETRANSLIT:;
#SUBTITLETRANSLIT:;
#ARTISTTRANSLIT:;
#GENRE:;
#CREDIT:Telperion;
#BANNER:;
#BACKGROUND:;
#LYRICSPATH:;
#CDTITLE:;
#MUSIC:hanz_up.ogg;
#OFFSET:-0.237;
#SAMPLESTART:23.957;
#SAMPLELENGTH:14.884;
#SELECTABLE:YES;
#DISPLAYBPM:129.000;
#BPMS:0.000=129.000
,16.000=64.500
,17.000=129.000
,46.500=258.000
,48.000=129.000
,60.500=193.500
,61.500=129.000
,62.250=258.000
,64.000=129.000
,76.000=193.500
,77.000=129.000
,92.500=258.000
,93.000=129.000
,93.500=258.000
,94.000=129.000
,95.000=193.500
,96.000=129.000
,111.000=258.000
,112.000=129.000
,127.000=258.000
,128.000=129.000
,156.000=193.500
,157.000=129.000
,158.000=193.500
,159.000=129.000
,174.500=258.000
,176.000=129.000
,190.250=258.000
,190.500=129.000
,190.750=258.000
,192.000=129.000
,223.750=258.000
,224.000=129.000
,224.750=258.000
,225.000=129.000
,225.250=258.000
,225.500=129.000
,225.750=258.000
,226.000=129.000
;
#STOPS:16.000=0.465,
31.000=0.465,
46.500=0.116,
47.000=0.117,
47.500=0.116,
60.500=0.078,
61.000=0.077,
62.250=0.116,
62.750=0.058,
63.000=0.058,
63.250=0.058,
63.500=0.059,
63.750=0.058,
76.000=0.077,
76.500=0.078,
92.500=0.058,
92.750=0.058,
93.500=0.058,
93.750=0.058,
95.000=0.077,
95.500=0.078,
111.000=0.058,
111.250=0.058,
111.500=0.058,
111.750=0.058,
127.000=0.058,
127.250=0.059,
127.500=0.058,
127.750=0.058,
156.000=0.077,
156.500=0.078,
158.000=0.077,
158.500=0.078,
174.500=0.116,
175.000=0.116,
175.500=0.117,
190.250=0.058,
190.750=0.058,
191.000=0.058,
191.250=0.058,
191.500=0.059,
191.750=0.058,
206.000=0.465,
223.750=0.058,
224.750=0.058,
225.250=0.058,
225.750=0.058
;
#BGCHANGES:0.833=[Round 1] - Hanz up!.avi=1.000=0=0=0=StretchNoLoop====,
99999=-nosongbg-=1.000=0=0=0 // don't automatically add -songbackground-
;
#KEYSOUNDS:;
#ATTACKS:;

//---------------dance-single - Telperion----------------
#NOTES:
     dance-single:
     Telperion:
     Hard:
     8:
     0.488,0.468,0.139,0.209,0.170,352.000,16.000,24.000,0.000,0.000,0.000,0.488,0.468,0.139,0.209,0.170,352.000,16.000,24.000,0.000,0.000,0.000:
0000
0000
0000
0000
,
0000
0000
0000
0000
,
0000
0000
0000
0000
,
0000
0000
0000
0000
,
0000
0000
1001
0000
1000
0010
0100
0000
,
0001
0010
0100
0000
1000
0001
1000
0010
,
0100
0000
0001
1000
0001
0010
0001
1000
,
0001
0000
0010
0000
0100
0000
1000
0000
0010
0000
0010
0000
0020
0030
0000
0000
,
1001
0000
0000
0100
1000
0000
0010
0000
0000
0000
0100
0000
0001
0000
0010
0000
,
0000
0100
1000
0001
0000
0100
0010
0100
,
0000
0001
0010
0100
0000
1000
0010
0100
,
0000
0000
0001
1000
0001
0000
0100
0000
0000
1000
0100
0000
0110
0000
0110
0000
,
0000
0000
0001
0100
0001
0000
0010
0000
0000
0000
0100
0000
1000
0000
0010
0000
,
0000
0100
0001
1000
0000
0100
0010
0100
,
0001
0100
1000
0001
0000
0100
0001
0010
,
0000
0000
0100
0000
0100
0000
0010
0000
0000
0001
0000
1000
0001
1000
0001
0000
,
0100
0010
0000
0010
0000
0000
1000
0000
0010
0000
0100
0000
0000
0000
0001
0000
,
0020
0000
0030
0100
0010
0001
0000
1000
,
0020
0000
0030
0100
0010
0100
0000
0001
,
0020
0000
0000
0000
0000
0000
0000
0030
0020
0000
0000
0000
0000
0000
0000
0000
0030
0000
0000
0000
0000
0000
0000
0000
0100
0000
0000
0000
0000
0000
0000
0000
0010
0000
0000
0000
0000
0000
0000
0000
0100
0000
0000
0000
0000
0000
0000
0000
0000
0000
0000
0000
0000
0000
0000
0000
1000
0000
0000
0000
0000
0000
0000
0000
,
0100
0010
0000
0010
0000
0000
0001
0000
1000
0000
0001
0000
0000
0000
0100
0000
,
2020
0000
3030
0001
0100
0001
0000
1000
,
0022
0000
0033
1000
0010
0100
0000
0010
,
1000
0000
0001
0100
0001
0000
1000
0100
1000
0000
0001
0000
1001
0000
0100
0000
,
0220
0000
0330
1000
0001
0100
0000
0000
,
0220
0000
0330
0001
1000
0100
0000
0000
,
0120
0030
0000
0000
0000
0000
0001
0000
0100
0000
0010
0100
0000
0000
0001
0000
,
0010
0010
0000
0100
1000
0010
0100
0010
,
0220
0000
0330
0001
0010
0100
0000
0000
,
0220
0000
0330
1000
0010
0100
0000
0000
,
0102
0003
0000
0000
0000
0000
1000
0000
0100
0000
0010
0100
0000
0000
1000
0000
,
0001
0000
0010
0000
0100
0000
0100
0000
1000
0000
0001
1000
0000
0001
1000
0001
,
0100
0010
0100
0001
0100
0010
0100
1000
,
0001
0010
0100
0010
2000
0000
0000
0000
,
3001
0010
0100
1000
0100
0010
0100
0001
,
1000
0010
0100
0010
0001
1000
0001
0000
,
0000
0100
0000
0001
0100
0000
0001
0000
1000
0000
0001
0000
0010
0000
1000
0000
,
0020
0000
0030
0100
0000
0100
0000
1000
0100
0000
0010
0000
0001
0000
0100
0000
,
0010
0000
0100
0000
0000
0001
0000
0100
0001
0000
1000
0000
0100
0000
0001
0000
,
0100
0000
0110
0000
0001
1000
0001
1000
0010
0000
1000
0000
0002
0000
0000
0000
,
1000
0000
0003
0100
0001
0000
0010
0000
0000
0000
0100
0000
1000
0000
0010
0000
,
0000
0100
0001
1000
0000
0100
0010
0100
,
0000
1000
0010
0100
0000
0001
0010
0100
,
0000
0000
1000
0001
1000
0000
0100
0000
0000
0001
0100
0000
0110
0000
1001
0000
,
0000
0000
1000
0100
1000
0000
0010
0000
0000
0000
0100
0000
0001
0000
0010
0000
,
0000
0100
1000
0001
0000
0100
0010
0100
,
1000
0100
0001
1000
0000
0100
1000
0010
,
0000
0000
0100
0000
0100
0000
0010
0000
0000
1000
0000
1000
0001
1000
0001
1000
,
0100
0010
0001
0000
0100
0010
1000
0000
,
0100
0010
1000
0010
0100
0010
0001
0000
,
0100
0010
1000
0000
0100
0010
0001
0000
,
1000
0010
0001
0010
2000
3000
0010
0100
,
0001
0000
0010
0100
1000
0000
0010
0100
,
1000
0100
0010
0100
0001
0000
0010
0100
,
1000
0000
0010
0100
0001
0000
0010
0100
,
0001
0000
0100
0000
0010
0000
0100
0000
1000
0000
0000
0000
0001
0000
1000
0001
,
0000
0000
1000
0001
1000
0001
1000
0001
0200
0300
0000
0000
0000
0000
0000
0000
;

//---------------dance-single - Telperion----------------
#NOTES:
     dance-single:
     Telperion:
     Medium:
     6:
     0.374,0.369,0.105,0.139,0.004,272.000,12.000,16.000,0.000,0.000,0.000,0.374,0.369,0.105,0.139,0.004,272.000,12.000,16.000,0.000,0.000,0.000: // measure 0
0000
0000
0000
0000
,  // measure 1
0000
0000
0000
0000
,  // measure 2
0000
0000
0000
0000
,  // measure 3
0000
0000
0000
0000
,  // measure 4
0000
0100
0001
0100
,  // measure 5
0001
1000
0001
1000
,  // measure 6
0001
0000
0010
0001
1000
0001
0100
0001
,  // measure 7
1000
0001
0010
0001
1000
1000
0010
0000
,  // measure 8
0000
0001
0100
0001
0000
0100
0000
0010
,  // measure 9
0000
1000
0100
1000
0000
0100
0000
0010
,  // measure 10
0000
0001
0100
0001
0000
0100
0000
0010
,  // measure 11
0000
1000
0010
1000
0000
0100
0010
0100
,  // measure 12
0000
1000
0100
1000
0000
0100
0000
0010
,  // measure 13
0000
0001
0100
0001
0000
0100
0000
0010
,  // measure 14
0000
1000
0010
0100
0000
0001
0100
0010
,  // measure 15
0000
1000
0001
1000
0000
0100
0010
0010
,  // measure 16
1001
1001
0000
0000
0010
0010
0000
0000
,  // measure 17
0220
0000
0330
0000
0100
0100
0000
0000
,  // measure 18
2002
0000
3003
0000
0100
0100
0000
0000
,  // measure 19
0110
0110
0000
0000
0010
0010
0000
0000
,  // measure 20
1001
0000
0000
1001
0000
0000
0000
0000
0010
0000
0010
0000
0000
0000
0000
0000
,  // measure 21
0220
0000
0330
0000
0100
0100
0000
0000
,  // measure 22
2002
0000
3003
0000
0010
0010
0000
0000
,  // measure 23
1000
0010
0001
0100
1000
0001
1000
0000
,  // measure 24
2001
3001
0010
0001
,  // measure 25
0200
0301
0100
0010
,  // measure 26
2000
3000
0000
0000
0001
0000
0000
0000
0100
0000
0000
0000
0100
0000
0000
0000
,  // measure 27
0010
0000
0100
0000
0001
0000
1000
0001
,  // measure 28
1002
1003
0010
1000
,  // measure 29
0200
1300
0100
0010
,  // measure 30
0002
0003
0000
0000
1000
0000
0000
0000
0100
0000
0000
0000
0100
0000
0000
0000
,  // measure 31
0010
0000
0100
0000
1000
0001
1000
0001
,  // measure 32
0100
0001
0100
0001
0100
0001
0100
0010
,  // measure 33
1000
0010
1000
0010
0200
0000
0000
0000
,  // measure 34
0301
1000
0100
1000
0100
1000
0100
0010
,  // measure 35
0001
0010
0000
0100
0010
0000
0100
0000
,  // measure 36
1000
0001
0100
0001
0100
0001
0100
0010
,  // measure 37
1000
0001
0100
0001
1000
0001
0100
0000
,  // measure 38
0010
1000
0001
1000
0100
1000
0001
1000
,  // measure 39
0001
0010
1000
0100
0001
1000
0001
0000
,  // measure 40
0000
1000
0100
1000
0000
0100
0000
0010
,  // measure 41
0000
0001
0100
0001
0000
0100
0000
0010
,  // measure 42
0000
1000
0100
1000
0000
0010
0000
0100
,  // measure 43
0000
0001
0010
0001
0000
0001
0100
0100
,  // measure 44
0000
0001
0100
0001
0000
0100
0000
0010
,  // measure 45
0000
1000
0100
1000
0000
0100
0000
0010
,  // measure 46
0000
0001
0010
0100
0000
1000
0100
0010
,  // measure 47
0000
0001
1000
0001
0000
0100
0010
0010
,  // measure 48
1000
0000
0100
0000
0001
0000
1000
0001
,  // measure 49
0100
0000
1000
0000
0010
0000
0001
0010
,  // measure 50
1000
0000
0100
0000
0001
0000
1000
0001
,  // measure 51
0100
0000
1000
0000
0020
0030
0001
0000
,  // measure 52
0100
0000
1000
0000
0001
1000
0100
0000
,  // measure 53
0001
0000
0010
0000
1000
0010
0001
0000
,  // measure 54
0100
0000
1000
0000
0001
1000
0100
0000
,  // measure 55
0001
0000
0010
0100
0010
0000
0100
0000
,  // measure 56
0100
0000
0100
0100
0100
0000
0000
0000
;

//---------------dance-single - Telperion----------------
#NOTES:
     dance-single:
     Telperion:
     Easy:
     5:
     0.286,0.271,0.000,0.000,0.000,230.000,0.000,0.000,0.000,0.000,0.000,0.286,0.271,0.000,0.000,0.000,230.000,0.000,0.000,0.000,0.000,0.000:
0000
0000
0000
0000
,
0000
0000
0000
0000
,
0000
0000
0000
0000
,
0000
0000
0000
0000
,
0000
1000
0001
1000
,
0001
0100
0001
0100
,
0001
0100
0010
0100
,
0010
1000
0010
0001
,
0010
0000
0001
0000
1000
0100
1000
0001
,
0000
0000
0100
0000
0001
0100
0001
1000
,
0000
0000
0100
0000
1000
0100
1000
0001
,
0000
0000
0100
0000
0001
0100
0100
0100
,
0000
0000
0010
0000
1000
0100
1000
0001
,
0000
0000
0100
0000
0001
0100
0001
1000
,
0000
0000
0100
0000
1000
0100
1000
0100
,
0000
0010
0001
0010
0000
0100
1000
0100
,
0010
0000
0001
0000
0100
0000
0010
0100
,
0010
0000
1000
0000
0100
0000
0010
0100
,
0010
0000
0001
0000
0100
0000
0010
0100
,
0010
0010
0000
0000
1000
0000
0001
0000
,
0010
0000
0001
0000
0100
0000
0010
0100
,
0010
0000
1000
0000
0100
0000
0010
0100
,
0010
0100
1000
0001
,
0100
0001
1000
0000
0100
1000
0001
0000
,
0010
0000
0001
0000
,
0010
0000
0100
0000
,
1000
0000
0001
0000
,
0100
0000
0001
0100
,
0010
0000
1000
0000
,
0010
0000
0100
0000
,
0001
0000
1000
0000
,
0010
0000
1000
0100
,
1000
0000
0001
0000
1000
0000
0010
0100
,
0010
1000
0100
0000
,
1000
0000
0001
0000
1000
0000
0010
0100
,
0010
1000
0010
0100
,
0001
0000
1000
0000
0001
0000
0010
0100
,
0010
0001
0010
0100
,
1000
0001
1000
0001
,
0100
0010
1000
0000
0001
0001
0100
0000
,
0010
0000
1000
0000
0001
0100
0001
1000
,
0000
0000
0100
0000
1000
0100
1000
0001
,
0000
0000
0100
0000
0001
0100
0001
1000
,
0000
0000
0100
0000
1000
0100
0100
0100
,
0000
0000
0010
0000
0001
0100
0001
1000
,
0000
0000
0100
0000
1000
0100
1000
0001
,
0000
0000
0100
0000
0001
0100
0001
0100
,
0000
0010
1000
0010
0000
0100
0001
0100
,
0001
0010
1000
0100
,
0001
0010
1000
0100
,
0001
0010
1000
0100
,
0010
1000
0010
0001
,
0010
1000
0100
0001
,
0010
1000
0100
0001
,
0010
1000
0100
0010
,
1000
0000
0010
0100
0010
0000
1000
0001
,
0000
1000
0001
1000
0010
0000
0000
0000
;

//---------------dance-single - Telperion----------------
#NOTES:
     dance-single:
     Telperion:
     Beginner:
     2:
     0.115,0.156,0.000,0.000,0.065,92.000,0.000,0.000,24.000,0.000,0.000,0.115,0.156,0.000,0.000,0.065,92.000,0.000,0.000,24.000,0.000,0.000:
0000
0000
0000
0000
,
0000
0000
0000
0000
,
0000
0000
0000
0000
,
0000
0000
0000
0000
,
0000
0010
0000
0000
,
0000
0000
0000
0000
,
0000
0000
0000
0000
,
0000
0000
0000
0000
,
0001
0000
0001
0000
,
0001
0000
0001
0000
,
1000
0000
1000
0000
,
1000
0000
0100
0000
,
0001
0000
0001
0000
,
0001
0000
0001
0000
,
1000
0000
1000
0000
,
0100
0000
0100
0000
,
0010
0000
0000
0000
,
0100
0000
0000
0000
,
0010
0000
0000
0000
,
0100
0000
0000
0000
,
0010
0000
0000
0000
,
0100
0000
0000
0000
,
0010
0000
0000
0000
,
0100
0000
0100
0000
,
0010
0000
0000
0000
,
0001
0000
0000
0000
,
0100
0000
0000
0000
,
1000
0000
0001
0100
,
0010
0000
0000
0000
,
1000
0000
0000
0000
,
0100
0000
0000
0000
,
0010
0000
0100
0100
,
0100
0000
1000
0000
,
0100
0000
1000
0000
,
0001
0000
0100
0000
,
0001
0000
0010
0000
,
0100
0000
1000
0000
,
0100
0000
1000
0000
,
0001
0000
0100
0000
,
0001
1000
0001
0001
,
1000
0000
1000
0000
,
1000
0000
1000
0000
,
0001
0000
0001
0000
,
0001
0000
0100
0000
,
1000
0000
1000
0000
,
1000
0000
1000
0000
,
0001
0000
0001
0000
,
0100
0000
0100
0000
,
0010
0000
0010
0000
,
1000
0000
1000
0000
,
0001
0000
0001
0000
,
0100
0000
0100
0010
,
0000
0010
0000
1000
,
0000
1000
0000
0001
,
0000
0001
0000
0100
,
0000
0100
0000
0010
,
0010
0000
0000
0010
0000
0000
0010
0000
0000
000M
M000
0M00
,
M000
000M
0M00
000M
M000
00M0
0M00
000M
00M0
M000
0M00
000M
,
M000
0000
0M00
000M
0000
00M0
M000
0000
0M00
0000
0000
000M
,
0000
0000
0M00
0000
0000
0000
00M0
0000
0000
0000
0000
0000
;

//---------------dance-double - Telperion----------------
#NOTES:
     dance-double:
     Telperion:
     Hard:
     8:
     0.517,0.592,0.131,0.261,0.205,370.000,15.000,30.000,0.000,0.000,0.000,0.517,0.592,0.131,0.261,0.205,370.000,15.000,30.000,0.000,0.000,0.000:
00000000
00000000
00000000
00000000
,
00000000
00000000
00000000
00000000
,
00000000
00000000
00000000
00000000
,
00000000
00000000
00000000
00000000
,
00000000
00000000
00010000
00001000
00010000
00001000
00000100
00000001
,
00000100
00000001
00000010
00001000
00000010
00001000
00010000
00100000
,
00010000
00100000
10000000
01000000
00010000
00001000
00000010
00001000
,
00010000
01000000
00100000
00001000
00010000
00010000
00020000
00030000
,
00000000
00000000
00001000
00010000
00001000
00000000
01000000
00000000
00000000
00000000
00001000
00000000
00010000
00000000
00000100
00000000
,
00000000
00000010
00000100
00001000
00000000
00010000
01000000
00010000
,
00000000
00001000
00000100
00001000
00000000
00010000
01000000
00100000
,
00000000
00000000
01000000
00010000
01000000
00000000
00100000
00000000
00000000
10000000
01000000
00000000
00110000
00000000
11000000
00000000
,
00000000
00000000
00001000
00010000
00001000
00000000
01000000
00000000
00000000
00000000
00001000
00000000
00010000
00000000
00000100
00000000
,
00000000
00000010
00000100
00001000
00000000
00010000
00100000
01000000
,
00000000
10000000
00100000
00010000
00000000
00001000
00000100
00000001
,
00000000
00000000
00000010
00000000
00000010
00000000
00000100
00000000
00000000
00000010
00000000
00000001
00001000
00000001
00001000
00000000
,
00000010
00000100
00000000
00000100
00000000
00000000
00000001
00000000
00000100
00000000
00001000
00000000
00010000
00000000
01000000
00000000
,
20200000
00000000
30300000
10000000
01000000
00010000
00001000
00000100
,
00000022
00000000
00000000
00000000
00000033
00001000
00000001
00000000
00000100
00000000
00000000
00001000
00010000
00000000
00100000
00000000
,
02020000
00000000
00000000
00000000
00000000
00000000
00000000
03030000
02020000
00000000
00000000
00000000
00000000
00000000
00000000
00000000
03030000
00000000
00000000
00000000
10000000
00000000
00000000
00000000
00010000
00000000
00000000
00000000
00000000
00000000
00000000
00000000
00100000
00000000
00000000
00000000
00000000
00000000
00000000
00000000
00100000
00000000
00000000
00000000
00000000
00000000
00000000
00000000
00010000
00000000
00000000
00000000
10000000
00000000
00000000
00000000
00000000
00000000
00000000
00000000
00000000
00000000
00000000
00000000
,
00100000
01000000
00000000
01000000
00000000
00000000
00010000
10000000
01000000
00000000
00010000
00000000
00001000
00000000
00000100
00000000
,
00000022
00000000
00000033
00000001
00000100
00001000
00010000
01000000
,
20200000
00000000
00000000
00000000
30300000
00010000
10000000
00000000
01000000
00000000
00000000
00010000
00001000
00000000
00000010
00000000
,
00000100
00000000
00000010
00000001
00000010
00000000
00000100
00001000
00000100
00000000
00001000
00000000
00000100
00000000
00010000
00000000
,
00022000
00000000
00033000
01000000
00010000
01000000
00000000
00000000
,
00022000
00000000
00033000
00000100
00001000
00000100
00000000
00000000
,
00000012
00000003
00000000
00000000
00001000
00000000
00000001
00000000
00000010
00000000
00000001
00001000
00000000
00000000
00000100
00000000
,
00000100
00000000
00010000
00000000
00001000
00000000
01000000
00000000
00010000
00000000
01000000
00000000
00100000
01000000
00010000
01000000
,
00002000
00000000
00003000
01000000
00100000
01000000
00000000
00000000
,
00022000
00000000
00033000
00000100
00000010
00000100
00000000
00000000
,
00002001
00003000
00000000
00000000
00000010
00000000
00000100
00000000
00000001
00000000
00000100
00000010
00000000
00000000
00000100
00000000
,
00001000
00000000
00000001
00000000
00000010
00000000
00001000
00000000
00000100
00000000
00000010
00000000
00000100
00001000
00000100
00010000
,
00001000
00010000
01000000
00100000
00010000
00100000
01000000
00010000
,
10000000
00100000
01000000
00100000
00002000
00000000
00000000
00000000
,
00013000
00001000
00000100
00000010
00001000
00000010
00000100
00001000
,
00000001
00000010
00000100
00000010
00001000
00000001
00002000
00003000
,
00000001
00000100
00000000
00000001
00000000
00000000
00001000
00000000
00000100
00000000
00010000
00000000
00001000
00000000
00100000
00000000
,
00200000
00000000
00300000
01000000
00000000
00100000
00000000
01000000
10000000
00000000
00100000
00000000
01000000
00000000
00010000
00000000
,
10000000
00000000
00010000
00000000
00000000
10000000
00000000
01000000
10000000
00000000
00010000
00000000
01000000
00000000
00001000
00000000
,
00020000
00000000
00000010
00000000
00031000
00010000
00001000
00010000
00002000
00000000
00100000
00000000
00013000
00000000
00000000
00000000
,
00000000
00000000
00010000
00001000
00010000
00000000
00000100
00000000
00000000
00000000
00010000
00000000
00001000
00000000
01000000
00000000
,
00000000
00100000
01000000
00010000
00000000
00001000
00000100
00001000
,
00000000
00010000
01000000
00010000
00000000
00001000
00000010
00000100
,
00000000
00000000
00000001
00000100
00000001
00000000
00001000
00000000
00000000
00000001
00000100
00000000
00001010
00000000
00000101
00000000
,
00000000
00000000
00010000
00001000
00010000
00000000
00000100
00000000
00000000
00000000
00010000
00000000
00001000
00000000
01000000
00000000
,
00000000
00100000
01000000
00010000
00000000
00001000
00000010
00000100
,
00000000
00000001
00000010
00001000
00000000
00010000
01000000
10000000
,
00000000
00000000
00100000
00000000
00100000
00000000
01000000
00000000
00000000
00100000
00000000
10000000
00010000
10000000
00010000
10000000
,
00100000
01000000
10000000
00000000
00010000
00100000
01000000
00000000
,
00001000
00010000
00100000
00000000
00001000
00010000
00001000
00000010
,
00000100
00001000
00000100
00000000
00000010
00000100
00000010
00000000
,
00001000
00000010
00000010
00000100
00000002
00000000
00000013
00000100
,
00000001
00000000
00001000
00000010
00000100
00000000
00010000
00001000
,
00000010
00000000
00010000
00001000
00010000
00100000
01000000
10000000
,
00100000
00000000
01000000
00100000
01000000
00000000
00010000
01000000
,
00001000
00000000
00010000
00000000
00000100
00000000
01000000
00000000
00000200
00000000
00000000
00000000
00010300
00000000
00001000
00010000
,
00000000
00000000
00001000
00010000
00001000
00010000
00001000
00010000
00002000
00003000
00000000
00000000
00000000
00000000
00000000
00000000
;
