#TITLE:Everything's Gonna Be Alright;
#SUBTITLE:;
#ARTIST:John Robinson;
#TITLETRANSLIT:;
#SUBTITLETRANSLIT:;
#ARTISTTRANSLIT:;
#CREDIT:;
#BANNER:[Round 1] - Everythings Gonna Be Alright.png;
#BACKGROUND:[Round 1] - Everythings Gonna Be Alright-BG.png;
#LYRICSPATH:;
#CDTITLE:;
#MUSIC:[Round 1] - Everythings Gonna Be Alright.ogg;
#OFFSET:0.020;
#SAMPLESTART:38.300;
#SAMPLELENGTH:12.000;
#SELECTABLE:YES;
#BPMS:0.000=150;
#STOPS:;
#BGCHANGES:0.000=[Round 1] - Everythings Gonna Be Alright.avi=1.000=0=0=1,
332.000=[Round 1] - Everythings Gonna Be Alright.png=1.000=0=0=1,
99999=-nosongbg-=1.000=0=0=0 // don't automatically add -songbackground-
;

//---------------dance-single - ----------------
#NOTES:
     dance-single:
     :
     Hard:
     8:
     0.490,0.489,0.271,0.018,0.099: // measure 1
0000
0000
0000
0000
,  // measure 2
0000
0000
0000
0000
,  // measure 3
0000
0000
0000
0000
,  // measure 4
0000
0000
0000
0000
,  // measure 5
0010
0000
0000
0001
0000
0000
0001
0000
0000
0100
0000
0000
0100
0000
0000
0000
,  // measure 6
0001
0000
0000
0100
0000
0000
0100
0000
0000
0010
0000
0000
1000
0000
0000
0000
,  // measure 7
1000
0000
0000
0100
0000
0000
0100
0000
0010
0000
0000
0000
0001
0000
0000
0000
,  // measure 8
1000
0001
0100
0010
,  // measure 9
1000
0100
1000
0001
0100
0000
1001
0000
,  // measure 10
0001
0100
0001
1000
0100
1000
0110
0000
,  // measure 11
0001
0100
0001
1000
0100
0000
0011
0000
,  // measure 12
0100
1000
0010
0100
0010
1000
1001
0000
,  // measure 13
0001
0100
0001
1000
0100
0000
1001
0000
,  // measure 14
1000
0100
1000
0001
0100
0001
0110
0000
,  // measure 15
1000
0100
1000
0001
0100
0000
1010
0000
,  // measure 16
0100
0001
0010
0100
0010
0001
0100
0000
,  // measure 17
0001
0010
0100
1000
0100
0010
0001
0000
,  // measure 18
1000
0100
0001
0100
1000
0010
0001
0000
,  // measure 19
0010
0100
0001
0100
0010
1000
0001
1000
,  // measure 20
0100
0010
0001
0100
1000
0100
0001
0000
,  // measure 21
1000
0100
1000
0001
0100
0000
1001
0000
,  // measure 22
0001
0100
0001
1000
0100
0000
1001
0000
,  // measure 23
1000
0100
0001
0100
,  // measure 24
1000
0100
1000
0010
0001
0000
0000
0000
,  // measure 25
1000
0000
0100
0000
0010
0000
0001
0100
,  // measure 26
1000
0100
0001
0010
0000
0100
1000
0010
,  // measure 27
0000
1000
0001
0100
0000
0000
0000
0001
,  // measure 28
0000
0100
1000
0100
0001
0000
0000
0000
,  // measure 29
1001
0000
0100
0000
0010
0000
1000
0100
,  // measure 30
0001
0100
1000
0010
0000
0100
0001
0010
,  // measure 31
0000
0001
1000
0100
0010
0000
0000
1000
,  // measure 32
0000
0100
0001
0100
1000
0000
0000
0000
,  // measure 33
1001
0000
0000
0110
0000
0000
0101
0000
,  // measure 34
1001
0100
0010
1000
0010
0100
1001
0000
,  // measure 35
1000
0100
1000
0000
0001
0100
0001
0000
,  // measure 36
2000
0100
3100
0000
0020
0001
0031
0000
,  // measure 37
1000
0010
0100
0000
0010
0100
0001
0000
,  // measure 38
1000
0100
0010
0001
0100
0010
1000
0000
,  // measure 39
0001
0100
1000
0000
0100
0001
1001
0000
,  // measure 40
1000
0100
0010
0001
0100
0010
1000
0000
,  // measure 41
0001
0000
0110
1000
0100
0000
0101
0000
,  // measure 42
1001
0100
0010
0001
1000
0100
1001
0000
,  // measure 43
1000
0000
0001
0000
0100
0000
0000
0100
0000
0000
0001
0000
0001
0000
0000
0000
,  // measure 44
1000
0000
0100
0000
1000
0000
0000
0001
0000
0000
0010
0000
0010
0000
0000
0000
,  // measure 45
0100
0000
1000
0000
1000
0000
0000
0010
0000
0000
0100
0000
0100
0000
0000
0000
,  // measure 46
0001
0000
0100
0000
0001
0000
0000
1000
0000
0000
0010
0000
0010
0000
0100
0001
,  // measure 47
0100
0000
0010
0000
1000
0000
0000
1000
0000
0000
0010
0000
0100
0000
0001
0010
,  // measure 48
0001
0000
1000
0000
0100
0000
0000
0100
0000
0000
0010
0000
0001
0000
1000
0100
,  // measure 49
1000
0000
0001
0000
0100
0000
0000
0100
0000
0000
0010
0000
1000
0000
0000
0000
,  // measure 50
1100
0000
0101
0100
0010
1000
0100
0000
,  // measure 51
0010
0000
0100
0000
1000
0000
0000
0000
0101
0000
0000
0010
0000
0000
1000
0000
,  // measure 52
0000
0000
0100
0000
0000
0010
0000
0000
1100
0000
0000
0001
0000
0000
0100
0000
,  // measure 53
0000
0000
0010
0000
0000
1000
0000
0000
1001
0000
0000
0100
0000
0000
0010
0000
,  // measure 54
0000
0000
0001
0000
0000
0100
0000
0000
1000
0000
0000
0100
0000
0000
0001
0000
,  // measure 55
1001
1100
0101
0010
,  // measure 56
1000
0100
1000
0001
,  // measure 57
0100
1001
0001
1000
,  // measure 58
0100
0001
0100
1000
0100
0010
0001
0000
,  // measure 59
1000
0000
0100
0000
0010
0000
0001
0100
,  // measure 60
1000
0100
0001
0010
0000
0100
1000
0010
,  // measure 61
0000
1000
0001
0100
0001
0000
0000
1000
,  // measure 62
0000
1000
0100
0001
0100
0000
0000
0000
,  // measure 63
1001
0000
0100
0000
0001
0000
1000
0100
,  // measure 64
0001
0100
1000
0010
0000
0100
0001
0000
;

//---------------dance-single - ----------------
#NOTES:
     dance-single:
     :
     Medium:
     5:
     0.349,0.431,0.153,0.126,0.018:
0000
0000
0000
0000
,
0000
0000
0000
0000
,
0000
0000
0000
0000
,
0000
0000
0000
0000
,
0000
0000
0000
0000
,
0000
0000
0000
0000
,
0000
0000
0000
0000
,
0000
0000
0000
0000
,
1000
0100
1000
1001
,
0001
0010
0001
1001
,
0100
0010
0100
0110
,
0000
0000
0000
0000
,
1000
0100
1000
1100
,
0001
0010
0001
0011
,
1000
0100
0010
1001
,
1000
0000
0001
0000
,
1000
0100
0010
0001
,
0010
0100
1000
0001
,
1000
0100
1000
0000
0001
0100
0001
0000
,
1000
0001
1000
0001
1000
0001
1000
0000
,
0002
1000
1000
1003
,
2000
0001
0001
3001
,
1000
0100
1000
0001
,
0100
0001
1000
0000
,
2000
0100
3100
0002
,
0100
0000
0103
0000
0100
0000
0010
0100
,
0010
0000
0100
0010
0100
0000
0000
0000
,
1000
0100
0010
0001
0010
0100
1000
0000
,
0001
0010
0010
0100
,
1000
0100
0100
0200
,
0000
0000
0000
0300
,
1000
0100
0010
0001
1000
0000
0000
0000
,
1001
0000
0000
0110
0000
0000
1001
0000
,
2000
3200
0320
0031
,
1000
0100
1000
0000
0001
0100
0001
0000
,
1000
0001
1000
0010
1000
0001
0100
0000
,
0001
0010
0001
0000
0000
0000
0011
0000
,
1000
0100
1000
0000
0000
0000
1100
0000
,
0010
0100
0010
0110
,
1000
0100
0010
0001
0010
0100
1000
0000
,
0011
0000
1100
0000
,
1000
0001
1000
0001
1000
0000
2002
0000
,
3003
0000
0000
0000
,
1000
0000
0001
0000
1000
0100
1000
0000
,
0001
0000
0100
0000
0001
0010
0001
0000
,
1000
0000
0100
0000
0010
0100
0010
0000
,
0001
0000
0010
0000
0100
0010
0100
0000
,
1000
0000
0001
0000
1000
0010
1000
0000
,
0001
0010
0100
0010
,
1001
0000
1100
0000
,
1000
0000
0000
0000
0000
0000
0000
0000
0010
0000
0000
0010
0000
0000
0010
0000
,
0000
0000
0100
0000
0000
0000
0000
0000
0001
0000
0000
0001
0000
0000
0001
0000
,
0000
0000
1000
0000
0000
0000
0000
0000
0100
0000
0000
0100
0000
0000
0100
0000
,
0000
0000
0010
0000
0100
0000
0000
0000
1000
0000
0000
1000
0000
0000
1000
0000
,
0001
0100
0010
1000
,
0001
0100
0010
1000
,
0010
1000
0100
0000
0010
0001
1000
0000
,
0001
1000
0001
0100
0001
0010
0001
1000
,
0002
0100
0103
2000
,
0100
0000
3100
0000
0100
0000
0010
0100
,
0010
0000
0100
0010
0100
0000
0000
0000
,
1000
0100
0010
0001
0010
0100
1000
0000
,
0002
0100
0010
0103
,
2000
0100
0010
3001
,
0000
0000
0000
0000
,
0000
0000
0000
0000
,
0000
0000
0000
0000
,
0000
0000
0000
0000
,
0000
0000
0000
0000
,
0000
0000
0000
0000
;

//---------------dance-single - ----------------
#NOTES:
     dance-single:
     :
     Easy:
     3:
     0.189,0.431,0.081,0.072,0.018:
0000
0000
0000
0000
,
0000
0000
0000
0000
,
0000
0000
0000
0000
,
0000
0000
0000
0000
,
0000
0000
0000
0000
,
0000
0000
0000
0000
,
0000
0000
0000
0000
,
0000
0000
0000
0000
,
1000
0000
0000
0000
,
1000
0000
0000
0000
,
0001
0000
0000
0000
,
0001
0000
0000
0000
,
1000
0000
0000
0000
,
0001
0000
0000
1000
,
0000
0000
0000
0001
,
0000
0000
0000
0000
,
1000
0001
1000
0001
,
0000
0000
0000
0000
,
0001
1000
0001
1000
,
0000
0000
0000
0000
,
1000
0000
0000
1001
,
0000
0000
0000
1001
,
0000
1000
0000
0001
,
0000
1000
0000
0000
,
2000
0000
0001
0000
,
0001
0000
3001
0000
,
1000
0000
0001
0000
,
1000
0001
1000
0000
,
0002
0000
1000
0000
,
1000
0000
1003
0000
,
2000
0000
0001
0000
,
0001
0000
3001
0000
,
1001
0000
0000
0000
,
2000
3002
2003
3000
,
0001
0000
1000
0000
,
0001
0000
1000
0001
,
1000
0000
0001
0000
,
1001
0000
0000
1001
,
0000
0000
0000
1001
,
0000
0000
0000
0000
,
1000
0000
0001
0000
,
1000
0001
1000
0001
1000
0001
1000
0000
,
0000
0000
0000
0000
0000
0001
0001
0000
,
0000
0000
0000
0000
0000
1000
1000
0000
,
0000
0000
0000
0000
0000
0001
0001
0000
,
0000
0000
0000
0000
0000
1000
1000
0000
,
0000
0000
0000
0000
0000
0001
0001
0000
,
0000
0000
0000
0000
0000
1000
1000
0000
,
0000
0000
0000
0000
0000
0001
0001
0000
,
0000
0000
0000
0000
,
1000
0000
0000
0000
0000
0000
0000
0000
0001
0000
0000
0001
0000
0000
0001
0000
,
0000
0000
0000
0000
0000
0000
0000
0000
1000
0000
0000
1000
0000
0000
1000
0000
,
0000
0000
0001
0000
0000
0000
0000
0000
0001
0000
0000
0001
0000
0000
0001
0000
,
0000
0000
1000
0000
0001
0000
0000
0000
1000
0000
0000
1000
0000
0000
1000
0000
,
0001
1000
0001
1000
,
0001
1000
0001
1000
,
0001
1000
0001
0000
1000
0001
1000
0000
,
0001
1000
0001
1000
0001
1000
0001
1000
,
0002
0000
1000
0000
,
1000
0000
1003
0000
,
2000
0000
0001
0000
,
0001
0000
3001
0000
,
1001
0000
1001
0000
,
1000
0001
1000
0001
1000
0000
1001
0000
,
0000
0000
0000
0000
,
0000
0000
0000
0000
,
0000
0000
0000
0000
,
0000
0000
0000
0000
,
0000
0000
0000
0000
,
0000
0000
0000
0000
;
