#TITLE:Bulletproof;
#SUBTITLE:;
#ARTIST:La Roux;
#TITLETRANSLIT:;
#SUBTITLETRANSLIT:;
#ARTISTTRANSLIT:;
#GENRE:;
#CREDIT:hooky;
#BANNER:Bulletproof.png;
#BACKGROUND:Bulletproof-bg.png;
#LYRICSPATH:;
#CDTITLE:cdtitle.png;
#MUSIC:Bulletproof.ogg;
#OFFSET:-0.097;
#SAMPLESTART:48.500;
#SAMPLELENGTH:15.000;
#SELECTABLE:YES;
#DISPLAYBPM:123.000;
#BPMS:0.000=123.023
;
#STOPS:
;
#BGCHANGES:-4.000=cdtitle.png=1.000=1=0=0=StretchNoLoop==CrossFade==,
0.000=Bulletproof.avi=1.000=0=0=0=StretchNoLoop====,
99999=-nosongbg-=1.000=0=0=0 // don't automatically add -songbackground-
;
#KEYSOUNDS:;
#ATTACKS:;

//---------------dance-single - hooky----------------
#NOTES:
     dance-single:
     hooky:
     Hard:
     7:
     0.430,0.406,0.238,0.249,0.051,223.000,21.000,22.000,0.000,0.000,0.000,0.430,0.406,0.238,0.249,0.051,223.000,21.000,22.000,0.000,0.000,0.000:
0000
0000
0000
0000
,
0000
0000
0000
0000
,
0000
0000
0000
0000
,
0000
0000
0000
0000
,
1000
0000
0100
0000
1000
0000
0100
0000
1000
0000
0000
1000
0000
0000
0000
0000
,
0001
0000
0010
0000
0001
0000
0010
0000
0001
0000
0000
0001
0000
0000
0000
0000
,
0100
0000
0010
0000
0100
0000
0010
0000
0100
0000
0000
0100
0000
0000
0000
0000
,
0100
0000
0010
0000
2000
0000
0000
0100
0000
0000
0100
0000
3000
0000
0010
0000
,
0001
0001
1001
0000
0100
0100
0110
0000
,
1000
1000
1000
0100
1000
1000
1100
0000
,
0010
0010
0011
0000
0100
0100
0110
0000
,
1000
0100
2000
0000
0100
0000
3100
0000
,
0100
0100
0110
0000
0001
0001
1001
0000
,
0100
0100
0100
0010
0100
0100
0110
0000
,
0001
0001
0011
0000
0100
0100
1100
0000
,
0001
0010
0002
0000
0010
0000
0013
0000
,
1000
1000
1001
0000
0010
0010
0110
0000
,
0001
0001
0001
0010
0001
0001
0011
0000
,
0100
0100
1100
0000
0010
0010
0110
0000
,
0001
0000
0010
0000
0002
0000
0000
0010
0000
0000
0010
0000
0003
0000
0100
0000
,
0010
0010
0110
0000
1000
1000
1001
0000
,
0010
0010
0010
0100
0010
0010
0110
0000
,
1000
1000
1100
0000
0010
0010
0011
0000
,
1000
0100
1000
0000
0001
0010
0001
0000
,
2002
0000
0000
3003
,
1000
0100
0000
0010
0001
0010
0000
0010
,
0010
0200
0000
0000
0020
0000
0330
0000
,
2000
0100
0000
0100
0000
0100
3000
0100
,
0002
0010
0000
0010
0000
0010
0003
0010
,
0001
0100
0000
0100
0010
0100
0000
0100
,
0010
0200
0000
0000
0020
0000
0330
0000
,
0002
0100
0000
0100
0000
0100
0003
0100
,
2000
0010
0000
0010
0000
0010
3000
1000
,
0001
0010
0000
0100
1000
0100
0000
0010
,
0100
0020
0000
0000
0200
0000
0330
0000
,
0002
0010
0000
0010
0000
0010
0003
0010
,
2000
0100
0000
0100
0000
0100
3000
0100
,
1000
0010
0000
1000
0100
0010
0000
0010
,
0100
0020
0000
0000
0200
0000
0330
0000
,
2000
0010
0000
0010
0000
0010
3000
0010
,
0002
0100
0000
0100
0000
0100
0003
0100
,
0010
0000
0100
0000
0010
0000
0000
0000
1000
0000
0000
1000
0000
0000
1000
0000
,
0001
0000
0100
0000
0001
0000
0000
0000
0100
0000
0000
0100
0000
0000
0100
0000
,
0001
0000
0100
0000
0001
0000
0000
0000
0010
0000
0000
0010
0000
0000
0010
0000
,
0100
0000
1000
0000
0100
0000
0000
0000
0001
0000
0000
0001
0000
0000
0001
0000
;

//---------------dance-single - hooky----------------
#NOTES:
     dance-single:
     hooky:
     Challenge:
     9:
     0.673,0.610,0.724,0.000,0.481,352.000,64.000,0.000,0.000,0.000,0.000,0.673,0.610,0.724,0.000,0.481,352.000,64.000,0.000,0.000,0.000,0.000:
0000
0000
0000
0000
,
0000
0000
0000
0000
,
0000
0000
0000
0000
,
0000
0000
0000
0000
,
1000
0000
0100
0000
1000
0000
0100
0000
1000
0000
0100
1000
0000
1000
0100
0000
,
0010
0000
0001
0000
0010
0000
0001
0000
0010
0000
0001
0010
0000
0010
0001
0000
,
0100
0000
0010
0000
0100
0000
0010
0000
0100
0000
0010
0100
0000
0100
0010
0000
,
0110
0000
1000
0000
0100
0000
1000
0100
0000
0100
1000
0000
0000
0000
0100
0000
,
0110
0000
1000
0000
1100
0000
0001
0000
1001
0000
1000
0001
0000
0001
1000
0000
,
0110
0000
0100
0000
0011
0000
0010
0000
0100
0000
0010
0100
0000
0100
0010
0000
,
1100
0000
0100
0000
0011
0000
0100
0000
0110
0000
0010
1000
0000
1000
0010
0000
,
1001
0000
0100
0000
0010
0000
0100
0000
0010
0000
0010
0100
0000
0100
0010
0000
,
1100
0000
0100
0000
0110
0000
0010
0000
0110
0000
0010
0100
0000
0100
0010
0000
,
0011
0000
0010
0000
1100
0000
1000
0000
0110
0000
0001
1000
0000
1000
0001
0000
,
0110
0000
0010
0000
1100
0000
1000
0000
0011
0000
0001
1000
0000
1000
0001
0000
,
0110
0000
1000
0000
1100
0000
0001
0000
0011
0000
0100
0010
0000
0010
0100
0000
,
0110
0000
0001
0000
0011
0000
1000
0000
1001
0000
0001
1000
0000
1000
0001
0000
,
0110
0000
0010
0000
1100
0000
0100
0000
0010
0000
0100
0010
0000
0010
0100
0000
,
0011
0000
0010
0000
1100
0000
0010
0000
0110
0000
0100
0001
0000
0001
0100
0000
,
1001
0000
0010
0000
0100
0000
0100
0010
0000
0010
0100
0000
0000
0010
0000
0000
,
0011
0000
0010
0000
0110
0000
0100
0000
0110
0000
0100
0010
0000
0010
0100
0000
,
1100
0000
0100
0000
0011
0000
0001
0000
0110
0000
1000
0001
0000
0001
1000
0000
,
0110
0000
0100
0000
0011
0000
0001
0000
1100
0000
1000
0001
0000
0001
1000
0000
,
0110
1000
0001
1000
0000
0001
1000
0001
,
1001
0000
0110
0000
1001
0000
1000
0100
0000
0010
0001
0000
0000
0000
0100
0000
,
0100
0010
0100
0000
0000
0000
1000
0100
1000
0000
0100
0000
0110
0000
0000
0000
,
0001
0010
0001
0000
0000
0000
0100
0010
0100
0000
0010
0000
0110
0000
0000
0000
,
1000
0100
1000
0000
0000
0000
0010
0001
0010
0000
0010
0000
0110
0000
0000
0000
,
0001
0100
0001
0000
0000
0000
1000
0010
1000
0000
0100
0000
0110
0000
0000
0000
,
0100
0010
0100
0000
0000
0000
0001
0010
0001
0000
0010
0000
0110
0000
0000
0000
,
1000
0100
1000
0000
0000
0000
0001
1000
0001
0000
0100
0000
0110
0000
0000
0000
,
0100
0010
0100
0000
0000
0000
0001
0100
0001
0000
0100
0000
0110
0000
0000
0000
,
1000
0010
1000
0000
0000
0000
0010
0100
0010
0000
0100
0000
0110
0000
0000
0000
,
0010
0100
0010
0000
0000
0000
0001
0010
0001
0000
0010
0000
0110
0000
0000
0000
,
1000
0100
1000
0000
0000
0000
0010
0100
0010
0000
0100
0000
0110
0000
0000
0000
,
0001
0010
0001
0000
0000
0000
0100
1000
0100
0000
0100
0000
0110
0000
0000
0000
,
1000
0010
1000
0000
0000
0000
0001
0100
0001
0000
0010
0000
0110
0000
0000
0000
,
0010
0100
0010
0000
0000
0000
1000
0100
1000
0000
0100
0000
0110
0000
0000
0000
,
0001
0010
0001
0000
0000
0000
1000
0001
1000
0000
0010
0000
0110
0000
0000
0000
,
0010
0100
0010
0000
0000
0000
1000
0010
1000
0000
0010
0000
0110
0000
0000
0000
,
0001
0100
0001
0000
0000
0000
0100
0010
0100
0000
0010
0000
0110
0000
0000
0000
,
1000
0000
0100
0000
1000
0100
1000
0000
0100
0000
0010
0100
0000
0100
0010
0000
,
0110
0000
0001
0000
0100
0001
0100
0000
0001
0000
1000
0100
0000
0010
0001
0000
,
0110
0000
0100
0000
0010
0100
0010
0000
0100
0000
0010
0001
0000
1000
0100
0000
,
0110
0000
1000
0000
0100
0010
0100
0000
0011
0000
0010
1000
0000
1000
0010
0000
;

//---------------dance-single - hooky----------------
#NOTES:
     dance-single:
     hooky:
     Medium:
     5:
     0.247,0.253,0.011,0.113,0.000,142.000,1.000,10.000,0.000,0.000,0.000,0.247,0.253,0.011,0.113,0.000,142.000,1.000,10.000,0.000,0.000,0.000:
0000
0000
0000
0000
,
0000
0000
0000
0000
,
0000
0000
0000
0000
,
0000
0000
0000
0000
,
1000
0100
1000
0010
,
0100
0001
0010
0001
,
0100
0010
1000
0100
,
1000
0010
1000
0000
0010
0000
0100
0000
,
0001
0010
0001
0010
,
0001
0100
0010
1000
,
0100
1000
0010
0100
,
0001
0001
1000
1000
,
0100
0010
0001
0100
,
0010
1000
0100
0100
,
1000
0010
0100
0001
,
0010
0010
0001
0001
,
0100
0010
1000
0100
,
1000
0010
0100
0001
,
0010
0001
0100
0010
,
1000
0100
1000
0000
0010
0001
0010
0000
,
0001
0100
0010
1000
,
0100
0100
1000
1000
,
0010
0100
0001
0010
,
0001
0100
0001
0000
1000
0010
1000
0000
,
0220
0000
0000
0330
,
0100
0001
0100
0001
,
0010
0001
1000
0010
,
0200
0000
0000
0000
,
0020
0000
0000
0330
,
0100
0001
0010
0001
,
1000
0010
0100
0010
,
2000
0000
0000
0000
,
0002
0000
0000
3003
,
0100
0010
1000
0100
,
1000
0010
0100
0001
,
0020
0000
0000
0000
,
0002
0000
0000
0033
,
1000
0100
1000
0010
,
0100
0001
0010
0001
,
2000
0000
0000
0000
,
0200
0000
0000
3300
,
1000
0100
1000
0100
,
0010
0001
0010
0001
,
0100
0001
0100
0001
,
0100
0010
1000
0100
;

//---------------dance-single - hooky----------------
#NOTES:
     dance-single:
     hooky:
     Easy:
     3:
     0.179,0.201,0.057,0.045,0.000,102.000,5.000,4.000,0.000,0.000,0.000,0.179,0.201,0.057,0.045,0.000,102.000,5.000,4.000,0.000,0.000,0.000:
0000
0000
0000
0000
,
0000
0000
0000
0000
,
0000
0000
0000
0000
,
0000
0000
0000
0000
,
1000
0000
1000
1000
,
0001
0000
0001
0001
,
0100
0000
0100
0100
,
0020
0000
0200
0330
,
0100
0000
0100
0000
,
0010
0000
0010
0000
,
1000
0001
1000
0001
,
1010
0000
0101
0000
,
0001
0010
0100
0000
,
1000
0010
0100
0000
,
0001
0001
1000
1000
,
1100
0000
0011
0000
,
0001
0100
0010
0010
,
1000
0000
0100
0000
,
0010
0010
0100
0000
,
0001
0000
1000
0000
,
0100
0100
0010
0000
,
0010
0010
1000
0000
,
1000
1000
0100
0000
,
0010
0001
0010
0001
,
2002
0000
0000
3003
,
0100
0000
0100
0000
,
0010
0000
0010
0000
,
0100
0000
0000
0000
,
0010
0000
0000
0000
,
1000
0000
1000
0000
,
0001
0000
0001
0000
,
1000
0000
0000
0000
,
0001
0000
0000
0000
,
0100
0010
1000
0000
,
0001
0100
0010
0000
,
1000
0000
1000
0000
,
0001
0000
0001
0000
,
0100
0010
1000
0000
,
0100
1000
0010
0000
,
0100
0000
0100
0000
,
0001
0000
0001
0000
,
0010
0010
0010
0000
,
0100
0100
0100
0000
,
0001
0001
0001
0000
,
1000
1000
1000
0000
;

//---------------dance-single - hooky----------------
#NOTES:
     dance-single:
     hooky:
     Beginner:
     1:
     0.082,0.091,0.068,0.000,0.000,45.000,6.000,0.000,0.000,0.000,0.000,0.082,0.091,0.068,0.000,0.000,45.000,6.000,0.000,0.000,0.000,0.000:
0000
0000
0000
0000
,
0000
0000
0000
0000
,
0000
0000
0000
0000
,
0000
0000
0000
0000
,
1000
0000
0000
0000
,
0000
0000
0000
0000
,
1000
0000
0000
0000
,
0000
0000
0000
0000
,
1000
0000
0000
0000
,
1000
0000
0000
0000
,
1000
0000
0000
0000
,
1000
0000
0000
0000
,
0001
0000
0000
0000
,
0001
0000
0000
0000
,
0001
0000
0000
0000
,
0001
0000
0000
0000
,
1000
0000
1000
0000
,
0001
0000
0001
0000
,
1000
0000
1000
0000
,
0001
0000
0000
0000
,
0100
0000
0100
0000
,
0010
0000
0010
0000
,
1000
0000
1000
0000
,
1001
0000
0000
0000
,
1001
0000
0000
0000
,
1000
0000
0001
0000
,
1000
0000
0001
0000
,
1001
0000
0000
0000
,
0110
0000
0000
0000
,
0001
0000
1000
0000
,
0001
0000
1000
0000
,
0110
0000
0000
0000
,
1001
0000
0000
0000
,
1000
0000
0000
0000
,
1000
0000
0000
0000
,
0001
0000
0000
0000
,
0001
0000
0000
0000
,
0100
0000
0000
0000
,
0100
0000
0000
0000
,
0010
0000
0000
0000
,
0100
0000
0000
0000
;
