#TITLE:Water Horizon;
#SUBTITLE:;
#ARTIST:Ryu;
#TITLETRANSLIT:;
#SUBTITLETRANSLIT:;
#ARTISTTRANSLIT:;
#GENRE:;
#CREDIT:;
#MENUCOLOR:ddrgreen;
#METERTYPE:DDR;
#BANNER:Water Horizon.png;
#BACKGROUND:Water Horizon-bg.png;
#LYRICSPATH:;
#CDTITLE:;
#MUSIC:Water Horizon.mp3;
#OFFSET:-2.820;
#SAMPLESTART:25.540;
#SAMPLELENGTH:12.000;
#SELECTABLE:YES;
#LISTSORT:;
#BPMS:0.000=95.500,36.000=191.000,132.000=95.500,148.000=191.000,308.000=95.500,516.000=191.000;
#STOPS:;
#BGCHANGES:;
#ATTACKS:;

//---------------dance-single - ----------------
#NOTES:
     dance-single:
     :
     Hard:
     9:
     0.853,1.000,0.295,0.431,0.411: // measure 1
0220
0330
0220
0330
0000
0000
0000
0000
1000
0100
1000
0000
0110
0000
0110
0000
,  // measure 2
1000
0100
0001
0100
1000
0010
0001
0010
1000
0010
1000
0100
0001
0001
0001
0000
,  // measure 3
0010
0010
0010
0000
0010
1000
0100
0000
0100
0010
0100
0001
1001
0000
1100
0000
,  // measure 4
1000
0000
0100
0000
0010
0000
0001
0000
0010
0000
0100
0000
1000
0000
0000
0000
0010
0000
0001
0000
0100
0000
0010
0000
1000
0100
1000
0000
0001
0000
0001
0000
,  // measure 5
0010
0100
1000
0100
0010
0100
0010
0001
1000
0010
0010
1000
0100
1000
1000
0100
,  // measure 6
0010
0010
0110
0100
0010
0100
0010
0100
0010
0001
0010
0100
1000
0010
0001
0010
,  // measure 7
0100
0100
0110
0000
0010
0010
0110
0000
1000
1000
1100
0000
0010
0010
0110
0000
,  // measure 8
0001
0001
1000
1000
0100
0100
0010
0010
0001
0001
0010
0100
1000
0100
0010
0001
,  // measure 9
2200
0300
0020
0030
0200
0300
0002
0003
3020
0000
0030
0000
1001
0000
1001
0000
,  // measure 10
1000
0100
0002
0003
1000
0010
0002
0003
,  // measure 11
1000
0100
0010
0001
0010
0100
1100
0000
,  // measure 12
0010
1000
0002
0003
1000
0001
0200
0300
,  // measure 13
1000
0100
0001
0100
1000
0100
0002
0003
,  // measure 14
0010
1000
0200
0300
1000
0001
2000
3000
,  // measure 15
0100
0010
0001
1000
0100
0010
0002
0003
,  // measure 16
0010
1000
0200
0300
1000
0010
0200
0300
,  // measure 17
1000
0010
0001
0010
1000
0010
0001
0000
,  // measure 18
0100
0010
0200
0300
0001
1000
0002
0003
,  // measure 19
0100
0010
0100
0001
0100
1000
0100
0000
,  // measure 20
0010
1000
0200
0300
0001
0100
0020
0030
,  // measure 21
1000
0100
0010
0001
0010
0100
1000
0000
,  // measure 22
0100
0001
0020
0030
1000
0001
0200
0300
,  // measure 23
1000
0001
0100
0010
0100
1000
0100
0000
,  // measure 24
0001
1000
0200
0300
0010
1000
0200
0300
,  // measure 25
0001
0100
0010
1000
0001
0010
0100
0000
,  // measure 26
0001
0100
2000
3000
1000
0100
0002
0003
,  // measure 27
0001
0010
1000
0010
0001
0010
1000
0000
,  // measure 28
0100
0010
0200
0300
0001
0100
0002
0003
,  // measure 29
1000
0001
1000
0100
1000
0010
1000
0000
,  // measure 30
0001
0010
0002
0003
1000
0010
2000
3000
,  // measure 31
0100
0001
0100
0010
0100
1000
0100
0000
,  // measure 32
0001
1000
0200
0300
0010
0001
0200
0300
,  // measure 33
1000
0100
0001
0000
0101
0000
0101
0000
,  // measure 34
0100
0000
0010
0000
0100
0000
1000
0000
0010
0100
0010
0000
0100
0000
0010
0000
0100
0000
1000
0000
0010
0000
1000
0000
1010
0000
0000
0000
0100
0000
0001
0000
,  // measure 35
0100
0000
0010
0000
0100
0000
1000
0000
0100
0010
0100
0000
0010
0000
0100
0000
0010
0000
1000
0000
0010
0000
1000
0000
0010
0000
1000
0000
0010
0000
0000
0000
,  // measure 36
0100
0000
0001
0000
0100
0000
0001
0000
0010
0100
0010
0000
0100
0000
0010
0000
1000
0000
0100
0000
0001
0000
0100
0000
1000
0000
0000
0000
0001
0000
0100
0000
,  // measure 37
1000
0000
0100
0000
0001
0000
0100
0000
1000
0100
1000
0000
0100
0000
0010
0000
0100
0000
1000
0000
0100
0000
0010
0000
0100
0000
0001
0000
0100
0000
0000
0000
,  // measure 38
0010
0000
0100
0000
0010
0000
0000
0000
0001
0100
0001
0000
0100
0000
0010
0000
,  // measure 39
0100
0001
0100
0010
0110
0000
0100
0001
,  // measure 40
0100
0000
0010
0000
0100
0000
0010
0000
0100
0001
0100
0000
0001
0000
0100
0000
,  // measure 41
1000
0100
0001
0100
1000
0100
0101
0000
,  // measure 42
0010
0000
1000
0000
0010
0000
0100
0000
0010
0100
0010
0000
0100
0000
1000
0000
,  // measure 43
0100
0001
0100
1000
1100
0000
0001
0100
,  // measure 44
1000
0000
0100
0000
0001
0000
0100
0000
0010
0100
0010
0000
0100
0000
1000
0000
,  // measure 45
0100
0010
0001
0010
0100
1000
1100
0000
,  // measure 46
1000
0000
0100
0000
0001
0000
0100
0000
1000
0100
0001
0000
0100
0000
0001
0000
,  // measure 47
0100
1000
0100
0001
0101
0000
0001
0010
,  // measure 48
1000
0000
0010
0000
0001
0000
0010
0000
1000
0010
0100
0000
0010
0000
0100
0000
,  // measure 49
1000
0100
0001
0100
1000
0100
0002
0003
,  // measure 50
0001
0000
0100
0000
0001
0000
0010
0000
0001
1000
0100
0000
0010
0000
0100
0000
,  // measure 51
0010
1000
0010
0100
0110
0000
0001
0010
,  // measure 52
1000
0000
0010
0000
0001
0000
0010
0000
1000
0010
0100
0000
0010
0000
1000
0000
,  // measure 53
0001
0010
1000
0010
0001
0010
2000
3000
,  // measure 54
0010
0000
1000
0000
0100
0000
0010
0000
0001
0010
0100
0000
0010
0000
0100
0000
,  // measure 55
0001
0100
0010
0001
0011
0000
0001
0010
,  // measure 56
1000
0000
0010
0000
0001
0000
0010
0000
1000
0010
0001
0000
0010
0000
1000
0000
,  // measure 57
0010
0100
0010
0100
0010
0100
0020
0030
,  // measure 58
0100
0000
0010
0000
0100
0000
0001
0000
0100
0001
1000
0000
0100
0000
0010
0000
,  // measure 59
0001
0010
0100
1000
1100
0000
0001
1000
,  // measure 60
0001
0000
0100
0000
0010
0000
1000
0000
0001
0100
0010
0000
0100
0000
0010
0000
,  // measure 61
0100
0010
0100
0001
0100
0010
0100
0000
,  // measure 62
1000
0100
0001
0100
2000
3000
0001
0100
,  // measure 63
1000
0000
0100
0001
0100
0000
1000
0000
0100
0000
0001
0000
0100
0000
1000
0000
,  // measure 64
0100
0001
0100
1000
2200
3300
0001
0100
,  // measure 65
0010
0000
1000
0100
0010
0000
0001
0000
0010
0000
0100
0000
1000
0000
0100
0000
,  // measure 66
0010
0000
1000
0000
0010
0000
0100
0000
0010
0100
0010
0100
0010
0000
0100
0000
,  // measure 67
1000
0100
0001
0100
0101
0000
0001
0010
,  // measure 68
0100
0000
1000
0000
0100
0000
0010
0000
0001
0010
0100
0000
1100
0000
0000
0000
,  // measure 69
0001
0010
0100
1000
0100
0010
0022
0000
,  // measure 70
0033
0100
0010
0100
1000
0000
0001
0100
,  // measure 71
0010
0000
0100
0000
0010
1000
0100
0000
0010
0000
0001
0000
0011
0000
0001
0000
,  // measure 72
0010
0100
1000
0100
1100
0001
0010
0100
,  // measure 73
0010
0000
0001
0100
0010
0000
0100
0000
0010
0000
1000
0000
0100
0000
0010
0000
,  // measure 74
0001
0000
1000
0000
0100
0000
0010
0000
0001
0100
0010
0000
0100
0000
1000
0000
,  // measure 75
0100
0010
0100
0010
0220
0330
0100
0010
,  // measure 76
0100
0000
0001
0000
0100
0000
0010
0000
0100
0001
0010
0000
0100
0000
0010
0000
,  // measure 77
0001
0010
1000
0010
0001
0010
0000
0000
,  // measure 78
0220
0000
0000
0000
0000
0000
0000
0000
0330
2200
0000
0000
3322
0000
0000
0000
,  // measure 79
0000
2233
0000
0000
0000
0000
0000
0000
0000
0000
3300
0000
0000
0000
0000
0000
;

//---------------dance-single - ----------------
#NOTES:
     dance-single:
     :
     Medium:
     6:
     0.402,0.461,0.008,0.000,0.000: // measure 1
1000
0100
0010
0000
0001
0010
0100
0000
,  // measure 2
1000
1000
1000
0000
0001
0010
0001
0000
,  // measure 3
1000
0100
1000
0000
0100
0010
0100
0000
,  // measure 4
0001
1000
0100
0010
,  // measure 5
0100
0010
0100
0000
1000
0001
1000
0000
,  // measure 6
0100
0010
0100
0000
0001
1000
0001
0000
,  // measure 7
0100
0010
0100
0000
1000
0001
1000
0000
,  // measure 8
0100
0010
0100
0000
0001
1000
0001
0000
,  // measure 9
1000
0100
0010
0001
0010
0100
1000
0000
,  // measure 10
1000
0100
0000
0000
,  // measure 11
0001
0100
1000
0100
,  // measure 12
0001
0000
1000
0000
,  // measure 13
1000
0010
0001
0010
,  // measure 14
1000
0100
0001
0100
,  // measure 15
1000
0100
0001
0100
,  // measure 16
0010
0100
0010
0100
,  // measure 17
0001
0100
0001
0100
,  // measure 18
0010
0100
0010
0100
,  // measure 19
1000
0100
1000
0000
0001
0000
1000
0000
,  // measure 20
0100
1000
0100
0000
0001
0000
0100
0000
,  // measure 21
0001
0010
0001
0000
1000
0100
1000
0000
,  // measure 22
0000
0000
1000
0100
,  // measure 23
1000
0100
0001
0100
,  // measure 24
0001
0010
0100
1000
,  // measure 25
0100
0010
0001
0010
,  // measure 26
0100
1000
0001
0100
,  // measure 27
0001
0100
0001
0000
1000
0100
1000
0000
,  // measure 28
0001
0010
0100
1000
,  // measure 29
0100
0000
0010
0000
0001
0010
0001
0000
,  // measure 30
1000
0000
0100
0000
1000
0100
1000
0000
,  // measure 31
0010
0000
0100
0000
0010
0001
0010
0000
,  // measure 32
0100
1000
0100
0010
,  // measure 33
0100
0010
0100
0010
,  // measure 34
0110
1000
0100
1000
0100
0010
0001
0000
,  // measure 35
1000
0100
1000
0100
0010
0001
0010
0000
,  // measure 36
0100
1000
0100
0010
0001
0010
0100
0000
,  // measure 37
0001
1000
0001
1000
0010
1000
0010
1000
,  // measure 38
0010
0100
0001
0100
,  // measure 39
1000
0100
0010
0000
,  // measure 40
1000
0000
0100
0000
1000
0100
1000
0000
,  // measure 41
0001
1000
0010
1000
,  // measure 42
0100
0000
0010
0000
0100
1000
0100
0000
,  // measure 43
0001
1000
0010
0000
,  // measure 44
1000
0000
0100
0000
1000
0010
0100
0000
,  // measure 45
0001
1000
0001
1000
0001
1000
0000
0000
,  // measure 46
0010
0000
0100
0000
1000
0100
1000
0000
,  // measure 47
0001
1000
0010
0000
,  // measure 48
1000
0000
0001
0000
0010
0100
0010
0000
,  // measure 49
0001
1000
0010
1000
,  // measure 50
0100
0000
1000
0000
0001
1000
0010
0000
,  // measure 51
0100
0001
0100
0000
,  // measure 52
0010
0000
1000
0000
0100
1000
0100
0000
,  // measure 53
0001
1000
0010
1000
,  // measure 54
0100
0000
0001
0000
0001
0010
0100
0000
,  // measure 55
1000
0100
0010
0000
,  // measure 56
0001
0000
1000
0000
0100
0010
0001
0000
,  // measure 57
1000
0100
0010
0100
,  // measure 58
0001
0000
0100
0000
0010
1000
0100
0000
,  // measure 59
0001
1000
0010
0000
,  // measure 60
0100
0000
0001
0000
1000
0010
0100
0000
,  // measure 61
0001
1000
0010
1000
,  // measure 62
0100
0001
0100
1000
,  // measure 63
0010
0000
1000
0000
0100
0001
0100
0000
,  // measure 64
1000
0100
0010
0100
,  // measure 65
0001
0000
0100
0000
0010
0100
0010
0000
,  // measure 66
1000
0100
0010
0100
,  // measure 67
0000
0000
0000
0000
,  // measure 68
1000
0000
0001
0000
1000
0100
1000
0000
,  // measure 69
0010
0100
0010
0001
,  // measure 70
1000
0100
1000
0100
,  // measure 71
0010
0000
0100
0000
1000
0100
1000
0100
,  // measure 72
1000
0001
1000
0100
,  // measure 73
0010
0100
1000
0000
0000
0000
0000
0000
,  // measure 74
0001
1000
0010
0000
0000
0000
0000
0000
,  // measure 75
1000
0100
0010
0001
,  // measure 76
0010
0100
1000
0100
,  // measure 77
1000
0100
0010
0001
0010
0100
1000
0100
,  // measure 78
0010
0000
0000
0000
;

//---------------dance-single - ----------------
#NOTES:
     dance-single:
     :
     Easy:
     4:
     0.299,0.276,0.008,0.000,0.000: // measure 1
1000
0100
0000
0000
,  // measure 2
1000
0100
0001
0100
,  // measure 3
1000
0100
0000
0000
,  // measure 4
0010
0100
0010
1000
,  // measure 5
0010
0100
0010
1000
,  // measure 6
0010
0000
0100
0001
,  // measure 7
0100
0010
0100
0001
,  // measure 8
0100
0010
0100
0000
,  // measure 9
1000
0001
1000
0100
,  // measure 10
1000
0000
0001
0000
,  // measure 11
1000
0100
0001
0100
,  // measure 12
0000
0000
1000
0000
,  // measure 13
0001
0100
1000
0100
,  // measure 14
0000
0000
1000
0100
,  // measure 15
0000
0000
0001
0100
,  // measure 16
1000
0100
0001
0100
,  // measure 17
1000
0000
0000
0000
,  // measure 18
0010
0100
0010
0100
,  // measure 19
0010
0100
0010
0100
,  // measure 20
0010
1000
0010
1000
,  // measure 21
0010
0100
0010
0001
,  // measure 22
0000
0000
1000
0100
,  // measure 23
0010
0001
0010
0100
,  // measure 24
1000
0100
0010
0100
,  // measure 25
0010
0100
1000
0100
,  // measure 26
0000
0000
0000
0000
,  // measure 27
1000
0100
0010
0001
,  // measure 28
1000
0100
1000
0100
,  // measure 29
0001
0100
1000
0100
,  // measure 30
0001
0010
0100
1000
,  // measure 31
0100
0010
0001
0010
,  // measure 32
0100
1000
0100
0001
,  // measure 33
0100
0000
0000
0000
,  // measure 34
1000
0100
0001
0100
,  // measure 35
1000
0010
0001
0010
,  // measure 36
1000
0100
0010
0001
,  // measure 37
0010
0100
1000
0100
,  // measure 38
0110
0000
1000
0000
,  // measure 39
0100
1000
0100
0000
,  // measure 40
0001
0100
0001
0010
,  // measure 41
0001
1000
0001
1000
,  // measure 42
0000
0000
0100
1000
,  // measure 43
0100
0010
0100
0000
,  // measure 44
0001
1000
0001
0010
,  // measure 45
0001
0100
0001
1000
,  // measure 46
0000
0000
1000
0100
,  // measure 47
1000
0100
0010
0000
,  // measure 48
0001
1000
0001
1000
,  // measure 49
0100
0010
0001
0000
,  // measure 50
1000
0100
1000
0100
,  // measure 51
0010
0001
0010
0000
,  // measure 52
1000
0100
0010
0001
,  // measure 53
1000
0100
0010
0100
,  // measure 54
0000
0000
0001
1000
,  // measure 55
0001
0010
0001
0000
,  // measure 56
1000
0100
1000
0100
,  // measure 57
0010
0001
0010
0001
,  // measure 58
0000
0000
1000
0100
,  // measure 59
1000
0100
0010
0000
,  // measure 60
0001
1000
0001
1000
,  // measure 61
0010
1000
0010
1000
,  // measure 62
0000
0000
0100
1000
,  // measure 63
0100
0001
0100
1000
,  // measure 64
0010
0001
0010
1000
,  // measure 65
0100
0010
0100
0010
,  // measure 66
0100
1000
0100
1000
,  // measure 67
0100
0010
0001
0010
,  // measure 68
0100
0010
0100
1000
,  // measure 69
0001
1000
0100
0000
,  // measure 70
1000
0010
1000
0100
,  // measure 71
1000
0001
1000
0010
,  // measure 72
1000
0100
0001
0000
,  // measure 73
1000
0100
0001
0100
,  // measure 74
1000
0010
0001
0010
,  // measure 75
1000
0100
0001
0100
,  // measure 76
1000
0100
0001
0100
,  // measure 77
1000
0010
1000
0010
,  // measure 78
0100
0000
0000
0000
;

//---------------dance-single - Copied from----------------
#NOTES:
     dance-single:
     Copied from:
     Beginner:
     2:
     0.168,0.246,0.040,0.000,0.000: // measure 1
0100
0000
0000
0000
,  // measure 2
1000
0000
0001
0000
,  // measure 3
1000
0000
0000
0000
0000
0100
0000
0000
,  // measure 4
0010
0000
0000
0000
0000
1000
0000
0000
,  // measure 5
0001
0000
1000
0000
,  // measure 6
0100
0000
0100
0000
,  // measure 7
0001
0000
1000
0000
,  // measure 8
1001
0000
1100
0000
,  // measure 9
1010
0000
1100
0000
,  // measure 10
1000
0000
0001
0000
,  // measure 11
1000
0000
0100
0000
,  // measure 12
0010
0000
1000
0000
,  // measure 13
0100
0000
0100
0000
,  // measure 14
0100
0000
0010
0000
,  // measure 15
0010
0000
0100
0000
,  // measure 16
1000
0000
0001
0000
,  // measure 17
1000
0000
0000
0000
,  // measure 18
0100
0000
0000
0000
,  // measure 19
0100
0000
0000
0000
,  // measure 20
0010
0000
0000
0000
,  // measure 21
1000
0000
0000
0000
,  // measure 22
0001
0000
0000
0000
,  // measure 23
0100
0000
0000
0000
,  // measure 24
0010
0000
0000
0000
,  // measure 25
1000
0000
0000
0000
,  // measure 26
0100
0000
0000
0000
,  // measure 27
0010
0000
1000
0000
,  // measure 28
0010
0000
0000
0000
,  // measure 29
0100
0000
0001
0000
,  // measure 30
0100
0000
0010
0000
,  // measure 31
0100
0000
0000
0000
,  // measure 32
0001
0000
1000
0000
,  // measure 33
0010
0000
0100
0000
,  // measure 34
1000
0000
0001
0000
,  // measure 35
1000
0000
0100
0000
,  // measure 36
0010
0000
0100
0000
,  // measure 37
1000
0000
0001
0000
,  // measure 38
0010
0000
0100
0000
,  // measure 39
0001
0000
1000
0000
,  // measure 40
0100
0000
0010
0000
,  // measure 41
0100
0000
1000
0000
,  // measure 42
0001
0000
1000
0000
,  // measure 43
0100
0000
0010
0000
,  // measure 44
0100
0000
0001
0000
,  // measure 45
1000
0000
0100
0000
,  // measure 46
0010
0000
0010
0000
,  // measure 47
0100
0000
0100
0000
,  // measure 48
0001
0000
0001
0000
,  // measure 49
1000
0000
1000
0000
,  // measure 50
0100
0000
0100
0000
,  // measure 51
0010
0000
0010
0000
,  // measure 52
0100
0000
0100
0000
,  // measure 53
0100
0000
0001
0000
,  // measure 54
0001
0000
1000
0000
,  // measure 55
1000
0000
0100
0000
,  // measure 56
0010
0000
0100
0000
,  // measure 57
0010
0000
0100
0000
,  // measure 58
0001
0000
1000
0000
,  // measure 59
0100
0000
0001
0000
,  // measure 60
0010
0000
0100
0000
,  // measure 61
1000
0000
0001
0000
,  // measure 62
1001
0000
0100
0000
,  // measure 63
0010
0000
0100
0000
,  // measure 64
0010
0000
0001
0000
,  // measure 65
1000
0000
0100
0000
,  // measure 66
0001
0000
0100
0000
,  // measure 67
1000
0000
0010
0000
,  // measure 68
0001
0000
0010
0000
,  // measure 69
1000
0000
0100
0000
,  // measure 70
1000
0000
0001
0000
,  // measure 71
1000
0000
0001
0000
,  // measure 72
0010
0000
0100
0000
,  // measure 73
1000
0000
0001
0000
,  // measure 74
0010
0000
0100
0000
,  // measure 75
1000
0000
0100
0000
,  // measure 76
0001
0000
0100
0000
,  // measure 77
1000
0000
0010
0000
,  // measure 78
0100
0000
0000
0000
;
