#TITLE:Walk Away;
#SUBTITLE:;
#ARTIST:Kelly Clarkson;
#TITLETRANSLIT:;
#SUBTITLETRANSLIT:;
#ARTISTTRANSLIT:;
#GENRE:;
#CREDIT:N. Muriel;
#MENUCOLOR:;
#METERTYPE:DDR X;
#BANNER:[Qualifier] - Walk Away.png;
#BACKGROUND:[Qualifier] - Walk Away-bg.png;
#LYRICSPATH:;
#CDTITLE:;
#MUSIC:[Qualifier] - Walk Away.mp3;
#OFFSET:0.000;
#SAMPLESTART:28.700;
#SAMPLELENGTH:15.000;
#SELECTABLE:YES;
#LISTSORT:;
#DISPLAYBPM:116.000;
#BPMS:0.000=116.030;
#STOPS:;
#BGCHANGES:-8.250=[Qualifier] - Walk Away.avi=1.000=0=0=1,
99999=-nosongbg-=1.000=0=0=0 // don't automatically add -songbackground-
;
#ATTACKS:;

//---------------dance-single - ----------------
#NOTES:
     dance-single:
     :
     Medium:
     6:
     0.333,0.382,0.255,0.016,0.000:
1000
0000
0000
1000
0000
0000
0000
0000
,
0001
0000
0000
0001
0000
0000
0000
0000
,
0010
0000
0100
0000
0010
0000
0100
0010
,
1000
0000
0100
0000
1000
0000
0100
0001
,
0010
0000
0001
0000
0010
0000
0001
0100
,
1000
0001
1000
0001
,
0100
0000
0001
0000
0100
0000
0001
0010
,
0100
0000
1000
0000
0100
0000
1000
0010
,
0100
0010
0001
1000
,
1001
0000
0000
0000
0000
1000
0001
0000
,
0001
0011
0001
0101
,
0001
1001
0001
0001
,
1000
1010
1000
1100
,
1000
1001
1000
1001
,
1000
0010
1000
0000
0100
0000
0001
0000
,
0001
0010
0001
0000
0100
0000
1000
0000
,
0010
1000
0010
0100
0001
0000
1000
0000
,
1001
0000
0000
0110
,
0001
0010
0001
0000
0100
0000
1000
0000
,
0010
1000
0010
0000
0100
0000
0001
0000
,
0010
0001
0010
0100
1000
0000
0001
0000
,
1001
0000
0000
0000
1000
0010
0100
0000
,
0001
0001
1000
1000
0000
0000
0010
0000
,
0020
0000
0000
0030
,
1000
1000
0001
0001
0000
0000
0010
0000
,
0020
0000
0000
0030
,
1000
0000
0000
1100
0000
0000
0001
0100
,
0101
0000
0000
0001
0000
0000
1100
0100
,
1000
0000
0000
1100
0000
0000
0100
0001
,
0101
0000
0000
0001
0000
0000
1000
0000
,
0100
0000
0010
0000
0001
0010
0001
0000
,
0100
0000
0010
0000
0001
0100
0001
0000
,
0100
0000
0010
0000
1000
0010
1000
0000
,
0100
0000
0010
0000
1000
0100
1000
0000
,
0001
0000
0000
0001
0000
0100
0000
0000
,
1000
0000
0000
1000
0000
0100
0000
0000
,
0010
0000
0000
0010
0000
0100
0000
0000
,
0110
0000
0000
1001
0000
0000
0000
0000
,
1000
0000
0001
0000
0101
0101
0101
0000
,
0001
0000
1000
0000
1000
1100
1100
0000
,
0100
0000
0010
0000
0100
0110
0110
0000
,
0001
0000
0001
0000
0001
0010
0100
1000
,
0001
0100
0001
0100
0001
0000
1000
0000
,
1000
0100
1000
0100
1000
0000
0010
0000
,
0010
0100
0010
0100
0001
0000
0001
0000
,
0010
0100
0010
0100
1000
0000
1000
0000
,
0001
0100
1000
0100
0001
0000
0000
0000
,
1000
0010
0001
0010
1000
0000
0000
0000
,
0001
1000
0001
1000
0010
0000
0010
0000
,
0110
0000
0000
1000
0100
0010
0001
0000
,
1000
0000
0000
0101
0000
0000
0000
0000
,
0001
0001
0000
1100
0000
0000
0000
0000
,
1000
0000
0000
0011
0000
0000
0000
0000
,
0001
0001
0000
1010
0000
0000
0000
0000
,
0100
0000
0010
0000
0001
1000
0001
0000
,
0100
0000
0010
0000
1000
0001
1000
0000
,
0100
0000
1000
0000
0001
0010
0001
0000
,
0100
0000
0001
0000
1000
0010
1000
0010
,
0110
0000
0000
0000
;

//---------------dance-single - ----------------
#NOTES:
     dance-single:
     :
     Hard:
     8:
     0.517,0.501,0.428,0.090,0.082:
1100
0000
0000
1100
0000
0000
0000
0000
,
0101
0101
0000
0101
0000
0000
0000
0000
,
1000
0010
1000
0010
0100
0001
0010
0100
,
1000
0010
1000
0010
0100
0001
0010
0100
,
1000
0001
1000
0001
0100
0010
1000
0001
,
0000
1000
0001
1000
0000
2000
0000
0000
,
3001
0010
0001
0010
0100
1000
0010
0100
,
0001
0010
0001
0010
0100
1000
0010
0100
,
0001
1000
0001
1000
0100
0010
0001
1000
,
0000
0000
0001
1000
0000
1000
0001
0000
,
1000
0100
1000
0100
0010
0001
0100
0010
,
1000
0100
1000
0100
0010
0001
0100
0010
,
1000
0001
1000
0001
0010
0100
1000
0001
,
0000
0000
0000
0002
0000
2000
3003
1001
,
1000
0100
1000
0001
0100
0000
0100
0001
,
0000
0001
0010
0100
1000
0000
1000
0010
,
0000
0000
0010
0000
0010
0000
0100
0000
0001
0000
0010
0000
0100
1000
0100
0000
,
0010
0000
0010
0000
0100
0000
1000
0000
0000
0000
0001
0100
0001
0000
0001
1000
,
0100
1000
0010
0100
0001
0000
0100
0001
,
0000
0000
0100
0000
0100
0000
0001
0000
0010
0000
0100
0000
1000
0010
1000
0000
,
0000
0000
0011
0000
0000
0000
1010
0000
0000
0000
0011
0000
0000
0000
1000
0010
,
2000
0000
3001
0000
0000
0000
0001
0000
0001
0000
0010
0000
0100
0000
0100
0010
,
0100
0010
0010
0110
0000
0000
0011
0011
,
0010
0001
0010
0100
0000
0000
0000
0000
,
0100
0100
0110
0110
0000
0000
1010
1010
,
0010
0000
1000
0000
0010
0000
0100
0000
0000
0000
0000
0001
0100
0001
0100
0000
,
0001
0100
0001
0100
0010
1000
0100
0010
,
0001
0100
0001
0100
0010
1000
0100
0010
,
0001
1000
0001
1000
0010
0100
0001
1000
,
0000
0000
0001
1000
0000
0002
0000
0000
,
1003
0100
1000
0100
0010
0001
0100
0010
,
1000
0100
1000
0100
0010
0001
0100
0010
,
1000
0001
1000
0001
0010
0100
1000
0001
,
0000
0000
1000
0001
0000
0000
0010
0001
,
0011
0000
0100
1100
0000
1001
0000
0101
,
0000
1001
0000
1010
0000
0110
0000
0011
,
0000
0110
0000
1010
0000
0110
0000
0110
,
0000
0000
2002
0000
0000
0000
0000
0000
3003
0000
1000
0001
1000
0000
0001
0000
,
0001
0010
0001
0010
0011
0011
0101
0000
,
1000
0010
1000
0010
1010
1010
1100
0000
,
1000
0001
0101
0000
0001
1000
1100
0000
,
0011
0000
0000
0000
0000
0000
2000
0000
0000
0000
3001
0100
0001
0100
0001
0100
,
0001
0010
0100
1000
0010
0000
1000
0010
,
0000
1000
0010
0100
0010
0000
0100
0001
,
0000
0000
0100
0000
0001
0000
0100
0000
0101
0000
0101
0000
1001
0000
1000
0100
,
0010
0000
0010
0000
0100
0000
0001
0000
0000
0100
0001
0000
0100
0001
0100
0000
,
0001
0100
1000
0100
0001
0000
0001
1000
,
0000
1000
0010
0000
1000
0010
0100
0000
,
1000
0000
1010
0000
0000
0000
0011
0000
0000
0000
1010
0000
0000
0000
0001
0010
,
0002
0000
1003
0000
0000
0000
1000
0000
1000
0000
0100
0000
0001
0000
0001
0100
,
1000
0100
1000
0010
1000
0100
0001
0002
,
1000
0100
0010
1000
0000
0000
0003
0000
,
1001
0000
1100
1100
0000
0001
0100
0002
,
0000
0000
0100
0000
0000
0000
1000
0000
1000
0000
0010
0000
0013
0001
0010
0000
,
1100
0000
0000
0000
0101
0000
0000
0000
1000
0000
0010
0000
0001
1000
0000
0000
,
0000
0000
0000
0000
0001
0000
0000
0010
0000
0000
0100
0000
0010
0000
0100
0000
,
1000
0010
0001
0010
0000
0011
0011
0000
,
1000
0010
0001
0010
0000
1000
0100
0001
,
1001
0000
0000
0000
;

//---------------dance-single - ----------------
#NOTES:
     dance-single:
     :
     Easy:
     4:
     0.224,0.239,0.189,0.016,0.000:
0000
0000
0000
0000
,
0000
0000
0000
0000
,
0000
1000
1000
0010
,
0010
1000
1000
0001
,
0001
1000
1000
0010
,
0010
0000
0000
0100
0000
0000
0000
0000
,
0000
0001
0001
0010
,
0010
0001
0001
1000
,
1000
0001
0001
0010
,
0010
0000
0000
0100
,
1000
0100
1000
0100
,
0010
0100
1000
0100
,
0010
0100
0010
0100
,
1000
0100
0010
0001
,
1001
0000
0101
0000
,
1001
0000
1100
0000
,
1000
0010
0100
1000
,
0100
0000
0001
0000
,
0011
0000
1001
0000
,
1010
0000
1100
0000
,
0000
0001
0001
0010
,
0010
0000
0100
0000
,
0110
0000
0000
0000
,
1000
0100
0001
0000
,
0110
0000
0000
0000
,
0001
0100
1000
0000
,
0000
1000
1000
0010
,
0010
1000
1000
0001
,
0001
1000
1000
0010
,
0010
0000
0000
0100
0000
0000
0000
0000
,
0000
0001
0001
0010
,
0010
0001
0001
1000
,
1000
0001
0001
0010
,
0010
0000
0000
0100
0000
0000
0100
0000
,
1100
0000
0011
0000
,
0101
0000
1010
0000
,
1001
0000
0110
0000
,
2002
0000
0000
3003
,
1000
0100
0010
0010
,
1000
0100
0010
0010
,
0001
0100
0010
0010
,
0110
0000
1001
0000
,
1000
0010
1000
0100
,
0010
0001
0010
0100
,
1000
0001
1000
0100
,
0010
0100
0010
0001
,
1000
0001
1000
0100
,
0010
0100
0010
1000
,
0010
0001
0100
1000
,
0010
0000
0110
0000
,
1001
0000
0000
0000
,
1000
1000
1000
0000
,
1001
0000
0000
0000
,
0001
0001
0001
0000
,
0010
0000
0010
0000
,
0100
0000
0100
0000
,
0010
0100
0010
0000
,
0100
0010
0100
0000
,
0110
0000
0000
0000
;

//---------------dance-single - ----------------
#NOTES:
     dance-single:
     :
     Beginner:
     2:
     0.113,0.167,0.099,0.099,0.000: // measure 1
0000
0000
0000
0000
,  // measure 2
0000
0000
0000
0000
,  // measure 3
1000
0000
0000
0000
,  // measure 4
0001
0000
0000
0000
,  // measure 5
0010
0000
0001
0000
,  // measure 6
0100
0000
0100
0000
,  // measure 7
1000
0000
0000
0000
,  // measure 8
0001
0000
0000
0000
,  // measure 9
0010
0000
1000
0000
,  // measure 10
0100
0000
0100
0000
,  // measure 11
0001
0000
0000
0000
,  // measure 12
1001
0000
0000
0000
,  // measure 13
1000
0000
0000
0000
,  // measure 14
1001
0000
0000
0000
,  // measure 15
2000
0000
0000
3000
,  // measure 16
0002
0000
0000
0003
,  // measure 17
0020
0000
0000
0000
,  // measure 18
0130
0000
0000
0000
,  // measure 19
0002
0000
0000
0003
,  // measure 20
2000
0000
0000
3000
,  // measure 21
0020
0000
0000
0000
,  // measure 22
0130
0000
0000
0000
,  // measure 23
0110
0000
0000
0000
,  // measure 24
1000
0100
0001
0000
,  // measure 25
0110
0000
0000
0000
,  // measure 26
0001
0100
1000
0000
,  // measure 27
0001
0000
0000
0000
,  // measure 28
0010
0000
0000
0000
,  // measure 29
0100
0000
0010
0000
,  // measure 30
0001
0000
0001
0000
,  // measure 31
1000
0000
0000
0000
,  // measure 32
0010
0000
0000
0000
,  // measure 33
0100
0000
0010
0000
,  // measure 34
1000
0000
1000
0000
,  // measure 35
0001
0000
0000
0000
,  // measure 36
1001
0000
0000
0000
,  // measure 37
1000
0000
0000
0000
,  // measure 38
1001
0000
0000
0000
,  // measure 39
0010
0000
0010
0000
,  // measure 40
0110
0000
0100
0000
,  // measure 41
0110
0000
0100
0000
,  // measure 42
0110
0000
0000
0000
,  // measure 43
2000
0000
0000
3000
,  // measure 44
0002
0000
0000
0003
,  // measure 45
0020
0000
0000
0000
,  // measure 46
0130
0000
0000
0000
,  // measure 47
0002
0000
0000
0003
,  // measure 48
2000
0000
0000
3000
,  // measure 49
0020
0000
0000
0000
,  // measure 50
0130
0000
0000
0000
,  // measure 51
1001
0000
0000
0000
,  // measure 52
0000
0000
0000
0000
,  // measure 53
0110
0000
0000
0000
,  // measure 54
0000
0000
1000
1000
,  // measure 55
0001
0000
0000
0000
,  // measure 56
0000
0000
0001
0001
,  // measure 57
1000
0000
0000
0000
,  // measure 58
0000
0000
0000
0000
,  // measure 59
0110
0000
0000
0000
;
