#TITLE:She's So;
#SUBTITLE:;
#ARTIST:m-flo Loves 2NE1;
#TITLETRANSLIT:;
#SUBTITLETRANSLIT:;
#ARTISTTRANSLIT:;
#GENRE:;
#CREDIT:;
#MENUCOLOR:;
#METERTYPE:DDR;
#BANNER:[Qualifier] - She So.png;
#BACKGROUND:[Qualifier] - She So-bg.png;
#LYRICSPATH:;
#CDTITLE:;
#MUSIC:[Qualifier] - She So.ogg;
#OFFSET:-0.081;
#SAMPLESTART:46.956;
#SAMPLELENGTH:12.000;
#SELECTABLE:YES;
#LISTSORT:;
#BPMS:0.000=128.000;
#STOPS:;
#BGCHANGES:0.000=[Qualifier] - She So.avi=1.000=1=0=1,
304.000=[Qualifier] - She So-bg.png=1.000=0=0=1,
99999=-nosongbg-=1.000=0=0=0 // don't automatically add -songbackground-
;
#ATTACKS:;

//---------------dance-single - ----------------
#NOTES:
     dance-single:
     :
     Beginner:
     2:
     0.180,0.237,0.146,0.063,0.000:
0000
0000
0000
0000
,
0000
0000
0000
0000
,
0000
0000
0000
0000
,
0000
0000
0000
0000
,
1000
0000
0100
0000
,
0010
0000
0001
0000
,
1000
0000
0001
0000
,
0000
0000
0000
0000
,
0000
1000
0000
0000
,
0000
0001
0000
0000
,
0000
1000
0000
0000
,
0000
0001
0000
0000
,
0000
0001
0000
0000
,
0000
1000
0000
0000
,
0000
0001
0000
0000
,
0000
1000
0000
0000
,
0000
1000
0001
1000
,
0001
1000
0100
1000
,
0000
0001
1000
0001
,
1000
0001
0100
0001
,
0000
1001
0000
1000
,
0000
1001
0000
0001
,
0000
2000
0000
0002
,
0000
0000
0000
0000
,
3003
0000
0000
0000
,
0000
0000
0000
0000
,
0000
0000
0000
0000
,
0000
0000
0000
0000
,
0000
1000
0100
0010
,
0001
1000
0100
0010
,
0001
2000
0000
0000
,
3001
0000
0000
1000
,
0000
0010
0100
0010
,
0000
1001
0000
0100
,
0010
0100
0000
1001
,
0000
0010
0100
0010
,
0000
0110
0000
0000
,
0000
0101
0000
0000
,
0000
1100
0000
0000
,
0000
1001
0000
0000
,
0000
2000
0000
0001
,
0000
3002
0000
1000
,
0000
1003
0000
0100
,
0000
1000
0000
1000
,
0000
0002
0000
1000
,
0000
2003
0000
0001
,
0000
3001
0000
0100
,
0000
0001
0000
0001
,
0000
1000
0100
0010
,
0001
1000
0100
0010
,
0002
1003
0001
0100
,
0001
1000
0100
1000
,
0000
0100
0010
0000
,
1001
0000
0010
0100
,
0000
1000
0100
1000
,
0001
0100
0001
1000
,
0000
1000
0100
0010
,
0001
1000
0100
0010
,
0001
1000
0100
0010
,
0001
1001
0000
0110
,
0000
0001
0010
0100
,
1000
0001
0010
0100
,
1000
0002
0000
0000
,
1003
0000
0000
0001
,
0000
0010
0100
0010
,
0000
1001
0000
0100
,
0010
0100
0000
1001
,
0000
0010
0100
0010
,
0000
0110
0000
0000
,
0000
0101
0000
0000
,
0000
1100
0000
0000
,
0000
1001
0000
0000
,
0000
0001
0000
0100
,
0000
0010
0000
1000
,
0000
1001
0000
1001
,
0000
1100
0000
0101
;

//---------------dance-single - ----------------
#NOTES:
     dance-single:
     :
     Easy:
     4:
     0.259,0.343,0.327,0.063,0.000:
0000
0000
0000
0000
,
0000
0000
0000
0000
,
0000
0000
0000
0000
,
0000
0000
0000
0000
,
0000
1000
0000
0100
,
0000
0010
0000
0001
,
0000
1000
0000
0001
,
0000
1001
1001
1001
,
1001
1000
0001
1000
,
0001
0100
0001
0100
,
0001
1000
0100
1000
,
0001
1001
1001
1001
,
1001
0001
0010
0100
,
1000
0001
0010
0100
,
1000
0001
1000
0001
,
1000
1001
1001
1001
,
1001
1000
0001
1000
,
0001
1000
0100
1000
,
0000
0001
1000
0001
,
1000
0001
0100
0001
,
0000
0110
0000
1100
,
0000
1001
0000
0101
,
0000
2000
0000
0002
,
0000
0000
0000
0000
,
3003
0000
0000
0000
,
0000
0000
0000
0000
,
0000
0000
0000
0000
,
0000
0000
0000
0000
,
0000
1000
0100
0010
,
0001
1000
0100
0010
,
0001
2000
0001
0000
,
3001
0010
0100
1000
,
0000
0010
0100
0010
,
0000
1001
0000
0100
,
0010
0100
0000
1001
,
0000
0010
0100
0010
,
0000
1001
0000
1100
,
0000
0101
0000
0110
,
0000
1100
0000
0101
,
0000
1001
0000
0110
,
0000
2000
0000
0001
,
0000
3002
0000
1000
,
0000
1003
0010
0100
,
0001
1000
0001
1000
,
0000
0002
0000
1000
,
0000
2003
0000
0001
,
0000
3001
0010
0100
,
1000
0001
1000
0001
,
0000
1000
0100
0010
,
0001
1000
0100
0010
,
0002
1003
0001
0100
,
0001
1000
0100
1000
,
0001
0100
0010
0110
,
1001
0000
0010
0100
,
1001
1000
0100
1000
,
0001
0100
0001
1000
,
0001
1000
0100
0010
,
0001
1000
0100
0010
,
0001
1000
0100
0010
,
0001
1001
0000
0110
,
0000
0001
0010
0100
,
1000
0001
0010
0100
,
1000
0002
1000
1000
,
1003
0000
0000
0001
,
0000
0010
0100
0010
,
0110
0000
0110
0100
,
0010
0100
0110
0000
,
0110
0010
0100
0010
,
0000
1100
0000
0101
,
0000
1100
0000
0101
,
0000
1001
0000
0110
,
0000
1001
0000
1001
,
0000
0001
0000
0100
,
0000
0010
0000
1000
,
0000
1001
0000
1001
,
0000
1100
0000
0101
;

//---------------dance-single - ----------------
#NOTES:
     dance-single:
     :
     Medium:
     7:
     0.404,0.476,0.279,0.146,0.080:
0000
0000
0000
0000
,
0000
0000
0000
0000
,
0000
0000
0000
0000
,
0000
0000
0000
0000
,
0000
1000
0000
0100
,
0000
0010
0000
0001
,
0000
1000
0000
0001
,
0000
1001
0101
1100
,
1001
1000
0001
1000
,
0001
0100
0001
0100
,
0001
1000
0100
1000
,
0001
1001
0101
1100
,
1001
0001
0010
0100
,
1000
0001
0010
0100
,
1000
0001
1000
0001
,
1000
1001
1001
1001
,
1001
1000
0001
1000
,
0001
1000
0100
1000
,
0000
0001
1000
0001
,
1000
0001
0100
0001
,
0000
0110
0000
1100
,
0000
1001
0000
0101
,
0000
0000
1000
0001
0010
0100
1000
0010
,
0100
0001
0010
0000
1000
0000
2002
0000
,
3003
0000
0000
0000
,
0000
0000
0000
0000
,
0000
0000
0000
0000
,
0000
0000
0000
0000
,
0000
0000
0001
1000
0000
1000
0001
0000
0001
0100
0000
0100
,
0010
0000
0010
1000
0000
1000
0010
0000
0010
0100
0000
0100
,
0001
0000
0001
0100
0000
0100
0010
0000
0010
1000
0000
1000
,
0001
0000
0001
1000
0000
1000
0100
0000
0100
0010
0000
0000
,
0001
0000
1000
0100
0010
0001
0010
0100
,
2000
0100
0000
0001
0000
3100
0000
0010
,
0100
1000
0002
0000
1000
0000
0100
0000
,
1003
0001
1000
0100
1000
0001
0100
0001
,
0000
1001
0000
1001
0000
0101
0000
0101
,
0000
1001
0000
1001
0000
1100
0000
1100
,
0000
0001
0000
1000
0010
0100
0000
0001
,
0100
0010
0000
1000
0010
0100
0000
0000
,
0000
0000
2000
0000
0001
0000
3100
1000
,
0100
0010
0001
0000
0100
0000
0001
0000
,
1000
0001
0020
0000
0031
0000
1000
1000
,
0000
0000
0100
0100
0000
0000
0001
0001
,
0000
0000
0002
0000
1000
0000
0013
0001
,
0010
0100
1000
0000
0010
0000
1000
0000
,
0001
1000
0200
0000
0310
0000
0001
0001
,
0000
0000
0100
0100
0000
0000
1000
1000
,
0000
0000
1000
0002
1003
0001
0100
0001
,
1000
0000
0001
2000
3001
1000
0100
1000
,
0001
0000
0010
2000
3010
0100
0001
0100
,
0001
1000
0100
0010
0001
0010
0002
1003
,
0100
0000
1000
0002
0103
0010
0100
0001
,
0010
0100
1000
0001
0100
0010
0100
0001
,
0010
0000
0100
2000
3100
0010
0001
0100
,
0010
1000
0100
0010
0100
1000
0001
0100
,
0001
0100
0010
2000
3100
1000
0100
1000
,
0002
0100
0000
1000
0000
0103
0000
0001
,
0010
0100
2000
0000
0100
0000
0001
0000
,
3100
0002
0100
1000
,
0103
0000
0001
0100
0000
0100
0010
0000
0010
1000
0000
1000
,
0100
0000
0100
0010
0000
0010
0001
0000
0001
0010
0000
0010
,
0100
2000
0001
0001
,
3001
1100
0101
1100
,
0000
0000
1000
0100
0010
0001
0010
0100
,
2000
0100
0000
0001
0000
3100
0000
0010
,
0100
1000
0002
0000
1000
0000
0100
0000
,
1003
0001
1000
0100
1000
0001
0100
0001
,
0000
1001
0000
1001
0000
0101
0000
0101
,
0000
1001
0000
1001
0000
1100
0000
1100
,
0000
0001
0000
1000
0010
0100
0000
0001
,
0100
0010
0000
1000
0010
0100
0001
0000
,
0000
0001
0010
0100
,
1000
0001
0010
0100
,
1000
0001
1000
0001
,
1000
1001
1001
1001
,
1001
0000
0000
0000
;

//---------------dance-single - Tyma----------------
#NOTES:
     dance-single:
     Tyma:
     Hard:
     8:
     0.464,0.476,0.279,0.286,0.000: // measure 1
0000
0000
0000
0000
,  // measure 2
0000
0000
0000
0000
,  // measure 3
0000
0000
0000
0000
,  // measure 4
0000
0000
0000
0000
,  // measure 5
0000
1000
0100
0010
,  // measure 6
0001
0010
0100
1000
,  // measure 7
0001
0000
2000
0000
3002
0000
0103
0010
,  // measure 8
1000
0100
0010
0000
1100
0000
0101
0000
,  // measure 9
1001
0001
0010
0100
,  // measure 10
1000
0100
0010
0001
,  // measure 11
1000
0000
0002
0000
2003
0000
3010
0100
,  // measure 12
0001
0010
0100
0000
0110
0000
1001
0000
,  // measure 13
1100
0000
0001
1000
0200
0000
1300
0001
,  // measure 14
0200
0000
1300
0100
0002
0000
1003
0100
,  // measure 15
0010
0100
2000
0000
3002
0000
0103
0010
,  // measure 16
1000
0100
1000
0000
0101
0000
1100
0000
,  // measure 17
1000
0000
0010
0100
0001
0010
0001
0000
,  // measure 18
1001
0000
1000
0010
0001
0010
1000
0000
,  // measure 19
0101
0000
1000
0100
0001
0100
1000
0010
,  // measure 20
1000
0000
0101
0000
0001
0100
1000
0100
,  // measure 21
0001
0010
1001
0100
,  // measure 22
0011
0100
1001
0100
,  // measure 23
1010
0000
1000
0001
0010
0100
1000
0010
,  // measure 24
0100
0001
0010
0000
1000
0000
2002
0000
,  // measure 25
3003
0000
0000
0000
,  // measure 26
0000
0000
0000
0000
,  // measure 27
0000
0000
0000
0000
,  // measure 28
0000
0000
0000
0000
,  // measure 29
0000
0000
0001
1000
0010
2000
0000
3200
,  // measure 30
0000
0320
0000
0032
0000
2003
0000
3100
,  // measure 31
0001
0100
1000
0010
0001
0010
1000
0100
,  // measure 32
0001
0200
0000
2300
0000
3010
0100
0001
,  // measure 33
0100
0010
1000
0100
0010
0001
0010
0100
,  // measure 34
2000
0100
0000
0001
0000
3100
0000
0010
,  // measure 35
0001
1000
0002
0000
1000
0000
0100
0000
,  // measure 36
1003
0100
0010
0100
0010
0001
0100
0010
,  // measure 37
0000
1001
0000
1100
0000
0101
0000
1001
,  // measure 38
0000
0101
0000
1100
0000
0101
0000
1100
,  // measure 39
0000
0101
0000
1000
0100
0001
0000
1000
,  // measure 40
0100
0001
0000
1000
0100
0001
0000
0000
,  // measure 41
0000
0000
2000
0000
0001
0000
3100
1000
,  // measure 42
0100
0010
0001
0000
0100
0000
1000
0000
,  // measure 43
0100
0001
0020
0000
0031
0000
1000
1100
,  // measure 44
0000
0000
0010
0100
0000
0000
0001
0101
,  // measure 45
0000
0000
0002
0000
1000
0000
0013
0001
,  // measure 46
0010
0100
1000
0000
0010
0000
1000
0000
,  // measure 47
0001
1000
0200
0000
0310
0000
0001
0011
,  // measure 48
0000
0000
0010
0100
0000
0000
1000
1010
,  // measure 49
0000
0000
1000
0002
1003
0001
0100
0001
,  // measure 50
1000
0000
0100
1000
0100
0010
0100
0001
,  // measure 51
0100
0000
0010
0002
0013
0100
1000
0100
,  // measure 52
0010
0001
1000
0100
0001
0100
2000
0001
,  // measure 53
3100
0000
1000
0002
0103
0010
0100
0001
,  // measure 54
0010
0100
1000
0001
0100
1000
0100
0001
,  // measure 55
0010
0000
0100
2000
3100
0010
0001
0100
,  // measure 56
0010
1000
0100
0001
0100
1000
0001
0100
,  // measure 57
0001
0100
0010
2000
3100
0001
0100
1000
,  // measure 58
0002
0100
0000
1000
0000
0103
0000
0001
,  // measure 59
0010
0100
2000
0000
0100
0000
0001
0000
,  // measure 60
3100
0010
0001
0100
0010
0100
0001
0010
,  // measure 61
0100
0000
1000
0100
1000
0000
0001
0100
,  // measure 62
0001
0000
0010
0100
1000
0000
0010
0100
,  // measure 63
0001
0010
0001
0100
0010
1000
0010
0100
,  // measure 64
0001
2000
0000
3002
0000
0013
0001
1000
,  // measure 65
0100
0010
0001
0010
0100
1000
0100
0010
,  // measure 66
0002
0100
0000
1000
0000
0103
0000
0010
,  // measure 67
1000
0001
2000
0000
0001
0000
0100
0000
,  // measure 68
3001
0100
0010
0100
0010
1000
0100
0010
,  // measure 69
0000
1001
0000
1100
0000
0101
0000
1001
,  // measure 70
0000
0101
0000
1100
0000
0101
0000
1100
,  // measure 71
0000
0001
0000
0001
0100
1000
0000
0001
,  // measure 72
0100
1000
0000
0001
0100
1000
0000
0000
,  // measure 73
0000
0000
1000
0001
0200
0000
0301
1000
,  // measure 74
0200
0000
0301
0100
2000
0000
3001
0100
,  // measure 75
0010
0100
0002
0000
2003
0000
3100
0010
,  // measure 76
0001
0100
0001
0000
1100
0000
0101
0000
,  // measure 77
1001
0000
0000
0000
;
