#TITLE:SCREW DRIVER;
#SUBTITLE:;
#ARTIST:96;
#TITLETRANSLIT:;
#SUBTITLETRANSLIT:;
#ARTISTTRANSLIT:;
#GENRE:;
#CREDIT:;
#MENUCOLOR:;
#METERTYPE:DDR;
#BANNER:SCREW DRIVER.png;
#BACKGROUND:SCREW DRIVER-bg.png;
#LYRICSPATH:;
#CDTITLE:;
#MUSIC:SCREW DRIVER.mp3;
#OFFSET:-0.583;
#SAMPLESTART:43.830;
#SAMPLELENGTH:12.000;
#SELECTABLE:YES;
#LISTSORT:;
#BPMS:0.000=188.000;
#STOPS:;
#BGCHANGES:;
#ATTACKS:;

//---------------dance-single - ----------------
#NOTES:
     dance-single:
     :
     Hard:
     9:
     0.709,0.686,0.328,0.300,0.061: // measure 1
0000
0000
0000
0000
,  // measure 2
0000
0000
0000
0000
,  // measure 3
0000
0000
0000
0000
,  // measure 4
0000
0000
0000
0000
,  // measure 5
0110
0000
0100
0000
0001
0000
0010
0100
,  // measure 6
0000
1000
0000
0010
0000
1000
0000
1001
,  // measure 7
1001
0000
0001
0010
0100
1000
0010
1000
,  // measure 8
0100
0010
0100
0010
0001
0100
0110
0000
,  // measure 9
1001
0000
0001
0100
0010
0000
0100
0001
,  // measure 10
0000
0010
0000
0100
0000
1000
0010
1000
,  // measure 11
0001
0000
0100
0001
0010
0100
0000
0010
,  // measure 12
0000
0001
0000
1000
0000
0010
1000
0100
,  // measure 13
0010
0000
0001
0100
0010
0000
0100
0001
,  // measure 14
0000
1000
0000
0100
0000
1000
0010
0100
,  // measure 15
0001
0000
0100
0001
0010
0100
0000
0010
,  // measure 16
0000
0100
0000
1000
0000
0001
0010
0100
,  // measure 17
1100
0000
0000
0110
0000
0000
0011
0000
,  // measure 18
0001
0100
0010
1000
0001
0011
0000
0000
,  // measure 19
1000
0010
0100
0001
0100
0010
0000
0200
,  // measure 20
0000
0301
0010
0100
1000
0010
0000
2000
,  // measure 21
0100
0001
0010
0100
,  // measure 22
3001
0010
0100
0010
0001
0200
0001
0000
,  // measure 23
0310
0100
0001
1000
0100
1000
0000
0020
,  // measure 24
0000
0130
0001
0100
1000
0100
0000
0002
,  // measure 25
0000
0103
0020
0000
0001
0000
0100
0000
,  // measure 26
1030
0100
1000
0100
1000
0100
0010
0002
,  // measure 27
0100
0000
0010
0000
0103
0010
0000
0200
,  // measure 28
0000
0301
0010
0200
0000
0010
0000
0320
,  // measure 29
0000
0130
0010
0001
0100
0010
0100
0001
,  // measure 30
1000
0200
1000
0000
0310
0100
1000
0020
,  // measure 31
0000
0000
0000
0030
0100
0001
0000
2000
,  // measure 32
0000
3001
0010
0100
0000
1000
0100
0020
,  // measure 33
0000
0000
0100
0100
0000
0000
0000
0000
,  // measure 34
0031
0010
1000
0010
0001
0010
0100
2000
,  // measure 35
0000
3010
0100
1000
0100
0001
0000
0020
,  // measure 36
0000
0130
0010
0001
0100
0010
0000
0200
,  // measure 37
0000
0301
1000
0100
0010
0100
0000
0110
,  // measure 38
0000
0101
0000
1010
0000
1001
0000
0001
,  // measure 39
0100
0010
1000
0100
1000
0001
0000
1010
,  // measure 40
0000
1001
0000
0101
0000
0100
0001
0020
,  // measure 41
0000
0000
0100
0100
0000
0000
0000
0130
,  // measure 42
0010
0001
0100
0010
1000
0001
1000
0200
,  // measure 43
0000
1300
0100
0010
0001
0100
0000
0002
,  // measure 44
0000
1003
0001
0100
0010
1000
0000
0020
,  // measure 45
0000
0130
0010
0001
0010
1000
0000
1010
,  // measure 46
0000
0110
0000
0101
0000
1001
0000
0010
,  // measure 47
1000
0010
0100
0001
0010
0100
0000
1100
,  // measure 48
0000
0110
0000
0001
1000
0001
0100
0020
,  // measure 49
0000
0000
0100
0100
0000
1030
0100
0020
,  // measure 50
0000
0130
0100
1000
0010
0100
0000
2001
,  // measure 51
0001
0000
0010
0000
0100
0000
0000
3001
,  // measure 52
0100
0010
0100
0001
0020
0000
0000
0200
,  // measure 53
0030
0000
1300
0100
0010
0001
0010
0100
,  // measure 54
0010
0000
0000
0100
0000
0000
1000
0000
0000
0010
0000
0000
0100
0000
0010
0000
0100
0000
0010
0000
0000
0000
0000
0000
,  // measure 55
1000
0100
0010
0100
0001
0100
0010
0100
,  // measure 56
1000
0010
0100
0001
2000
0000
3001
0100
,  // measure 57
0020
0000
0001
0000
0000
1030
0010
0100
,  // measure 58
0010
0000
0000
1000
0000
0000
0001
0000
0000
0010
0000
0000
0100
0000
1000
0000
0100
0000
1000
0000
0000
0000
0000
0000
,  // measure 59
0001
1000
0002
0000
0010
0000
1003
0100
,  // measure 60
0020
0000
1000
0000
0100
0000
0031
0100
,  // measure 61
0010
0100
0001
0010
0100
0010
0001
0100
,  // measure 62
0010
0000
0000
0000
0000
0000
0100
0000
0000
0010
0000
0000
1000
0000
0001
0000
1000
0000
0001
0000
0000
0000
0000
0000
,  // measure 63
1000
0100
0010
0100
0010
0001
0100
0010
,  // measure 64
0100
0001
0010
0100
1000
0010
1000
0001
,  // measure 65
1000
0000
0001
0010
0000
0000
0000
0000
0001
1000
0000
0000
0010
1000
0000
0000
,  // measure 66
0100
0010
0000
0000
0100
1000
0000
0000
0010
0100
0000
0000
0001
1000
0000
0000
,  // measure 67
1010
0000
0010
0000
0100
0000
0010
1000
,  // measure 68
0000
0100
0000
0010
0000
0001
0000
1001
,  // measure 69
1001
0000
1000
0100
0010
0100
1000
0010
,  // measure 70
0100
0001
0010
0100
1000
0010
0110
0000
,  // measure 71
1010
0000
1000
0100
0010
0000
0001
0010
,  // measure 72
0000
0001
0000
1000
0000
0001
0100
0010
,  // measure 73
1000
0000
0010
1000
0100
0010
0000
0100
,  // measure 74
0000
1000
0000
0010
0000
0100
0110
0000
,  // measure 75
1010
0000
1000
0001
0100
0001
0010
0100
,  // measure 76
0010
0001
0100
0010
0100
0001
1000
0100
,  // measure 77
0010
0000
0001
0010
1000
0010
0001
1001
,  // measure 78
0000
1000
0100
0010
0001
0010
0100
1100
,  // measure 79
0000
0001
0100
0010
1000
0100
1000
1010
,  // measure 80
0000
1000
0100
0010
0001
0100
0001
0101
,  // measure 81
0000
0001
1000
0010
0100
0001
0010
0220
,  // measure 82
0000
0330
0000
0000
;

//---------------dance-single - ----------------
#NOTES:
     dance-single:
     :
     Medium:
     7:
     0.577,0.610,0.272,0.347,0.000: // measure 1
0000
0000
0000
0000
,  // measure 2
0000
0000
0000
0000
,  // measure 3
0000
0000
0000
0000
,  // measure 4
0000
0000
0000
0000
,  // measure 5
1001
0000
1000
0000
0001
0000
0100
0010
,  // measure 6
0000
0100
0000
0001
0000
0010
0000
0100
,  // measure 7
0010
0000
0001
0010
0001
0000
0010
0100
,  // measure 8
0010
0000
0100
1000
0100
0000
0110
0000
,  // measure 9
0011
0000
0001
0000
0100
0000
0010
0100
,  // measure 10
0000
0001
0000
1000
0000
0100
1000
0000
,  // measure 11
0001
0000
0100
0000
0010
0100
0000
0001
,  // measure 12
0000
0010
0000
0100
0000
0010
0100
0000
,  // measure 13
0010
0000
0001
0000
0100
0000
0010
0100
,  // measure 14
0000
0001
0000
1000
0000
0100
1000
0000
,  // measure 15
0001
0000
0100
0000
0010
0100
0000
0001
,  // measure 16
0000
0010
0000
0100
0000
1000
0001
0000
,  // measure 17
1010
0000
0000
0110
0000
0000
0101
0000
,  // measure 18
0001
0010
0100
1000
0000
1001
0000
0000
,  // measure 19
0001
1000
0001
0000
1000
0010
0000
0100
,  // measure 20
0000
0001
0010
0000
0100
0010
0000
0002
,  // measure 21
0000
0100
0000
0010
,  // measure 22
1003
0100
0010
0100
2000
0000
0000
0000
,  // measure 23
3001
0100
0001
0000
0100
0010
0000
0100
,  // measure 24
0000
0001
0010
0000
0100
1000
0000
0002
,  // measure 25
0000
0103
0020
0000
0000
0000
0100
0000
,  // measure 26
2030
0000
0000
0000
3001
0100
0010
0200
,  // measure 27
0010
0000
0000
0000
0301
0010
0000
0200
,  // measure 28
0000
1300
0010
2000
0000
0100
0000
3002
,  // measure 29
0000
0103
0020
0000
0230
0000
0302
0000
,  // measure 30
1003
0200
0000
0000
1300
0010
1000
0002
,  // measure 31
0000
0000
0000
0000
1003
0010
0000
0200
,  // measure 32
0000
0301
0010
0001
0000
1000
0100
2000
,  // measure 33
0000
0000
0000
0100
0000
0000
0000
0000
,  // measure 34
3001
1000
0001
0100
0001
0010
0000
0002
,  // measure 35
0000
0103
0010
0000
0100
0001
0000
2000
,  // measure 36
0000
3100
0010
0000
0100
0010
0000
0002
,  // measure 37
0000
0103
0010
0000
0100
0001
0000
0101
,  // measure 38
0000
1010
0000
0101
0000
1010
0000
1000
,  // measure 39
0001
0000
0100
0000
0001
0010
0000
0100
,  // measure 40
0000
0010
0000
0001
0000
0100
0010
2000
,  // measure 41
0000
0000
0000
0100
0000
0000
0000
3001
,  // measure 42
1000
0001
1000
0001
1000
0001
0000
2000
,  // measure 43
0000
3010
0100
0000
0001
0100
0000
0002
,  // measure 44
0000
0013
0100
0000
0010
0001
0000
0200
,  // measure 45
0000
0301
1000
0000
0010
1000
0000
1100
,  // measure 46
0000
0011
0000
1100
0000
0011
0000
1000
,  // measure 47
0010
0000
0100
0000
0001
0100
0000
0001
,  // measure 48
0000
0100
0000
0010
0100
0000
0010
2000
,  // measure 49
0000
0000
0000
0001
0000
3010
0100
0020
,  // measure 50
0000
0000
1030
0100
1000
0100
0000
2001
,  // measure 51
0000
0000
0100
0000
0000
0000
0000
3001
,  // measure 52
0100
0001
0000
0100
0020
0000
0000
0200
,  // measure 53
0030
0000
0310
1000
0010
0000
1000
0100
,  // measure 54
1000
0000
1000
0001
2000
0000
0000
0000
,  // measure 55
3001
0100
0001
0000
0100
0010
0100
0000
,  // measure 56
0010
1000
0010
0000
2000
0000
3001
0010
,  // measure 57
0002
0000
0010
0000
0000
1003
0100
0010
,  // measure 58
0100
0000
1000
0010
0200
0000
0000
0000
,  // measure 59
0310
0000
2000
0000
0000
0000
3001
0100
,  // measure 60
0002
1000
0000
0103
,  // measure 61
0010
0100
0010
0000
0100
0001
0010
0000
,  // measure 62
0001
1000
0001
1000
0020
0000
0000
0000
,  // measure 63
0130
0001
0100
0000
0001
0010
0001
0000
,  // measure 64
0010
0100
1000
0000
0010
1000
0010
1000
,  // measure 65
0000
0110
0000
0000
1001
0000
1010
0000
,  // measure 66
0110
0101
0110
1010
,  // measure 67
1001
0000
0001
0000
0100
0000
0010
0100
,  // measure 68
0000
0001
0000
0010
0000
0100
0000
1000
,  // measure 69
0001
0000
0100
0001
0100
0000
0100
0010
,  // measure 70
0100
0000
0010
1000
0010
0000
1100
0000
,  // measure 71
1000
0000
0001
0000
0100
0000
0010
0100
,  // measure 72
0000
0001
0000
0010
0000
0100
0000
0010
,  // measure 73
0001
0000
0100
0000
0010
0100
0000
0001
,  // measure 74
0000
1000
0000
0010
0000
1000
0100
0000
,  // measure 75
1000
0000
0010
1000
0010
0000
1000
0001
,  // measure 76
0000
0100
0000
0001
0000
0100
0001
0100
,  // measure 77
0010
0000
0100
0000
0001
0010
0000
0110
,  // measure 78
0000
1000
0100
1000
0100
0010
0001
0010
,  // measure 79
0000
0001
0100
0000
0001
1000
0000
0011
,  // measure 80
0000
1000
0010
0000
1000
0001
0000
1100
,  // measure 81
0000
1000
0010
0000
0100
0001
0000
0220
,  // measure 82
0000
0330
0000
0000
;

//---------------dance-single - ----------------
#NOTES:
     dance-single:
     :
     Easy:
     5:
     0.465,0.607,0.206,0.572,0.000: // measure 1
0000
0000
0000
0000
,  // measure 2
0000
0000
0000
0000
,  // measure 3
0000
0000
0000
0000
,  // measure 4
0000
0000
0000
0000
,  // measure 5
1001
0000
1000
0000
0010
0000
0000
0100
,  // measure 6
0000
0001
0000
0010
0000
0000
0100
0000
,  // measure 7
0110
0002
0023
0230
,  // measure 8
2300
3200
0310
1001
,  // measure 9
0001
0000
0100
0000
0010
0000
0000
0100
,  // measure 10
0000
0001
0000
0010
0000
0000
0100
0000
,  // measure 11
0010
0000
0001
0000
0100
0000
0000
0010
,  // measure 12
0000
0100
0000
0001
0000
1000
0000
0000
,  // measure 13
0001
0000
0100
0000
0010
0000
0000
0100
,  // measure 14
0000
0001
0000
0010
0000
0000
0100
0000
,  // measure 15
0010
0000
0001
0000
0100
0000
0000
0010
,  // measure 16
0000
0100
0000
0001
0000
0000
1000
0000
,  // measure 17
1100
0000
0000
0110
0000
0000
0022
0000
,  // measure 18
0000
0000
0000
0033
0000
1001
0000
0000
,  // measure 19
0001
0000
0100
0000
0010
0000
0000
0200
,  // measure 20
0000
0000
0301
0000
0010
0000
0000
0200
,  // measure 21
0000
1000
0000
1000
,  // measure 22
0310
0001
2000
0000
,  // measure 23
3010
0000
0100
0000
0001
0000
0000
0200
,  // measure 24
0000
0000
0310
0000
0100
0000
0000
0001
,  // measure 25
0000
1000
0200
0000
0000
0000
0000
0000
,  // measure 26
1300
0000
0010
0000
0100
0000
0000
0002
,  // measure 27
0000
0000
0000
0000
1003
0010
0000
0200
,  // measure 28
0000
0301
0000
0020
0000
0000
0230
0000
,  // measure 29
0000
0320
0230
2300
,  // measure 30
3010
0200
0000
0000
0301
0000
0000
0200
,  // measure 31
0000
0000
0000
0000
0310
0000
0000
1000
,  // measure 32
0000
0020
0000
0130
0000
0002
0000
0203
,  // measure 33
0000
0000
0000
0010
0000
0000
0000
0000
,  // measure 34
0302
0000
0023
0000
0230
0000
0000
2300
,  // measure 35
0000
0000
3010
0000
0100
0010
0000
2000
,  // measure 36
0000
0000
3100
0000
0010
0100
0000
2000
,  // measure 37
0000
0000
3010
0000
0100
0010
0000
1010
,  // measure 38
0000
1010
0000
1010
0000
1010
0000
0000
,  // measure 39
1000
0000
0100
0000
0010
0100
0000
1000
,  // measure 40
0000
0010
0000
0100
0000
0010
0000
2000
,  // measure 41
0000
0000
0000
0100
0000
0000
0000
0000
,  // measure 42
3001
0000
0100
0000
0010
0000
0000
2000
,  // measure 43
0000
0000
3001
0000
0100
0010
0000
2000
,  // measure 44
0000
0000
3010
0000
0100
0010
0000
0200
,  // measure 45
0000
0000
0301
0000
1000
0001
0000
0011
,  // measure 46
0000
0011
0000
0011
0000
0011
0000
0000
,  // measure 47
0001
0000
1000
0000
0010
0100
0000
0010
,  // measure 48
0000
0100
0000
0001
0010
0000
0000
0200
,  // measure 49
0000
0000
0000
0000
0000
0310
0000
0002
,  // measure 50
0000
0000
2000
0000
0000
3003
0000
2001
,  // measure 51
0000
0000
0100
0000
0000
0000
0000
3010
,  // measure 52
0100
0000
0001
0000
0020
0000
0000
0200
,  // measure 53
0030
0310
0001
0100
,  // measure 54
0010
0100
0002
0000
,  // measure 55
1003
0010
1000
0100
,  // measure 56
1000
0100
0020
0031
,  // measure 57
0200
0001
0000
0310
,  // measure 58
0100
0001
2000
0000
,  // measure 59
3001
0200
0000
0310
,  // measure 60
2000
0010
0000
3001
,  // measure 61
0100
0001
0010
0100
,  // measure 62
0010
0001
0200
0000
,  // measure 63
0310
0100
0001
1000
,  // measure 64
0100
0010
0100
1000
,  // measure 65
0010
2000
0000
0000
3200
0000
0320
0000
,  // measure 66
0032
0023
0230
1300
,  // measure 67
1001
0000
0001
0000
0100
0000
0000
0010
,  // measure 68
0000
0100
0000
0001
0000
0000
0010
0000
,  // measure 69
0100
2000
3200
0320
,  // measure 70
0032
0023
0130
1100
,  // measure 71
1001
0000
0001
0000
0100
0000
0000
0010
,  // measure 72
0000
0100
0000
0001
0000
0000
0010
0000
,  // measure 73
0100
0000
0010
0000
0001
0000
0000
0100
,  // measure 74
0000
0010
0000
1000
0000
0000
0001
0000
,  // measure 75
1000
0100
0010
0001
,  // measure 76
0010
0100
0010
0001
,  // measure 77
0100
0000
0010
0000
0100
0000
0001
1000
,  // measure 78
0000
0001
0010
0000
0100
0000
1000
0001
,  // measure 79
0000
2000
0000
0000
3100
0000
0000
0110
,  // measure 80
0000
0002
0000
0000
0103
0000
0000
0110
,  // measure 81
0000
0200
0000
0000
0310
0000
0000
1001
;
