#TITLE:Mermaid girl (Ryu☆ Remix);
#SUBTITLE:;
#ARTIST:Cream puff;
#TITLETRANSLIT:Mermaid girl (Ryu* Remix);
#SUBTITLETRANSLIT:;
#ARTISTTRANSLIT:;
#CREDIT:;
#BANNER:Mermaid girl (Ryu Remix).png;
#BACKGROUND:Mermaid girl (Ryu Remix)-bg.png;
#LYRICSPATH:;
#CDTITLE:;
#MUSIC:Mermaid girl (Ryu Remix).mp3;
#OFFSET:-0.166;
#SAMPLESTART:47.785;
#SAMPLELENGTH:16.420;
#SELECTABLE:YES;
#BPMS:0.000=180.000;
#STOPS:243.750=1.333
;
#BGCHANGES:;

//---------------dance-single - ----------------
#NOTES:
     dance-single:
     :
     Hard:
     9:
     0.795,0.765,0.269,0.432,0.254:
0000
0000
0000
0000
,
0000
0000
0000
0000
,
0000
0000
0000
0000
,
0000
0000
0000
0000
,
0000
0000
0000
0000
,
1000
0000
0010
0000
0100
0001
0100
0000
0010
0000
0010
0000
1000
0000
1000
0000
,
0001
0000
0000
1000
0000
0000
0010
0000
0100
0000
0001
0000
0010
0000
0000
0000
,
0001
0100
0010
1000
0100
0010
0001
0000
,
1000
0000
0001
1000
0000
0001
1000
0000
0010
0000
0100
0000
0001
0000
0000
0000
,
1000
0000
0100
0010
0000
0100
0010
0000
0001
0000
0100
0000
0010
0000
0000
0000
,
1010
0000
0000
0000
0101
0000
0000
0000
1000
0000
0100
0000
0010
0001
0010
0000
,
0110
0100
1000
0010
1000
0100
0010
0000
,
0001
0100
0010
1000
0001
0010
0001
0000
,
1000
0000
0100
0010
0000
0100
0010
0000
0100
0000
1000
0000
0010
0000
0000
0000
,
0110
0000
0101
0000
0012
0010
0013
0000
,
0100
0010
0001
1000
0010
0100
0001
0000
,
0010
0001
1000
0100
1000
0010
0100
0001
,
1000
0000
0010
0100
0000
0010
0100
0000
0002
0000
1000
0000
1003
0000
0000
0000
,
0010
0000
1000
0001
0000
1000
0001
0000
0020
0000
0100
0000
0130
0000
0000
0000
,
1001
0000
0022
0000
0033
0000
0001
0010
,
0200
0000
2300
0000
3010
0000
1000
0100
,
0010
0001
0100
0010
2000
0001
3001
0000
,
2000
0000
3020
0000
0130
0000
0001
0010
,
0100
1000
0001
0010
0002
0100
0103
0001
,
2000
0000
0000
0000
3020
0000
0000
0000
0130
0000
0001
0000
1000
0000
0010
1000
,
0010
1010
0210
0301
,
0102
0000
0023
0000
0130
0000
1000
0010
,
0100
0000
0001
0000
0010
0000
0100
0000
1000
0000
0001
0000
1000
0010
1000
0000
,
0001
0010
0100
1000
0001
0100
0010
0000
,
1000
0100
0010
0100
2000
0001
3001
1000
,
0020
0230
0302
0013
,
0001
0010
0100
1000
0001
0100
0010
0000
,
1000
0000
0100
0000
0010
0000
0100
0000
1000
0000
0010
0000
0100
0000
0001
1000
,
0001
0000
0101
0000
0120
0000
1030
0010
,
0200
0302
2003
3100
,
0110
0000
0000
0000
0011
0000
0000
0000
0001
0000
1000
0000
0010
0100
0010
0000
,
0110
0000
0000
0100
0000
0000
0001
0000
0010
0000
0100
0000
1000
0000
0000
0000
,
0010
0100
0001
0100
0020
1000
1030
0100
,
0010
0000
0100
1000
0000
0100
1000
0000
0100
0000
0010
0000
0001
0000
0000
0000
,
1000
0010
0100
0001
2000
0001
3001
0100
,
0010
0000
0000
0100
0000
0000
0001
0000
0010
0000
0100
0000
1000
0000
0000
0000
,
0010
0100
0001
0100
0020
1000
1030
0001
,
0010
0000
0100
1000
0000
0100
1000
0000
0010
0000
0100
0000
0101
0000
0000
0000
,
0001
0000
0100
0010
0000
0100
0010
0000
1000
0000
0100
0000
0010
0001
1000
0000
,
0002
0000
0023
0000
0130
0000
1000
0010
,
0000
0000
1000
0000
0100
0000
0010
0000
0001
0000
0100
0000
0010
0000
1000
0010
,
2000
0000
0000
0000
3200
0000
0000
0000
0320
0000
0000
0000
0031
0000
1000
0010
,
1000
0001
0100
0010
2000
0001
3001
0000
,
1010
0010
0100
0001
0010
0100
1000
0000
,
1100
0100
0010
0001
0100
0001
0010
0000
,
0110
0000
0100
2000
0000
3002
0000
0103
,
0001
0000
0001
0000
0100
0000
0100
0000
0010
0000
1000
0000
0001
0010
0001
0010
,
0002
0000
0000
0000
0013
0000
0000
0000
2000
0000
0000
0000
3010
0000
0000
0010
,
0002
0000
0000
0000
0103
0000
0000
0000
2000
0000
0000
0000
3100
0000
0000
0100
,
0002
0000
0000
0000
0013
0000
0000
0000
0200
0000
0000
0000
1300
0000
0000
1000
,
0010
0000
0000
0000
0100
0001
0100
0001
0100
0000
0010
0000
1000
0000
0001
0000
,
0010
0100
1000
0100
0010
0001
0100
0001
,
0010
0001
1000
0001
0100
0010
1000
0010
,
1000
1000
0001
0001
0010
0010
0100
0100
,
1100
0000
0000
0000
0011
0000
0000
0000
0100
0000
1000
0000
0001
1000
0001
0000
,
0101
0000
0000
0000
1010
0000
0000
0000
1000
0000
0001
0000
0100
0010
0100
0000
,
0001
0001
0010
0010
0100
0100
1100
0000
,
0100
0000
0010
0001
0000
0010
0001
0000
0010
0000
0100
0000
1000
0000
0000
0000
,
0001
0000
0100
0000
0010
0000
1000
0000
0001
0000
1000
0000
0001
0100
0001
0000
,
0100
0000
0000
0010
0000
0000
1000
0000
0100
0000
0010
0000
0001
0000
0000
0000
,
0100
0010
1000
0010
0200
0001
0301
1000
,
0100
0000
0010
0001
0000
0010
0001
0000
0100
0000
0010
0000
1010
0000
0000
0000
,
1000
0000
0010
0100
0000
0010
0100
0000
0001
0000
0010
0000
0100
1000
0001
0000
,
1001
0001
0010
0100
1000
0010
0100
0000
,
0001
0100
0010
1000
0002
0010
0013
0001
,
1000
0000
0100
0010
0000
0100
0010
0000
0100
0000
1000
0000
0010
0000
0000
0000
,
0100
0000
0010
0000
1000
0000
0100
0000
1000
0000
0001
0000
1000
0100
1000
0000
,
0010
0100
0001
1000
0010
0100
0001
0000
,
0010
0001
1000
0100
1000
0010
0100
0001
,
1000
0000
0001
0100
0000
0001
0100
0000
0020
0000
1000
0000
1030
0000
0000
0000
,
0100
0000
1000
0001
0000
1000
0001
0000
0200
0000
0010
0000
0310
0000
0000
0000
,
1001
0000
0000
0000
;

//---------------dance-single - ----------------
#NOTES:
     dance-single:
     :
     Beginner:
     2:
     0.133,0.182,0.010,0.000,0.000: // measure 1
0000
0000
0000
0000
,  // measure 2
0000
0000
0000
0000
,  // measure 3
0000
0000
0000
0000
,  // measure 4
0000
0000
0000
0000
,  // measure 5
0000
0000
0000
0000
,  // measure 6
0000
0000
0000
0000
,  // measure 7
1000
0000
0000
0000
,  // measure 8
0001
0000
0000
0000
,  // measure 9
0100
0000
0100
0000
,  // measure 10
0010
0000
0010
0000
,  // measure 11
1000
0000
0000
0000
,  // measure 12
0001
0000
0000
0000
,  // measure 13
0010
0000
0000
0000
,  // measure 14
0100
0000
0000
0000
,  // measure 15
1000
0000
1000
0000
,  // measure 16
1000
0000
0000
0000
,  // measure 17
0010
0000
0000
0000
,  // measure 18
0100
0000
0000
0000
,  // measure 19
0001
0000
0001
0000
,  // measure 20
0001
0000
0000
0000
,  // measure 21
0010
0000
0000
0000
,  // measure 22
0100
0000
0000
0000
,  // measure 23
1000
0000
0000
0000
,  // measure 24
0001
0000
0001
0000
,  // measure 25
0001
0000
0000
0000
,  // measure 26
1000
0000
1000
0000
,  // measure 27
1000
0000
0000
0000
,  // measure 28
0010
0000
0010
0000
,  // measure 29
0010
0000
0000
0000
,  // measure 30
0100
0000
0000
0000
,  // measure 31
0001
0000
0001
0000
,  // measure 32
0001
0000
0000
0000
,  // measure 33
1000
0000
0000
0000
,  // measure 34
0010
0000
0010
0000
,  // measure 35
0100
0000
0100
0000
,  // measure 36
0001
0000
0001
0000
,  // measure 37
1000
0000
0000
0000
,  // measure 38
0010
0000
0000
0000
,  // measure 39
0100
0000
0000
0000
,  // measure 40
0001
0000
0001
0000
,  // measure 41
0001
0000
0000
0000
,  // measure 42
0010
0000
0000
0000
,  // measure 43
0100
0000
0000
0000
,  // measure 44
1000
0000
1000
0000
,  // measure 45
1000
0000
0000
0000
,  // measure 46
0010
0000
0010
0000
,  // measure 47
0010
0000
0000
0000
,  // measure 48
0100
0000
0100
0000
,  // measure 49
0100
0000
0000
0000
,  // measure 50
0001
0000
0001
0000
,  // measure 51
0001
0000
0000
0000
,  // measure 52
0010
0000
0010
0000
,  // measure 53
0010
0000
0000
0000
,  // measure 54
0100
0000
0000
0000
,  // measure 55
1000
0000
1000
0000
,  // measure 56
1000
0000
0000
0000
,  // measure 57
0001
0000
0000
0000
,  // measure 58
0100
0000
0000
0000
,  // measure 59
0010
0000
0010
0000
,  // measure 60
0010
0000
0000
0000
,  // measure 61
1000
0000
1000
0000
,  // measure 62
0001
0000
0001
0000
,  // measure 63
0001
0000
0000
0000
,  // measure 64
1000
0000
1000
0000
,  // measure 65
1000
0000
0000
0000
,  // measure 66
0010
0000
0000
0000
,  // measure 67
0100
0000
0000
0000
,  // measure 68
0001
0000
0001
0000
,  // measure 69
0001
0000
0000
0000
,  // measure 70
0010
0000
0000
0000
,  // measure 71
0100
0000
0000
0000
,  // measure 72
1000
0000
1000
0000
,  // measure 73
1000
0000
0000
0000
,  // measure 74
0010
0000
0000
0000
,  // measure 75
0100
0000
0000
0000
,  // measure 76
0001
0000
0001
0000
,  // measure 77
1001
0000
0000
0000
;

//---------------dance-single - ----------------
#NOTES:
     dance-single:
     :
     Easy:
     4:
     0.341,0.364,0.010,0.000,0.000: // measure 1
0000
0000
0000
0000
,  // measure 2
0000
0000
0000
0000
,  // measure 3
0000
0000
0000
0000
,  // measure 4
0000
0000
0000
0000
,  // measure 5
0000
0000
0000
0000
,  // measure 6
0000
0000
0000
0000
,  // measure 7
1000
0100
1000
1000
,  // measure 8
0001
0100
0001
0001
,  // measure 9
1000
0010
1000
1000
,  // measure 10
0001
0010
0001
0001
,  // measure 11
1000
0001
0000
0100
,  // measure 12
0010
1000
0100
1000
,  // measure 13
0010
0100
0001
0100
,  // measure 14
0010
1000
0001
0010
,  // measure 15
0001
0100
0010
0000
,  // measure 16
1000
0100
0010
0100
,  // measure 17
1000
0010
0100
0010
,  // measure 18
1000
0001
0010
0001
,  // measure 19
0100
0010
1000
0010
,  // measure 20
0100
0100
0000
0000
,  // measure 21
0001
0010
0001
0100
,  // measure 22
0001
0010
0001
0000
,  // measure 23
0100
0010
1000
0010
,  // measure 24
0100
0010
1000
0000
,  // measure 25
0100
1000
0001
0010
,  // measure 26
0001
0001
0001
0000
,  // measure 27
1000
0010
0100
0010
,  // measure 28
1000
0010
0100
0100
,  // measure 29
0001
0010
0100
0010
,  // measure 30
0001
0100
0010
0000
,  // measure 31
1000
0100
0010
0100
,  // measure 32
1000
0000
0001
0001
,  // measure 33
1000
0010
0100
0001
,  // measure 34
1000
0100
0010
0001
,  // measure 35
1000
0100
0001
0100
,  // measure 36
1000
1000
0001
0001
,  // measure 37
1000
0010
0100
0010
,  // measure 38
1000
0100
0010
0100
,  // measure 39
1000
0001
0010
0001
,  // measure 40
0100
0010
1000
0000
,  // measure 41
0001
0010
0100
0010
,  // measure 42
0001
0100
0010
1000
,  // measure 43
0010
0100
0001
0010
,  // measure 44
0100
1000
0001
0010
,  // measure 45
0001
0000
0100
0000
,  // measure 46
0010
1000
0100
1000
,  // measure 47
0010
0000
0100
0000
,  // measure 48
0001
0010
0100
0010
,  // measure 49
0001
0000
0100
0000
,  // measure 50
0010
1000
0001
0100
,  // measure 51
0001
0000
0010
0000
,  // measure 52
0100
1000
0010
0100
,  // measure 53
0001
0000
0010
0000
,  // measure 54
0100
0000
1000
0000
,  // measure 55
0010
0010
0100
0100
,  // measure 56
0001
0000
1000
0000
,  // measure 57
0001
0000
0010
0000
,  // measure 58
0100
0100
1000
0000
,  // measure 59
0010
0010
0100
0100
,  // measure 60
1000
0001
1000
0001
,  // measure 61
0000
0000
0000
0000
,  // measure 62
1000
0100
0010
0001
,  // measure 63
1000
0001
0100
0001
,  // measure 64
0010
0100
1000
0000
,  // measure 65
0010
1000
0100
1000
,  // measure 66
0010
0100
0001
0100
,  // measure 67
0010
1000
0001
0010
,  // measure 68
0001
0100
0010
1000
,  // measure 69
0001
0010
0100
0010
,  // measure 70
0001
0100
0010
0100
,  // measure 71
0001
0010
1000
0010
,  // measure 72
0001
0100
1000
0000
,  // measure 73
0100
0001
0010
0100
,  // measure 74
1000
0010
0100
0001
,  // measure 75
1000
0010
1000
1000
,  // measure 76
0001
0010
0001
0001
,  // measure 77
1001
0000
0000
0000
;

//---------------dance-single - ----------------
#NOTES:
     dance-single:
     :
     Medium:
     7:
     0.566,0.583,0.259,0.077,0.000: // measure 1
0000
0000
0000
0000
,  // measure 2
0000
0000
0000
0000
,  // measure 3
0000
0000
0000
0000
,  // measure 4
0000
0000
0000
0000
,  // measure 5
0000
0000
0000
0000
,  // measure 6
1000
0001
1000
0000
0010
0000
0100
0001
,  // measure 7
0100
0000
0010
0000
1000
0010
1000
0000
,  // measure 8
0100
0000
0010
0000
0001
0100
0001
0000
,  // measure 9
0010
0100
0010
0100
1000
0001
1000
0000
,  // measure 10
0010
0100
0010
0100
0001
1000
0001
0000
,  // measure 11
0101
0000
1010
0000
1000
0001
0100
0001
,  // measure 12
0010
0000
0100
0000
1000
0010
1000
0000
,  // measure 13
0010
0000
0100
0000
0001
0100
0001
0000
,  // measure 14
0010
0000
0100
0000
1000
0001
1000
0000
,  // measure 15
0010
0100
0001
0100
0010
0000
0110
0000
,  // measure 16
0010
0000
1000
0000
0100
1000
0001
0000
,  // measure 17
0010
0000
0001
0000
0100
0010
1000
0000
,  // measure 18
0001
0010
0100
0010
0001
0010
0100
0000
,  // measure 19
1000
0010
0100
0010
1000
0010
0100
0000
,  // measure 20
0110
0000
0101
0000
0000
0000
0001
0010
,  // measure 21
0100
1000
0010
1000
,  // measure 22
0100
0010
0001
0010
0100
0000
1100
0000
,  // measure 23
1000
0010
0100
0001
,  // measure 24
0010
0100
0010
0001
0100
0000
0110
0000
,  // measure 25
0010
0000
1000
0000
0001
0010
0100
0010
,  // measure 26
0001
0100
0010
1001
,  // measure 27
1000
0010
0100
0010
,  // measure 28
1000
0100
0010
0001
1000
0010
0100
0001
,  // measure 29
1000
0100
0010
0001
,  // measure 30
1000
0100
1000
0000
0001
0100
0001
0000
,  // measure 31
1000
0100
0010
0001
,  // measure 32
0100
0010
0100
0000
0010
1000
0010
0000
,  // measure 33
1000
0000
0100
0000
0010
0001
1000
0001
,  // measure 34
0100
0010
1000
1001
,  // measure 35
0001
0100
0010
1000
,  // measure 36
1001
0000
0110
0000
1000
0100
0010
0001
,  // measure 37
1000
0000
0010
0000
0100
0001
0100
0000
,  // measure 38
0001
0000
0010
0000
0100
1000
0100
0000
,  // measure 39
0010
0000
0001
0000
1000
0010
1000
0000
,  // measure 40
0010
0000
0100
0001
0100
0000
0011
0000
,  // measure 41
0001
0000
0010
0000
0100
1000
0100
0000
,  // measure 42
0010
0000
0001
0000
1000
0010
1000
0000
,  // measure 43
0001
0100
0010
1000
0010
0100
0001
0000
,  // measure 44
1000
0100
0010
0001
0010
0100
1000
0000
,  // measure 45
0010
0000
0100
0000
0001
0000
0100
0010
,  // measure 46
0000
1000
0100
0010
0001
0000
1000
0000
,  // measure 47
0010
0000
0100
0000
0001
0000
0010
0100
,  // measure 48
0000
1000
0000
0010
0100
0001
0100
0000
,  // measure 49
0110
0010
1000
0100
,  // measure 50
0110
0010
0001
1000
,  // measure 51
1001
0000
1000
0010
0000
0100
0000
0010
,  // measure 52
0000
1000
0100
0010
0001
0000
1001
0000
,  // measure 53
2000
3010
0200
0301
,  // measure 54
2000
3100
0020
0031
,  // measure 55
2000
3100
0002
0103
,  // measure 56
2000
3010
0002
0013
,  // measure 57
1000
0100
1000
0000
0100
0010
0100
0000
,  // measure 58
0010
0001
0010
0000
0001
0100
0001
0000
,  // measure 59
0100
0010
1000
0000
0100
0010
0001
0000
,  // measure 60
1001
0110
1001
0110
,  // measure 61
1001
1100
1001
0101
,  // measure 62
1000
0100
0010
0001
0010
0100
1000
0000
,  // measure 63
0100
0000
1000
0000
0001
0100
0001
0000
,  // measure 64
0100
0000
0010
1000
0010
0000
1100
0000
,  // measure 65
1000
0000
0100
0000
0010
0001
0010
0000
,  // measure 66
0100
0000
1000
0000
0001
0100
0001
0000
,  // measure 67
1000
0010
0100
0001
0100
0010
1000
0000
,  // measure 68
0001
0010
0100
1000
0100
0010
0001
0000
,  // measure 69
0010
0000
0100
0000
1000
0010
1000
0000
,  // measure 70
0010
0000
0100
0000
0001
0100
0001
0000
,  // measure 71
0010
0000
0100
0000
1000
0001
1000
0000
,  // measure 72
0010
0100
0001
0100
0010
0000
0110
0000
,  // measure 73
0010
0000
1000
0000
0100
1000
0001
0000
,  // measure 74
0010
0000
0001
0000
0100
0010
1000
0000
,  // measure 75
0001
0010
0100
0010
0001
0010
0100
0000
,  // measure 76
1000
0010
0100
0010
1000
0010
0100
0000
,  // measure 77
0110
0000
0000
0000
;
