#TITLE:London Bridge;
#SUBTITLE:(Speed Mix);
#ARTIST:SPEEDMASTER;
#TITLETRANSLIT:;
#SUBTITLETRANSLIT:;
#ARTISTTRANSLIT:;
#CREDIT:;
#BANNER:I WANNA DANCE WITH SOMEBODY (Q-Tex Club Mix).PNG;
#BACKGROUND:I WANNA DANCE WITH SOMEBODY (Q-Tex Club Mix)-bg.PNG;
#LYRICSPATH:;
#CDTITLE:Dancemania TRANCE Z.png;
#MUSIC:02. London Bridge (Speed Version).mp3;
#OFFSET:-0.153;
#SAMPLESTART:30.790;
#SAMPLELENGTH:15.000;
#SELECTABLE:YES;
#BPMS:0.000=187.000;
#STOPS:;
#BGCHANGES:;

//---------------dance-single - ----------------
#NOTES:
     dance-single:
     :
     Hard:
     9:
     0.595,0.601,0.569,0.123,0.000:
0000
0000
0000
0000
,
0000
0000
0000
0000
,
0000
0000
0000
0000
,
0000
0000
0000
0000
,
0000
0000
0000
0000
,
0000
0000
0000
0000
,
0000
0000
0000
0000
,
0000
0000
0000
0000
0000
0000
1000
0010
,
1000
0000
0001
0100
0010
0000
1000
0100
,
0020
0000
0031
0000
1001
0000
0001
0100
,
0001
0000
1000
0100
0010
0001
0100
0010
,
2000
0000
3100
0000
1100
0000
1000
0001
,
0100
0000
0001
0100
0001
1000
0010
0100
,
0002
0000
1003
0000
1001
0000
0001
0100
,
0010
0000
1000
0001
0010
0001
0100
0000
,
0020
0000
0130
0000
0110
0000
0010
1000
,
0001
0000
1000
0000
1100
0000
0010
0001
,
2000
0000
3001
0000
0101
0000
0100
0010
,
0100
0000
0010
1000
0001
0000
1001
0000
,
2010
0000
3001
0000
0011
0000
1000
0100
,
0010
0001
0100
1000
0100
0001
0010
0100
,
2000
0000
3010
0000
0110
0000
0001
1000
,
0001
0010
1000
0010
0000
0100
0010
0010
,
0001
0010
1000
0010
0001
1000
0001
1000
,
1010
0000
1001
0000
0101
0000
0001
0100
,
0000
0100
0010
1000
0100
0000
0011
0000
,
0101
0000
1010
0000
1001
0000
1000
0100
,
0000
0100
1000
0010
0100
0000
1001
0000
,
0001
0000
1000
0100
0000
0001
0100
1000
,
0000
0010
0001
0010
1000
0000
1001
0000
,
0001
0000
0010
1000
0000
1000
0010
0001
,
0000
0100
1000
0100
0001
0000
1001
0000
,
1100
0000
0101
0000
1001
0000
0001
0100
,
0000
0001
1000
0100
1000
0000
1001
0000
,
0110
0000
1010
0000
0110
0000
0010
0100
,
0000
0100
0001
1000
0100
0000
1100
0000
,
1001
0000
1000
0010
0000
0001
0010
1000
,
0000
0100
0010
0001
1000
0000
1001
0000
,
0101
0000
0001
0100
0000
1000
0100
0001
,
0000
0010
0100
1000
0001
0000
1001
0000
,
1000
0000
0010
0000
0100
0000
0000
0001
,
0010
0100
1000
0001
1000
0010
0100
0001
,
1000
0000
0001
0000
0100
0000
0000
0010
,
1000
0100
1000
0010
0100
0000
0101
0000
,
1001
0000
1000
0100
1000
0000
0010
0100
,
0002
0000
1003
0000
0100
0000
1000
0001
,
1000
0010
0001
0010
1000
1000
0010
0100
,
0002
0103
0010
1000
,
0001
0100
1000
0100
0001
0010
0100
1000
,
0002
0000
1003
0000
0100
0000
0010
0010
,
0001
0000
0010
0001
0100
0100
0010
1000
,
0200
0000
1300
0000
0001
0000
0010
0100
,
1000
0010
0100
0001
1000
0000
1001
0000
,
1001
0000
0010
0100
0001
0010
1000
0010
,
0001
0001
0100
0010
1000
0000
1010
0000
,
1010
0000
1000
0000
1001
0000
1000
0010
,
0100
0001
1000
0000
0100
0000
0011
0000
,
0011
0001
0100
0010
,
2002
0000
0000
3003
,
0220
0000
0000
0330
,
0011
0000
1100
0000
1001
0000
1000
0010
,
0000
0010
0100
0001
1000
0000
1010
0000
,
0101
0000
1010
0000
0101
0000
0001
1000
,
0000
1000
0100
0010
0001
0000
1001
0000
,
0101
0000
0001
0100
0000
1000
0100
1000
,
0000
1000
0100
0001
0010
0000
0011
0000
,
0001
0000
0001
0010
0000
1000
0010
1000
,
0000
0010
0001
1000
0100
0000
1001
0000
,
1010
0000
0110
0000
1001
0000
0001
0100
,
0000
0100
0001
1000
0100
0000
1100
0000
,
1001
0000
1100
0000
1001
0000
0100
0010
,
0000
1000
0001
0100
0010
0000
1010
0000
,
1000
0000
0100
0001
0000
0100
0001
0100
,
0000
0001
0100
1000
0001
0000
1001
0000
,
0001
0000
0100
1000
0000
1000
0100
1000
,
0000
0000
0000
0000
,
1010
0000
0110
0000
1001
0000
0000
0010
,
1000
0100
0001
0100
1000
0010
0100
0001
,
1000
0000
0101
0000
1001
0000
0000
1000
,
0010
0100
0001
1000
0001
0000
0101
0000
,
1001
0000
0101
0000
1001
0000
0000
1000
,
0001
0010
1000
0010
0001
0100
0010
1000
,
0001
0000
0101
0000
1100
0000
0000
0100
,
0010
0001
1000
0100
0010
0000
0001
0000
,
0100
0000
0010
0000
1000
0000
0000
0001
,
0100
0010
0100
0001
1000
0100
0010
0001
,
1000
0000
0100
0000
0010
0000
0000
0001
,
0100
1000
0100
0001
1000
0000
0001
0000
,
0010
0000
0001
0000
0100
0000
0000
0001
,
0100
0010
1000
0100
0010
0001
1000
0001
,
1000
0000
0100
0000
0010
0000
0000
0001
,
0100
0010
1000
0100
0020
0000
0000
0000
,
0031
0000
0000
0000
;

//---------------dance-single - ----------------
#NOTES:
     dance-single:
     :
     Medium:
     7:
     0.427,0.460,0.108,0.000,0.000:
0000
0000
0000
0000
,
0000
0000
0000
0000
,
0000
0000
0000
0000
,
0000
0000
0000
0000
,
0000
0000
0000
0000
,
0000
0000
0000
0000
,
0000
0000
0000
0000
,
0000
0000
0000
1000
,
0010
0000
0001
0000
0010
0000
1000
0100
,
0010
0011
0011
0001
,
0100
0000
1000
0000
0100
0000
0001
0010
,
1000
0011
0011
0001
,
0100
0000
0010
0000
1000
0000
0100
0010
,
0001
1001
1001
0001
,
0100
0000
0010
0000
1000
0100
0010
0000
,
0001
1010
1001
1000
,
0001
0000
0100
0000
0010
0000
0010
1000
,
0001
0000
1000
0000
0100
0000
1000
0010
,
1000
0010
0100
0001
,
0010
0000
0100
0000
0100
0000
0010
0001
,
1000
0000
0100
0000
1000
0000
0001
0100
,
1000
0000
0100
0000
0100
0000
0010
1000
,
0001
1000
0100
0010
,
0001
0010
0001
0000
0100
1000
0100
0000
,
1000
0000
0001
0000
0100
0000
0010
0100
,
0000
0100
0010
0000
1001
0000
1000
0000
,
0100
0000
0010
0000
0001
0000
0100
0010
,
0000
0010
1000
0000
0100
0000
0010
0000
,
0001
0000
0001
1000
0000
1000
0001
0100
,
0000
0100
0010
0000
0100
0000
0010
0000
,
1000
0000
0100
1000
0000
0100
0010
0001
,
0000
0001
0100
0000
0010
0000
0100
0000
,
0001
0000
1000
0000
0100
0000
0010
0001
,
0000
0001
0010
0000
0100
0000
0010
0000
,
0100
0000
1000
0000
0100
0000
1000
0001
,
0000
0001
0010
0000
0100
0000
0010
0000
,
0001
0000
0100
1000
0000
0100
0001
0000
,
0010
0100
0010
0001
,
1000
0000
0010
0001
0000
0010
1000
0000
,
0100
0010
0001
1000
,
0100
0000
0100
0000
0100
0000
0000
0100
,
0010
0000
0001
0000
0100
0000
0010
0010
,
1000
0000
0100
0000
1000
0000
0000
1000
,
0001
1000
0010
0100
,
0100
0000
0001
0010
0100
0000
0010
0000
,
0001
0000
0100
0000
0010
0000
1000
1000
,
0100
0000
1000
0000
0010
0000
0100
0001
,
1000
0000
0100
0000
0010
0000
0001
1000
,
0001
0000
0100
0000
0010
0000
0010
1000
,
0010
1000
0100
0001
,
0100
0000
1000
0000
0010
0000
0100
0100
,
0001
1000
0001
1000
,
0010
0100
0001
1000
0100
0000
0010
0000
,
0010
0000
0001
0100
0010
1000
0100
0000
,
0010
0000
0001
0100
0010
0000
1000
0000
,
1000
0000
0100
0010
0001
1000
0100
0000
,
1000
0000
0010
0100
0001
0000
1000
0000
,
1000
0001
0100
0010
,
0110
0000
0000
0000
,
1001
0000
0000
0000
,
1000
0000
1000
0000
0001
0000
0001
0100
,
0000
0100
0001
0000
0010
0000
0100
0000
,
0010
0000
0001
0000
1000
0000
0100
1000
,
0000
1000
0100
0000
0010
0000
0001
0000
,
0100
0000
0010
1000
0000
1000
0010
0000
,
1000
0100
0001
0101
,
0001
0000
0100
1000
0000
1000
0010
0000
,
0100
0001
1000
0100
,
0010
0010
0001
0001
,
0100
0000
0100
0010
1000
0000
0100
0000
,
1000
1000
0010
0010
,
0001
0000
0001
0010
1000
0000
0100
0000
,
0010
0000
0001
1000
0000
1000
0001
1000
,
0000
1000
0010
0000
0100
0000
0001
0000
,
0100
0000
0010
1000
0000
1000
0100
0010
,
0000
0001
1000
0000
0000
0000
0000
0000
,
0001
0000
1000
0000
0100
0000
0000
0100
,
0010
0000
0001
0000
0100
0000
0010
1000
,
0001
0000
1000
0000
0100
0000
0000
0100
,
1000
0010
0100
0000
,
0001
0000
0100
0000
1000
0000
0000
0100
,
0001
0000
0010
0000
0100
0000
0010
0010
,
0001
0000
1000
0000
0100
0000
0000
0100
,
1000
0001
0100
0000
,
0010
0000
1000
0000
0010
0000
0000
1000
,
1000
0001
1000
0100
,
0010
0000
0001
0000
0100
0000
0000
0010
,
1000
0100
0010
0000
,
0001
0000
0100
0000
0001
0000
0000
0001
,
1000
0010
1000
0100
,
0010
0000
0001
0000
1000
0000
0000
1000
,
0100
1000
0010
0110
,
1001
0000
0000
0000
;

//---------------dance-single - ----------------
#NOTES:
     dance-single:
     :
     Easy:
     5:
     0.334,0.354,0.069,0.031,0.000:
0000
0000
0000
0000
,
0000
0000
0000
0000
,
0000
0000
0000
0000
,
0000
0000
0000
0000
,
0000
0000
0000
0000
,
0000
0000
0000
0000
,
0000
0000
0000
0000
,
0000
0000
0000
1000
,
1000
0010
0100
0001
,
1000
0001
1001
0001
,
0100
0001
0100
0010
,
1000
0100
1100
1000
,
0100
1000
0010
0100
,
0100
0001
1001
0001
,
0100
0010
1000
0100
,
1000
0100
1100
0100
,
0010
0001
0100
0010
,
2000
0000
3000
0001
,
0100
0001
0001
0010
,
0200
0000
0300
0010
,
0001
1000
0100
0100
,
2000
0000
3000
0001
,
0001
0100
0010
1000
,
0100
0100
0010
0010
,
0001
0001
0001
0001
,
1000
1000
1000
1000
,
1001
0001
0100
0001
,
1000
0100
0010
0010
,
0001
1000
0001
1000
,
0000
0100
0100
0010
,
0001
0100
0001
0100
,
0000
0010
0010
1000
,
0100
1000
0010
0010
,
0100
0001
1000
0100
,
1000
1000
0001
0100
,
0010
0010
1000
0100
,
0010
0001
1000
0100
,
0000
1000
0100
1000
,
0010
0010
0100
0001
,
0000
1000
0100
0010
,
0001
0001
0001
0000
,
1000
1000
1000
0000
,
0100
0100
0100
0000
,
0010
0010
0010
0001
,
0100
1000
0100
0001
,
0010
0000
0000
0100
,
0010
0001
1000
0100
,
1000
0000
0000
0001
,
0100
0010
0010
1000
,
0100
0000
0000
0100
,
1000
0010
0001
0010
,
2000
0100
3100
0100
,
0010
0001
1000
0001
,
0101
0001
0100
0010
,
1000
0100
0010
0001
,
1001
1000
0100
1000
,
0010
0010
0100
0001
,
0101
0001
0100
0010
,
1000
0000
0000
0000
,
0000
0000
0000
0000
,
0001
0001
1000
1000
,
0001
0100
0010
1000
,
0100
0100
0010
0010
,
0001
0100
1000
0100
,
0001
0010
0100
0010
,
0000
0010
0010
0001
,
0100
0001
0100
0010
,
0000
1000
1000
0100
,
1000
1000
0010
0100
,
0010
0010
0100
0010
,
1000
1000
0001
0100
,
0001
0001
0010
0100
,
0010
0001
0100
0010
,
0000
1000
1000
1000
,
0001
0100
0001
0100
,
0000
0000
0000
0000
,
0100
0100
0100
0000
,
0010
0010
0010
0000
,
1000
1000
1000
0000
,
0001
0001
0001
0000
,
0010
0010
0010
0000
,
0001
0001
0001
0000
,
0100
0100
0100
0000
,
0010
0010
0010
0000
,
1000
0100
0001
0000
,
0001
0001
0001
0001
,
0001
0100
1000
0000
,
0010
0010
0010
0000
,
0100
0001
0100
0000
,
0010
0010
1000
0100
,
1000
1000
0001
0000
,
0001
1000
0100
0000
,
1001
0000
0000
0000
;
