#TITLE:Kimi no Shiranai Monogatari;
#SUBTITLE:Bakemonogatari ED;
#ARTIST:supercell;
#TITLETRANSLIT:;
#SUBTITLETRANSLIT:;
#ARTISTTRANSLIT:;
#CREDIT:;
#BANNER:Kimi no Shiranai Monogatari.png;
#BACKGROUND:Kimi no Shiranai Monogatari-bg.png;
#LYRICSPATH:;
#CDTITLE:;
#MUSIC:Kimi no Shiranai Monogatari.mp3;
#OFFSET:-0.614;
#SAMPLESTART:0.000;
#SAMPLELENGTH:12.000;
#SELECTABLE:YES;
#BPMS:0.000=165.000,47.000=82.500,63.000=165.000,103.000=82.500,111.000=165.000,123.000=330.001,127.003=165.000;
#STOPS:29.500=0.182
,30.000=0.182
,127.000=0.364
;
#BGCHANGES:;

//---------------dance-single - ----------------
#NOTES:
     dance-single:
     :
     Hard:
     9:
     0.881,1.000,1.000,0.710,0.231:
1001
0000
0001
0100
0001
0100
0001
0100
,
0010
0010
1000
1000
0010
0100
0010
0100
,
0001
0001
1000
1000
0010
0010
0100
0100
,
1000
0000
0100
1000
0010
0000
0001
0000
0100
0000
0100
0001
0010
0000
0010
0000
,
1010
0000
0100
0100
0010
0010
0100
0100
,
0001
0000
0000
0000
1000
0000
1000
0000
0010
0000
0010
1000
0100
0000
0001
0000
,
0101
0000
0000
0001
1000
0000
1010
0000
0000
0000
0100
0000
0010
0000
0110
0000
,
0000
1000
0001
1001
1001
0000
0110
0000
,
1010
0010
0100
0010
0100
0010
1000
0100
,
0010
0001
0100
0010
0100
0010
1010
0100
,
0010
0100
0001
1000
0010
0110
0010
2000
,
0010
0000
0010
0000
0010
0000
3002
0000
0100
0000
0100
0000
2003
0010
3100
0020
,
0100
0031
2000
0100
3020
0031
0100
0020
0030
0010
0000
2000
0100
3010
0002
0100
,
0103
0020
1000
1030
2000
0001
3100
0020
0030
0010
0000
0000
2000
0100
3010
0000
,
0002
0010
0103
0000
2000
0100
3100
0000
0002
0010
0013
2000
0010
0000
0010
0000
,
3010
1000
0100
0020
0100
0000
0100
0000
0130
1000
0100
0010
0210
0000
0310
0000
,
0120
0130
0210
0310
0102
0103
0201
0301
,
1020
1030
2010
3010
0100
0200
0010
0310
,
1000
0100
0101
0100
0110
1000
1100
0100
,
0110
0100
0101
0100
0110
0100
1100
0100
,
0101
0100
1100
0100
0101
0100
1010
0010
,
0011
0010
1010
0010
0011
0010
1010
0100
,
0110
0100
0101
0100
0110
1000
1100
0100
,
0110
0100
0101
0100
0110
1000
1001
0000
,
1001
1000
1001
1000
1001
1000
1001
1000
,
1001
1000
1001
1000
0020
1030
0101
0100
,
0110
0000
1000
0010
1000
0010
1000
0000
0110
0000
0001
0100
0001
0100
0001
0000
,
0101
0000
0000
0000
1000
0000
0010
0000
1000
0000
0010
0000
1000
0000
0000
0010
1000
0000
0010
0000
0100
0000
0001
0000
2001
0000
0000
0000
0000
0000
0000
0000
,
0010
0010
3010
0102
,
0100
0100
0013
2001
,
0010
0010
0010
0010
3010
0010
2002
0000
,
0000
0000
0000
3003
,
1010
0000
0110
0100
0010
0100
0120
1030
,
2002
3003
0110
0200
0010
0301
0020
0130
,
1002
0003
0120
0100
1030
0100
0120
1030
,
1001
0000
0120
0100
1030
0110
0110
0100
,
1002
0000
0103
0010
0100
0010
0110
1000
,
0001
0000
0100
0000
0010
0000
0100
0000
1100
0000
0100
0010
0100
0000
0100
0020
,
0000
0031
0100
0001
0101
0100
0010
0100
,
0110
0000
1000
0000
0010
0000
0100
0000
0110
0000
0100
0010
0100
0010
1000
0000
,
1100
0010
0100
0010
0100
0010
0100
0010
,
0012
0100
0023
0100
2030
0100
3002
0103
,
0102
0000
0100
1000
0010
0103
0110
1000
,
0200
0010
0301
0002
0103
0110
0110
1000
,
2001
0000
0100
3010
0120
0000
1000
0130
,
1020
0000
0100
0031
0120
0000
0001
1030
,
1002
0000
0010
0103
0120
0000
1000
0031
,
0102
0000
1000
0013
1020
0000
1000
0031
,
2010
0000
0010
0010
0001
0001
0010
0010
,
0001
0001
0010
0010
0001
3001
0100
0001
,
0102
1000
0013
0120
1000
0031
0120
0130
,
1002
0000
0100
0000
0013
0000
2100
0000
3100
0010
0100
0000
0010
0001
0100
0000
,
0202
0000
0000
0000
,
0000
0000
0000
0000
,
0303
0000
0000
0000
;

//---------------dance-single - ----------------
#NOTES:
     dance-single:
     :
     Medium:
     7:
     0.550,0.639,0.420,0.301,0.135:
1001
0001
0001
0001
,
0010
0010
1000
1000
0010
0100
0010
0000
,
0001
1000
0010
0100
,
1000
0100
0010
0001
0100
0100
0010
0010
,
1000
0100
0010
0100
,
0001
0000
1000
1000
0010
0010
0100
0001
,
0100
0000
1000
0010
0000
0100
0000
0110
,
0000
1000
0000
1001
1001
0000
0110
0000
,
1010
0000
0100
0010
0100
0010
1000
0000
,
0010
0000
0100
0010
0100
0010
0100
0000
,
0010
0100
0001
1000
0000
0110
0000
1000
,
0001
0000
1000
0000
0001
0000
1000
0000
0001
0000
1000
0000
1000
0100
0000
0000
,
0100
0001
0000
0100
0010
0000
0100
0010
0000
0010
0000
1000
0100
0000
0000
0100
,
0001
0000
1000
0100
0000
0001
0100
0010
0000
0100
0000
0000
2000
0000
0100
0000
,
3002
0000
0100
0000
2003
0000
0100
0000
3001
0000
0001
0100
2000
0000
0000
0000
,
3000
0001
1000
0002
0000
0100
0000
0103
0000
1000
0100
0010
0100
0000
0000
0000
,
0100
0010
0100
0010
0100
0010
0100
0000
,
1000
0010
2000
3010
0000
0010
0000
0010
,
1000
0100
0001
0100
1000
0000
1100
0000
,
0110
0002
0103
2000
,
3002
1003
0101
1010
,
0001
0010
1000
0010
0001
0000
1000
0100
,
0001
0100
1000
0000
0010
0100
1000
0100
,
0010
0000
0001
0010
0100
0010
0001
0000
,
0001
1000
0001
1000
0001
1000
0001
1000
,
0001
1000
0001
1000
0001
1000
0001
0000
,
0110
0000
1000
0010
0000
0010
1000
0000
0000
0000
0001
0100
0000
0100
0001
0000
,
0000
0000
1000
0010
0000
0010
1000
0000
1000
0010
0100
0000
1001
0000
0000
0000
,
1001
1001
1001
0110
,
0110
0110
0110
2002
,
0000
0000
3003
1001
,
0000
0000
0000
0000
,
1001
0000
0100
0010
0000
0100
0010
0000
,
1001
0000
0100
0010
0000
0001
0010
0000
,
1001
0000
0100
0010
0000
0100
0010
0000
,
1001
0000
0010
0100
0000
1000
0100
0000
,
1001
0000
0100
0010
0000
0010
0100
0000
,
0001
0100
0000
0100
1000
0000
0110
0000
,
0010
0001
0000
0001
0100
0000
0010
0000
,
0200
0000
0310
0100
0010
0000
0010
2000
,
0000
3000
0000
0001
0100
0000
0100
1000
,
0002
0000
0023
2030
0000
3002
0000
0000
,
0103
0000
0100
1000
0000
0100
0010
0000
,
0110
0000
0001
0100
0000
0010
0100
0000
,
1001
0000
0100
0010
0100
0000
0010
0100
,
0020
0000
0000
0030
0110
0000
0001
2000
,
0000
3000
0110
1000
,
0102
0000
0000
0003
0001
0000
0020
2000
,
0030
0000
3010
0100
0010
0100
0010
0100
,
0010
0100
0010
0100
0010
0100
0010
0000
,
0102
0000
0013
0120
0000
0031
0110
0000
,
1002
0000
0013
2100
0000
3100
0000
0000
,
0202
0000
0000
0000
,
0000
0000
0000
0000
,
0303
0000
0000
0000
;

//---------------dance-single - ----------------
#NOTES:
     dance-single:
     :
     Easy:
     5:
     0.366,0.465,0.226,0.280,0.070:
1001
0001
0001
0001
,
0010
1000
0010
0010
,
0001
1000
0010
0100
,
1000
0010
0100
0010
,
1000
0100
0010
0100
,
0001
1000
0010
0100
,
0100
0000
0000
0010
0000
0100
0000
0110
,
0000
1000
0000
0001
1000
0000
0010
0000
,
0100
0100
0100
1000
,
0010
0100
0100
0100
,
0010
0000
0001
0000
0000
0110
0000
1000
,
0000
0001
0000
1000
0000
0001
1000
0100
,
0001
0000
0100
0000
1000
0000
0100
0000
0000
0001
0000
1000
0000
0100
0000
0001
,
0000
0100
0000
1000
0000
0100
0000
0001
0000
0100
0000
0000
2000
0000
0000
0000
,
3200
0000
0320
0000
0031
0001
2000
0000
,
3000
0001
0000
2000
0000
0000
0000
3001
0000
1000
0000
0000
0100
0000
0000
0000
,
0100
0010
0100
0010
,
0000
2000
0000
3010
0000
0000
0010
0000
,
1000
0001
1000
0100
,
0000
0002
0000
0103
0000
0000
2000
0000
,
0000
3001
0000
1001
,
0000
0002
0000
2003
,
0000
3002
0000
2003
,
0000
0000
0000
3001
,
1000
0001
1000
0001
,
1000
0001
1000
0001
,
0010
1000
0010
1000
0000
0001
0100
0001
,
0000
1000
0010
1000
0010
0100
1000
0000
,
0001
1000
0001
0100
,
0010
0100
0010
2002
,
0000
3003
0000
1001
,
0000
0000
0000
0000
,
1001
0100
0010
0100
,
1001
0100
0010
0100
,
0002
0000
0003
0010
,
1000
0010
0100
0001
,
2000
0000
3000
0100
,
0001
0100
1000
0110
,
1001
0010
0100
0010
,
0200
0310
0010
2000
,
0000
0000
3000
0001
0000
0100
0000
0000
,
0001
0000
0000
2000
0000
3002
0000
2000
,
3003
1000
0010
0010
,
0100
0001
0010
0100
,
1001
0100
0100
0010
,
0020
0000
0030
0000
0110
0000
0000
2000
,
0000
3000
0110
1000
,
1001
0000
0000
0000
0001
0000
0000
2000
,
0000
3010
0100
0010
,
0100
0010
0100
0100
,
1001
0000
0000
0110
0000
0000
0110
0000
,
1001
0000
0000
0110
0000
0110
0000
0000
,
0220
0000
0000
0000
,
0000
0000
0000
0000
,
0330
0000
0000
0000
;

//---------------dance-single - ----------------
#NOTES:
     dance-single:
     :
     Beginner:
     2:
     0.201,0.232,0.086,0.151,0.011: // measure 1
1001
0000
0001
0000
,  // measure 2
0010
0000
0010
0000
,  // measure 3
0001
0000
0010
0000
,  // measure 4
1000
0000
0010
0000
,  // measure 5
1000
0000
0010
0000
,  // measure 6
0001
0000
0010
0000
,  // measure 7
0100
0000
0000
0010
0000
0000
0000
0110
,  // measure 8
0000
0000
0000
0001
0000
0000
0010
0000
,  // measure 9
0000
0100
0000
1000
,  // measure 10
0000
0100
0000
0100
,  // measure 11
0000
0000
0001
0000
0000
0110
0000
0000
,  // measure 12
0000
0001
0000
0000
0000
0000
1000
0000
,  // measure 13
0001
0000
0000
0000
1000
0000
0000
0001
0000
0000
0000
0000
0100
0000
0000
0000
,  // measure 14
0100
0000
0000
0000
0100
0000
0000
0010
0000
0000
0000
0000
2000
0000
0000
0000
,  // measure 15
0000
0000
3001
0002
,  // measure 16
0000
0000
0000
0000
0000
0000
0000
0000
0000
0003
0000
0000
0100
0000
0000
0000
,  // measure 17
0100
0000
0100
0010
,  // measure 18
0000
1000
0000
0001
0000
0000
0010
0000
,  // measure 19
1000
0000
1000
0100
,  // measure 20
0000
0001
0000
0100
0000
0000
2000
0000
,  // measure 21
0000
0000
0000
3001
,  // measure 22
0000
0002
0000
2000
,  // measure 23
0000
3003
0000
2000
,  // measure 24
0000
0000
0000
3001
,  // measure 25
0000
1000
0000
0001
,  // measure 26
0000
1000
0000
0001
,  // measure 27
0010
0000
0010
0000
0000
0001
0000
0001
,  // measure 28
0000
1000
0000
0000
0010
0000
1000
0000
,  // measure 29
0000
1000
0000
0001
,  // measure 30
0000
0010
0000
0002
,  // measure 31
0000
0000
0000
1003
,  // measure 32
0000
0000
0000
0000
,  // measure 33
1000
0000
0010
0000
,  // measure 34
0001
0000
0100
0000
,  // measure 35
0002
0000
0003
0000
,  // measure 36
1000
0000
0100
0000
,  // measure 37
2000
0000
3000
0000
,  // measure 38
0001
0000
1000
0000
,  // measure 39
1001
0000
0100
0000
,  // measure 40
0200
0300
0010
2000
,  // measure 41
0000
3000
0001
0000
,  // measure 42
0001
0000
0000
2000
0000
0000
0000
0000
,  // measure 43
3000
0000
0010
0000
,  // measure 44
0100
0000
0010
0000
,  // measure 45
1001
0000
0100
0000
,  // measure 46
0010
0000
0110
0000
,  // measure 47
1000
0000
0110
0000
,  // measure 48
1001
0000
0000
0000
0001
0000
0000
2000
,  // measure 49
0000
3010
0000
0100
,  // measure 50
0000
0010
0000
0000
,  // measure 51
0001
0000
0000
0010
0000
0000
0100
0000
,  // measure 52
1000
0000
0000
0100
0000
0010
0000
0000
,  // measure 53
0002
0000
0000
0000
,  // measure 54
0000
0000
0000
0000
,  // measure 55
0003
0000
0000
0000
;
