#TITLE:I love you 私の君;
#SUBTITLE:みんなのリズム天国 リミックス8;
#ARTIST:THE ダッシボー;
#TITLETRANSLIT:I love you (Japanese ver.);
#SUBTITLETRANSLIT:Rhythm Heaven Fever Remix 8;
#ARTISTTRANSLIT:THE Dasshou;
#GENRE:;
#CREDIT:TaroNuke;
#BANNER:ILY-bn.png;
#BACKGROUND:ILY-bg.png;
#LYRICSPATH:;
#CDTITLE:;
#MUSIC:I love you.mp3;
#OFFSET:-1.050;
#SAMPLESTART:11.149;
#SAMPLELENGTH:12.000;
#SELECTABLE:YES;
#BPMS:0.000=95.000,16.000=190.000;
#STOPS:;
#BGCHANGES:;
#KEYSOUNDS:;

//---------------dance-single - TaroNuke----------------
#NOTES:
     dance-single:
     TaroNuke:
     Hard:
     9:
     0.671,0.821,0.751,0.714,0.751:
0000
0000
0000
0000
,
0000
0000
0000
0000
0000
0000
0001
0010
,
0200
0000
2300
0000
,
3020
0000
2000
3030
,
1010
0000
0000
1010
0000
0000
1010
0000
0000
0000
0000
1100
,
0000
0000
1100
0000
0000
1000
0001
0000
0000
1001
0000
0000
,
0011
0000
0000
0011
0000
0000
0011
0000
0000
0000
0000
0101
,
0000
0000
0101
0000
0000
0000
1000
0100
0010
0001
0010
0100
,
1000
0000
0000
1001
0000
0000
1010
0000
0000
0000
0000
1100
,
0000
0000
1100
0000
0000
1000
0001
0000
0000
1001
0000
0000
,
0011
0000
0000
1001
0000
0000
0011
0000
0000
0000
0000
0101
,
0000
0000
0101
0000
0000
0000
1000
0100
1000
0001
0100
0001
,
1000
0100
0000
0001
,
0010
0000
0000
0000
0000
1000
0010
0000
0010
0100
0000
0100
,
0001
0100
0000
1000
,
0010
0000
0000
0000
0000
0001
0010
0000
0010
0100
0000
0100
,
2000
0000
0000
3000
0020
0000
0000
0000
,
0230
0300
0000
0000
0011
0000
0101
0000
,
2002
0000
0000
3003
,
1000
0010
0100
0010
0100
0001
1000
0100
0010
0001
0010
0100
,
1000
0000
1000
0001
0000
0001
0100
0000
0100
0001
0000
0011
,
0000
0000
1001
0000
0000
0010
1000
0000
1000
0100
0000
0100
,
0001
0000
0000
0100
0000
0000
1000
0000
0000
0010
0000
1000
,
0000
0000
1001
0000
0000
0001
1000
0000
1000
0010
0000
0010
,
0200
1000
0001
1000
,
0320
1000
0001
1030
,
2002
0000
0000
3003
,
0220
0330
0002
0000
,
1003
0000
0000
0000
0000
0000
0010
0000
0100
0000
0000
2002
,
0000
0000
0000
0000
3003
M00M
0000
0000
0000
0001
0000
0000
,
1000
0000
0000
1000
0000
0000
0010
0000
0100
0000
0000
0220
,
0000
0000
0000
0000
0330
0MM0
0000
0000
0000
0000
0000
0000
,
1010
0000
0000
0000
0000
0001
0100
0000
0000
0000
0000
1000
,
0010
0000
0000
0000
0000
0001
0100
0000
0000
0000
0000
0200
,
0302
0003
0000
2002
3003
0000
0202
0303
0000
2002
3003
0000
,
0202
0303
0000
0000
0000
0220
0000
0330
0000
0000
0000
0000
,
1000
0000
0000
0000
0000
0000
0200
0000
0000
0000
0000
0000
0002
0000
0000
0303
0000
0000
0000
0000
0000
0000
0101
0000
,
0000
0000
0101
0000
0000
0100
1000
0000
1000
0010
0000
0100
,
0001
0000
0000
0100
0000
0000
1000
0000
0000
0000
0000
1100
,
0000
0000
1100
0000
0000
0100
0001
0000
0010
0100
0000
1000
,
0002
0203
0320
0230
,
0302
0023
0230
0320
,
0031
0000
0000
0001
0000
0010
0000
0000
0100
0000
0000
2000
,
0000
0000
0000
0000
0000
3001
0000
0000
0001
0100
0000
0010
,
0000
0000
0200
0000
0000
2000
0000
0000
3300
0000
0000
1100
,
0000
0000
1100
0000
0000
0100
0000
0000
0010
0100
0000
0002
,
0000
0000
0023
0000
0000
0000
0000
0000
0000
0000
0000
1030
,
0000
0000
1010
0000
0000
0010
0100
0000
0100
1000
0000
1000
,
0020
0000
0000
0000
0000
0000
2030
0000
0000
0000
0000
3100
,
0000
0000
1100
0000
0000
1001
0000
0000
0101
0000
0000
1000
,
0002
0203
0302
0023
,
0230
0000
0000
2300
0000
0000
3001
0100
0001
1000
0010
1000
,
0001
0000
0000
0010
0000
0000
1000
0000
0000
0000
0000
1010
,
0000
0000
1010
0000
0000
0010
0001
0000
0001
0100
0000
0010
,
1000
0000
0000
0010
0000
0000
0001
0000
0000
0000
0000
0011
,
0000
0000
0011
0000
0000
0010
1000
0000
0100
0010
0000
0001
,
2000
3020
0032
0023
,
2030
3200
0302
0203
,
1300
0000
0000
1000
0000
1100
0000
0000
0110
0000
0000
0011
,
0000
0000
0001
1000
0000
1000
0001
0000
0001
0010
0000
0100
,
0000
0000
0020
0000
0000
2000
0000
0000
3030
0000
0000
1010
,
0000
0000
1010
0000
0000
0010
0000
0000
0100
0010
0000
0002
,
0000
0000
0203
0000
0000
0000
0000
0000
0000
0000
0000
1300
,
0000
0000
1100
0000
0000
0100
0010
0000
0010
1000
0000
1000
,
0200
0000
0000
0000
0000
0000
2300
0000
0000
0000
0000
3010
,
0000
0000
1001
0000
0000
0101
0000
0000
1001
0000
0000
0010
,
2000
3200
2300
3020
,
0230
0000
0000
0302
0000
0000
1003
0100
1000
0001
0100
0001
,
1000
0000
0000
0000
0000
0000
0000
0000
0000
1000
0000
0001
,
0000
0000
0001
0000
0000
0000
1000
0010
0100
0001
0100
0010
,
1000
0000
0000
1010
0000
0000
1010
0000
0000
0000
0000
1100
,
0000
0000
1100
0000
0000
1000
0001
0000
0000
1001
0000
0000
,
0011
0000
0000
0011
0000
0000
0011
0000
0000
0000
0000
0101
,
0000
0000
0101
0000
0000
0000
1000
0100
0010
0001
0010
0100
,
1000
0000
0000
1001
0000
0000
1010
0000
0000
0000
0000
1100
,
0000
0000
1100
0000
0000
1000
0001
0000
0000
1001
0000
0000
,
0011
0000
0000
1001
0000
0000
0011
0000
0000
0000
0000
0101
,
0000
0000
0101
0000
0000
0000
1000
0100
1000
0001
0100
0001
,
1000
0000
0000
1000
0000
0000
0000
0000
0000
0000
0000
1000
,
0001
0000
0001
0100
0000
0100
0010
0000
0010
1000
0000
1000
,
0001
2002
3003
0000
;

//---------------dance-single - TaroNuke----------------
#NOTES:
     dance-single:
     TaroNuke:
     Medium:
     6:
     0.368,0.372,0.158,0.195,0.102:
0000
0000
0000
0000
,
0000
0000
0000
0000
,
0000
0000
0000
0000
,
0020
0000
0000
0000
,
1030
0000
0000
1000
0000
0000
1000
0000
0000
0000
0000
0001
,
0000
0000
0001
0000
0000
0000
1001
0000
0000
0000
0000
0000
,
0001
0000
0000
0001
0000
0000
0001
0000
0000
0000
0000
1000
,
0000
0000
1000
0000
0000
0000
0020
0000
0000
0030
0000
0000
,
1000
0000
0000
0001
0000
0000
1000
0000
0000
0000
0000
0010
,
0000
0000
0100
0000
0000
0000
0110
0000
0000
0000
0000
0000
,
0001
0000
0000
1000
0000
0000
0001
0000
0000
0000
0000
0100
,
0000
0000
0100
0000
0000
0000
0002
0000
0000
2003
0000
0000
,
3001
0100
0000
1000
,
0010
0000
0001
1000
,
0001
0010
0000
1000
,
0100
0000
0001
1000
,
0020
0000
0230
0000
,
0302
0000
2003
0000
,
3200
0000
0000
0000
,
0320
0000
0000
0000
,
0031
0100
0000
1000
,
0010
0000
0001
1000
,
0001
0100
0000
1000
,
0010
0000
0001
0100
,
0020
0000
2030
0000
,
3002
0000
0203
0000
,
0320
0000
0000
0000
,
2030
3000
0000
0000
,
1000
0100
0010
0001
,
0200
0000
1300
0000
,
0001
0010
0100
1000
,
0200
0000
0301
0000
,
1000
0100
1000
0100
,
0010
0001
0010
0001
,
1001
1001
1001
1001
,
1001
0000
0000
0000
,
1000
0100
1000
0100
,
0010
0001
0010
0001
,
1000
0010
1000
0010
,
0100
0001
0100
0001
,
1000
1000
1000
0000
,
0001
0001
0001
0000
,
1000
0000
0000
0000
0000
0100
0000
0000
0010
0000
0000
0001
,
0000
0011
0011
0011
,
0001
0100
0001
0100
,
0010
1000
0010
1000
,
0100
1000
0100
1000
,
0001
0010
0001
0010
,
0001
0001
0001
0000
,
1000
1000
1000
0000
,
0100
0001
0100
1000
,
0100
0001
0100
1000
,
0001
0010
0001
0010
,
0001
1000
0001
1000
,
0001
0100
0001
0100
,
0001
1000
0001
1000
,
0010
0010
0010
0000
,
0100
0100
0100
0000
,
0001
0000
0000
0000
0000
0010
0000
0000
0100
0000
0000
1000
,
0000
1010
1010
1010
,
1000
0010
1000
0010
,
1000
0001
1000
0001
,
1000
0100
1000
0100
,
1000
0001
1000
0001
,
0010
0010
0010
0000
,
0100
0100
0100
0000
,
1000
0010
0001
0010
,
1000
0010
0001
0010
,
1000
0000
0000
0000
,
0001
0000
0000
0000
,
1000
0000
0000
1000
0000
0000
1000
0000
0000
0000
0000
0001
,
0000
0000
0001
0000
0000
0000
1001
0000
0000
0000
0000
0000
,
0001
0000
0000
0001
0000
0000
0001
0000
0000
0000
0000
1000
,
0000
0000
1000
0000
0000
0000
0020
0000
0000
0030
0000
0000
,
1000
0000
0000
0001
0000
0000
1000
0000
0000
0000
0000
0010
,
0000
0000
0100
0000
0000
0000
0110
0000
0000
0000
0000
0000
,
0001
0000
0000
1000
0000
0000
0001
0000
0000
0000
0000
0100
,
0000
0000
0100
0000
0000
0000
0002
0000
0000
2003
0000
0000
,
3001
0001
0000
0000
,
1000
0010
0100
0001
,
1001
1001
0000
0000
;

//---------------dance-single - TaroNuke----------------
#NOTES:
     dance-single:
     TaroNuke:
     Easy:
     4:
     0.276,0.298,0.037,0.083,0.005:
0000
0000
0000
0000
,
0000
0000
0000
0000
,
0000
0000
0000
0000
,
0020
0000
0000
0030
,
1000
1000
1000
0000
,
0001
0001
0001
0000
,
1000
1000
1000
0000
,
0001
0000
1000
0001
,
1000
1000
1000
0000
,
0001
0001
0001
0000
,
1000
1000
1000
0000
,
0001
0000
1000
0001
,
1000
0001
0000
1000
,
0001
0000
1000
0000
,
0010
0100
0000
0010
,
0100
0000
0010
0000
,
2000
3000
0200
0300
,
0020
0030
0002
0003
,
2000
3000
0002
0003
,
1000
0010
1000
0000
,
1000
0001
0100
0001
,
0010
0000
0001
0000
,
1000
0010
1000
0100
,
1000
0000
0001
0000
,
1000
0001
1000
0000
,
0001
1000
0001
0000
,
0100
0000
0100
0000
,
0100
0000
0000
0000
,
1000
0000
0010
0000
,
0001
0000
0000
0000
,
0001
0000
0100
0000
,
1000
0000
0000
0000
,
1001
0000
1001
0000
,
0110
0000
0110
0000
,
1000
1000
1000
1000
,
1000
0000
0000
0000
,
1000
0000
0100
0000
,
0001
0000
0100
0000
,
1000
0000
0010
0000
,
0001
0000
0010
0000
,
1000
0000
1000
0000
,
0001
0000
0001
0000
,
0100
0100
0100
0100
,
0100
0000
0000
0000
,
0001
0000
0100
0000
,
1000
0000
0100
0000
,
0001
0000
0010
0000
,
1000
0000
0010
0000
,
0001
0000
0001
0000
,
1000
0000
1000
0000
,
0100
0100
0100
0100
,
0100
0000
1000
0001
,
1000
0010
1000
0000
,
0000
0000
0001
1000
,
0001
0100
0001
0000
,
0000
0000
0000
0000
,
1000
0000
0001
0000
,
0100
0010
0100
0010
,
0100
0100
0100
0100
,
0100
0000
0001
0100
,
0001
0010
0001
0000
,
0000
0000
1000
0010
,
1000
0100
1000
0000
,
0000
0000
0010
1000
,
0001
0000
1000
0000
,
0100
0010
0100
0010
,
0100
0100
0100
0100
,
0100
0000
1000
0001
,
1000
0000
0000
0000
0000
0000
0000
0000
0000
1000
0000
0001
,
0000
0000
1000
0001
,
1000
1000
1000
0000
,
0001
0001
0001
0000
,
1000
1000
1000
0000
,
0001
0000
1000
0001
,
1000
1000
1000
0000
,
0001
0001
0001
0000
,
1000
1000
1000
0000
,
0001
0000
1000
0001
,
1000
1000
0000
0000
,
0002
0000
2003
0000
,
3001
0001
0000
0000
;

//---------------dance-single - TaroNuke----------------
#NOTES:
     dance-single:
     TaroNuke:
     Beginner:
     2:
     0.188,0.298,0.000,0.102,0.005:
0000
0000
0000
0000
,
0000
0000
0000
0000
,
0000
0000
0000
0000
,
0200
0000
0000
0300
,
0001
0000
0000
0000
,
1000
0000
0000
0000
,
0001
0000
0000
0000
,
1000
0000
0001
1000
,
0001
0000
0000
0000
,
1000
0000
0000
0000
,
0001
0000
0000
0000
,
1000
0000
0000
0000
,
0001
0001
0000
0001
,
0001
0000
0001
0000
,
1000
1000
0000
1000
,
1000
0000
1000
0000
,
0002
0003
0020
0030
,
0200
0300
2000
3000
,
0001
0000
1000
0000
,
0001
0000
0001
0000
,
1000
0000
1000
0000
,
0010
0000
0010
0000
,
1000
0000
1000
0000
,
0001
0000
0001
0000
,
0100
0000
0001
0000
,
1000
0000
1000
0000
,
0010
0000
0000
0000
,
0000
0000
0000
0000
,
0001
0000
0100
0000
,
1000
0000
0000
0000
,
1000
0000
0010
0000
,
0001
0000
0000
0000
,
1000
0000
0001
0000
,
1000
0000
0001
0000
,
0010
0010
0010
0010
,
0010
0000
0000
0000
,
0001
0000
0010
0000
,
1000
0000
0010
0000
,
0001
0000
0100
0000
,
1000
0000
0100
0000
,
0001
0000
0001
0000
,
1000
0000
1000
0000
,
0020
0000
0000
0000
,
0030
0000
0000
0000
,
1000
0000
0010
0000
,
0001
0000
0010
0000
,
1000
0000
0100
0000
,
0001
0000
0100
0000
,
1000
0000
1000
0000
,
0001
0000
0001
0000
,
0020
0000
0000
0000
,
0030
0000
0000
0000
,
0001
0000
0100
0000
,
0010
0000
1000
0000
,
0001
0000
1000
0000
,
0010
0000
0100
0000
,
0001
0000
1000
0000
,
0010
0000
0010
0000
,
0020
0000
0000
0000
,
0030
0000
0000
0000
,
1000
0000
0010
0000
,
0100
0000
0001
0000
,
1000
0000
0100
0000
,
0010
0000
0001
0000
,
1000
0000
0001
0000
,
0010
0000
0010
0000
,
0020
0000
0000
0000
,
0030
0000
0001
0000
,
0001
0000
0000
0000
0000
0000
0000
0000
0000
0001
0000
1000
,
0000
0000
0000
0000
,
0001
0000
0000
0000
,
1000
0000
0000
0000
,
0001
0000
0000
0000
,
1000
0000
0001
1000
,
0001
0000
0000
0000
,
1000
0000
0000
0000
,
0001
0000
0000
0000
,
1000
0000
0001
1000
,
0001
0001
0000
0000
,
2000
0000
3002
0000
,
1003
1000
0000
0000
;
