#VERSION:0.81;
#TITLE:Gravity (Cahill Radio Edit);
#SUBTITLE:;
#ARTIST:Pixie Lott;
#TITLETRANSLIT:;
#SUBTITLETRANSLIT:;
#ARTISTTRANSLIT:;
#GENRE:;
#ORIGIN:;
#CREDIT:hooky;
#BANNER:Gravity (Cahill Radio Edit).png;
#BACKGROUND:Gravity (Cahill Radio Edit)-bg.png;
#JACKET:Gravity (Cahill Radio Edit)-jacket.png;
#CDIMAGE:;
#DISCIMAGE:;
#LYRICSPATH:;
#CDTITLE:;
#MUSIC:Gravity (Cahill Radio Edit).ogg;
#OFFSET:-0.049;
#SAMPLESTART:41.760;
#SAMPLELENGTH:15.000;
#SELECTABLE:YES;
#DISPLAYBPM:125.000;
#BPMS:0.000=125.000;
#STOPS:;
#DELAYS:;
#WARPS:;
#TIMESIGNATURES:0.000=4=4;
#TICKCOUNTS:0.000=4;
#COMBOS:0.000=1;
#SPEEDS:0.000=1.000=0.000=0;
#SCROLLS:0.000=1.000;
#FAKES:;
#LABELS:0.000=Song Start;
#BGCHANGES:-4.000=cdtitle.png=1.000=0=0=0=StretchNoLoop====,
-0.500=Gravity (Cahill Radio Edit).avi=1.000=0=0=0=StretchNoLoop====,
99999=-nosongbg-=1.000=0=0=0 // don't automatically add -songbackground-
;
#KEYSOUNDS:;
#ATTACKS:
;

//---------------dance-single - hooky----------------
#NOTEDATA:;
#CHARTNAME:hooky;
#STEPSTYPE:dance-single;
#DESCRIPTION:hooky;
#CHARTSTYLE:;
#DIFFICULTY:Hard;
#METER:7;
#RADARVALUES:0.438,0.404,0.447,0.206,0.034,281.000,52.000,24.000,0.000,0.000,0.000,0.000,0.000,0.438,0.404,0.447,0.206,0.034,281.000,52.000,24.000,0.000,0.000,0.000,0.000,0.000;
#CREDIT:hooky;
#OFFSET:-0.049;
#BPMS:0.000=125.030
;
#STOPS:;
#DELAYS:;
#WARPS:;
#TIMESIGNATURES:0.000=4=4
;
#TICKCOUNTS:0.000=4
;
#COMBOS:0.000=1
;
#SPEEDS:0.000=1.000=0.000=0
;
#SCROLLS:0.000=1.000
;
#FAKES:;
#LABELS:0.000=Song Start
;
#DISPLAYBPM:125.000;
#NOTES:
0000
0000
0000
0000
,
0000
0000
0000
0000
,
0001
0000
1001
0000
0100
0010
0100
0000
,
1000
1100
0001
0011
,
0100
0000
0110
0000
1000
0001
1000
0000
,
0100
0010
0001
0000
1000
0010
0100
0000
,
1000
0000
1001
0000
0010
0100
0010
0000
,
0001
0011
1000
1100
,
0010
0000
0110
0000
0001
1000
0001
0000
,
0010
0100
1000
0000
0001
0100
0010
0000
,
1000
0000
1100
0000
0010
0001
0010
0000
,
0100
0000
0110
0000
1000
0001
1000
0000
,
0001
0001
0011
0000
1000
1000
1100
0000
,
0010
0010
0110
0000
0001
0010
1001
0000
,
0100
0010
1000
0100
0010
0001
0100
0100
,
0110
0000
0010
0100
0001
0010
0100
1000
,
0110
0000
0001
0100
0010
1000
1001
0000
,
0110
0000
1000
0010
0100
0001
1001
0000
,
1100
0000
1000
0100
1000
0000
0010
0100
,
0010
0000
0001
1000
0001
0000
1000
0010
,
1000
0000
0001
0100
0001
0000
1000
0010
,
2020
0000
0000
3030
,
2000
3100
0002
0013
,
0100
0010
0100
0000
1000
0001
1000
0000
,
2000
3100
0002
0013
,
0200
1300
0020
0031
,
1000
0100
1000
0000
0010
0001
0010
0000
,
1001
0000
0110
0000
0010
0100
0010
0000
,
1000
0000
0000
0100
0000
0000
1000
0000
0000
0200
0000
0000
0300
0000
0000
0000
,
0001
0000
0000
0010
0000
0000
0001
0000
0000
0020
0000
0000
0030
0000
0000
0000
,
1000
1010
0001
0101
,
1000
1010
0001
0101
,
0010
0110
1000
1001
,
0220
0000
0000
0330
,
1000
0100
1000
0000
0010
0001
0010
0000
,
0100
0010
0100
0000
0001
1000
0001
0000
,
0100
0100
0110
0000
0001
0001
1001
0000
,
1000
1000
1100
0000
0010
0010
0110
0000
,
0001
0010
0001
0000
0100
0010
1000
0100
,
0110
0000
1000
0100
1000
0000
0001
0010
,
0110
0000
1000
0010
0100
0001
1001
0000
,
0110
0000
0001
0100
0010
1000
1001
0000
,
0011
0000
0001
0010
0001
0000
0100
0010
,
0100
0000
1000
0001
1000
0000
0001
0100
,
0001
0000
1000
0010
1000
0000
0001
0100
,
0202
0000
0000
0303
,
0002
0013
2000
3100
,
0010
0100
0010
0000
0001
1000
0001
0000
,
0002
0013
2000
3100
,
0020
0031
0200
1300
,
0001
0010
0001
0000
0100
1000
0100
0000
,
1001
0000
0110
0000
0100
0010
0100
0000
,
0001
0000
0000
0010
0000
0000
0001
0000
0000
0020
0000
0000
0030
0000
0000
0000
,
1000
0000
0000
0100
0000
0000
1000
0000
0000
0200
0000
0000
0300
0000
0000
0000
,
0001
0101
1000
1010
,
0001
0101
1000
1010
,
0100
0110
0001
1001
,
1000
0000
1100
0000
0011
0000
0001
1000
,
2002
0000
0000
3003
;

//---------------dance-single - hooky----------------
#NOTEDATA:;
#CHARTNAME:hooky;
#STEPSTYPE:dance-single;
#DESCRIPTION:hooky;
#CHARTSTYLE:;
#DIFFICULTY:Medium;
#METER:5;
#RADARVALUES:0.312,0.303,0.318,0.069,0.000,209.000,37.000,8.000,0.000,0.000,0.000,0.000,0.000,0.312,0.303,0.318,0.069,0.000,209.000,37.000,8.000,0.000,0.000,0.000,0.000,0.000;
#CREDIT:hooky;
#OFFSET:-0.049;
#BPMS:0.000=125.030
;
#STOPS:;
#DELAYS:;
#WARPS:;
#TIMESIGNATURES:0.000=4=4
;
#TICKCOUNTS:0.000=4
;
#COMBOS:0.000=1
;
#SPEEDS:0.000=1.000=0.000=0
;
#SCROLLS:0.000=1.000
;
#FAKES:;
#LABELS:0.000=Song Start
;
#DISPLAYBPM:125.000;
#NOTES:
0000
0000
0000
0000
,
0000
0000
0000
0000
,
1000
1100
0001
0011
,
0100
0101
0010
1010
,
0010
0100
0010
0000
0100
0010
0100
0000
,
0001
0011
1000
1100
,
0010
0110
0001
0101
,
1000
1100
0001
0011
,
0001
0100
0001
0000
1000
0010
1000
0000
,
0010
0110
1000
1001
,
0100
0100
0010
0010
,
1000
0000
0100
0000
0010
0000
0001
0100
,
0000
0010
0010
0110
,
0000
1000
1000
1100
,
0000
0000
0010
0000
0100
0000
0001
1000
,
0001
0000
0100
0000
0010
0000
1000
0100
,
1000
0010
0100
0000
,
0010
0010
0100
0000
,
0001
1000
0001
0000
,
0010
0000
1000
0100
1000
0000
0010
0000
,
0100
0000
0100
0000
,
0220
0000
0000
0330
,
0100
0001
0010
0001
,
0100
0000
0010
0000
1000
0100
1000
0000
,
0010
0010
0100
0100
,
0001
0001
1000
1000
,
0100
0110
0001
0101
,
1000
0000
1000
0000
0010
1000
0010
0000
,
0100
0000
0000
0010
0000
0000
0000
0000
,
0010
0000
0000
0100
0000
0000
0000
0000
,
0010
0110
0001
1001
,
1000
1100
0001
0011
,
0100
0101
0010
1010
,
0220
0000
0000
0330
,
0010
0010
0100
0100
,
0001
0000
0010
0000
0100
0000
1000
0010
,
0000
0100
0100
0110
,
0000
0001
0001
0011
,
0000
0000
0100
0000
0010
0000
1000
0001
,
1000
0000
0010
0000
0100
0000
0001
0010
,
0001
0100
0010
0000
,
0100
0100
0010
0000
,
1000
0001
1000
0000
,
0100
0000
0001
0010
0001
0000
0100
0000
,
0010
0000
0010
0000
,
2002
0000
0000
3003
,
0010
1000
0100
1000
,
0010
0000
0100
0000
0001
0010
0001
0000
,
0100
0100
0010
0010
,
1000
1000
0001
0001
,
0010
0110
1000
1010
,
0001
0000
0001
0000
0100
0001
0100
0000
,
0010
0000
0000
0100
0000
0000
0000
0000
,
0100
0000
0000
0010
0000
0000
0000
0000
,
0100
0110
1000
1001
,
0001
0011
1000
1100
,
0010
1010
0100
0101
,
1000
0000
1100
0000
0010
0001
0010
0000
,
2002
0000
0000
3003
;

//---------------dance-single - hooky----------------
#NOTEDATA:;
#CHARTNAME:hooky;
#STEPSTYPE:dance-single;
#DESCRIPTION:hooky;
#CHARTSTYLE:;
#DIFFICULTY:Easy;
#METER:3;
#RADARVALUES:0.201,0.202,0.043,0.155,0.000,141.000,5.000,18.000,0.000,0.000,0.000,0.000,0.000,0.201,0.202,0.043,0.155,0.000,141.000,5.000,18.000,0.000,0.000,0.000,0.000,0.000;
#CREDIT:hooky;
#OFFSET:-0.049;
#BPMS:0.000=125.030
;
#STOPS:;
#DELAYS:;
#WARPS:;
#TIMESIGNATURES:0.000=4=4
;
#TICKCOUNTS:0.000=4
;
#COMBOS:0.000=1
;
#SPEEDS:0.000=1.000=0.000=0
;
#SCROLLS:0.000=1.000
;
#FAKES:;
#LABELS:0.000=Song Start
;
#DISPLAYBPM:125.000;
#NOTES:
0000
0000
0000
0000
,
0000
0000
0000
0000
,
1000
0000
1000
0000
,
1000
0000
1000
0000
,
0001
0000
0001
0000
,
0001
0000
0001
0000
,
0100
0100
0100
0000
,
0010
0010
0010
0000
,
0200
0000
0310
0000
,
0002
1000
1003
0000
,
0010
0010
0100
0100
,
0001
1000
0100
0010
,
2000
0000
0000
3000
,
0002
0000
0000
0003
,
0100
0010
0100
0010
,
1000
0100
1000
0010
,
0100
0100
0001
0000
,
0001
0001
1000
0000
,
0010
0100
0010
0000
,
0001
1000
0100
0000
,
0010
0000
0010
0000
,
0220
0000
0000
0330
,
1000
0100
1000
1000
,
0001
0000
1000
0000
,
0010
0010
0100
0000
,
0100
0100
0010
0000
,
1000
0100
1000
0000
,
0010
0001
0010
0000
,
0200
0000
0000
0300
,
0020
0000
0000
0030
,
0001
0000
1000
0000
,
0001
0000
1000
0000
,
0010
0000
0100
0000
,
0220
0000
0000
0330
,
0100
0100
0010
0010
,
1000
0001
0010
0100
,
0002
0000
0000
0003
,
2000
0000
0000
3000
,
0010
0100
0010
0100
,
0001
0010
0001
0100
,
0010
0010
1000
0000
,
1000
1000
0001
0000
,
0100
0010
0100
0000
,
1000
0001
0010
0000
,
0100
0000
0100
0000
,
0220
0000
0000
0330
,
0001
0010
0001
0001
,
1000
0000
0001
0000
,
0100
0100
0010
0000
,
0010
0010
0100
0000
,
0001
0010
0001
0000
,
0100
1000
0100
0000
,
0020
0000
0000
0030
,
0200
0000
0000
0300
,
1000
0000
0001
0000
,
1000
0000
0001
0000
,
0100
0000
0010
0000
,
0100
0000
0011
0000
,
2002
0000
0000
3003
;

//---------------dance-single - hooky----------------
#NOTEDATA:;
#CHARTNAME:hooky;
#STEPSTYPE:dance-single;
#DESCRIPTION:hooky;
#CHARTSTYLE:;
#DIFFICULTY:Beginner;
#METER:1;
#RADARVALUES:0.059,0.075,0.009,0.000,0.000,47.000,1.000,0.000,0.000,0.000,0.000,0.000,0.000,0.059,0.075,0.009,0.000,0.000,47.000,1.000,0.000,0.000,0.000,0.000,0.000,0.000;
#CREDIT:hooky;
#OFFSET:-0.049;
#BPMS:0.000=125.030
;
#STOPS:;
#DELAYS:;
#WARPS:;
#TIMESIGNATURES:0.000=4=4
;
#TICKCOUNTS:0.000=4
;
#COMBOS:0.000=1
;
#SPEEDS:0.000=1.000=0.000=0
;
#SCROLLS:0.000=1.000
;
#FAKES:;
#LABELS:0.000=Song Start
;
#DISPLAYBPM:125.000;
#NOTES:
0000
0000
0000
0000
,
0000
0000
0000
0000
,
0000
0000
0000
0000
,
0000
0000
0000
0000
,
0000
0000
0000
0000
,
0000
0000
0000
0000
,
0010
0000
0000
0000
,
0000
0000
0000
0000
,
0000
0000
0000
0000
,
0000
0000
0000
0000
,
0010
0000
0000
0000
,
0000
0000
0000
0000
,
0010
0000
0000
0000
,
0000
0000
0000
0000
,
0010
0000
0000
0000
,
0010
0000
0000
0000
,
0010
0000
0000
0000
,
0010
0000
0000
0000
,
0010
0000
0000
0000
,
0010
0000
0000
0000
,
0010
0000
0000
0000
,
0010
0000
0000
0000
,
0100
0000
0000
0000
,
0100
0000
0000
0000
,
0100
0000
0000
0000
,
0100
0000
0000
0000
,
0100
0000
0000
0000
,
0100
0000
0000
0000
,
0100
0000
0000
0000
,
0100
0000
0000
0000
,
0100
0000
0000
0000
,
0010
0000
0000
0000
,
0010
0000
0000
0000
,
0100
0000
0000
0000
,
0100
0000
0000
0000
,
0000
0000
0000
0000
,
0100
0000
0000
0000
,
0000
0000
0000
0000
,
0100
0000
0000
0000
,
0100
0000
0000
0000
,
0100
0000
0000
0000
,
0100
0000
0000
0000
,
0100
0000
0000
0000
,
0100
0000
0000
0000
,
0100
0000
0000
0000
,
0100
0000
0000
0000
,
0010
0000
0000
0000
,
0010
0000
0000
0000
,
0010
0000
0000
0000
,
0010
0000
0000
0000
,
0010
0000
0000
0000
,
0010
0000
0000
0000
,
0010
0000
0000
0000
,
0010
0000
0000
0000
,
0010
0000
0000
0000
,
0100
0000
0000
0000
,
0100
0000
0000
0000
,
0010
0000
0100
0000
,
0110
0000
0000
0000
;
