#TITLE:Dances with Snow Fairies;
#SUBTITLE:;
#ARTIST:Dr. Honda;
#TITLETRANSLIT:;
#SUBTITLETRANSLIT:;
#ARTISTTRANSLIT:;
#GENRE:;
#CREDIT:;
#BANNER:;
#BACKGROUND:;
#LYRICSPATH:;
#CDTITLE:;
#MUSIC:Dances with Snow Fairies.mp3;
#OFFSET:-0.149;
#SAMPLESTART:68.863;
#SAMPLELENGTH:11.980;
#SELECTABLE:YES;
#BPMS:0.000=154.020
,0.125=154.020
;
#STOPS:
;
#BGCHANGES:;
#KEYSOUNDS:;
#ATTACKS:;

//---------------dance-single - Blank----------------
#NOTES:
     dance-single:
     :
     Hard:
     9:
     0.632,0.600,0.198,0.119,0.309,518.000,25.000,15.000,0.000,0.000,0.000,0.632,0.600,0.198,0.119,0.309,518.000,25.000,15.000,0.000,0.000,0.000: // measure 0
0000
0000
0000
0000
,  // measure 1
0000
0000
0000
0000
,  // measure 2
0000
0000
0000
0000
,  // measure 3
0000
0000
0000
0000
,  // measure 4
1000
0000
0001
0100
0010
0100
0001
0000
,  // measure 5
1000
0000
0010
0000
0100
0000
0000
0000
0001
0000
1000
0000
0001
0100
0001
0000
,  // measure 6
1000
0000
0001
0010
0100
0010
0001
0000
,  // measure 7
1000
0000
0010
0000
0100
0000
0000
0000
0001
0000
1000
0000
0100
1000
0100
0000
,  // measure 8
0010
0000
0100
1000
0010
0100
0001
0000
,  // measure 9
1000
0000
0100
0000
0001
0000
0000
0000
0100
0000
1000
0000
0010
0100
0010
0000
,  // measure 10
1000
0000
0001
1000
0100
1000
0001
0000
,  // measure 11
0100
0000
0010
0000
1000
0000
0000
0000
0100
0000
0010
0000
0001
1000
0001
0000
,  // measure 12
0100
0000
0010
1000
0100
0001
0100
0000
,  // measure 13
1000
0000
0010
0000
0100
0000
0000
0000
0001
0000
0010
0000
0100
1000
0001
0000
,  // measure 14
0100
0000
0010
0100
0001
0010
1000
0000
,  // measure 15
0010
0000
0001
0000
0100
0000
0000
0000
0010
0000
1000
0000
0100
0010
0001
0000
,  // measure 16
0100
0000
0010
1000
0100
0010
0001
0000
,  // measure 17
1000
0000
0010
0000
0001
0000
0000
0000
0010
0000
1000
0000
0100
1000
0010
0000
,  // measure 18
0100
0000
0001
0010
1000
0010
0001
0000
,  // measure 19
0100
0000
0010
0000
1000
0000
0000
0000
0001
0100
0001
0100
0001
0000
0000
0000
,  // measure 20
1001
0000
0000
1000
0100
0000
0000
1000
0010
0000
0000
1000
0001
0000
0000
1000
,  // measure 21
0010
0000
0000
1000
0100
0000
0000
1000
0010
0000
0000
1000
0001
0000
0000
0000
,  // measure 22
1001
0000
0000
0001
0010
0000
0000
0001
0100
0000
0000
0001
1000
0000
0000
0001
,  // measure 23
0100
0000
0000
0001
0010
0000
0000
0001
0100
0000
0000
0001
1000
0000
0000
0000
,  // measure 24
1001
0000
0000
1000
0001
0000
0000
1000
0010
0000
0000
1000
0100
0000
0000
1000
,  // measure 25
0010
0000
0000
1000
0001
0000
0000
1000
0010
0000
0000
1000
0100
0000
0000
0000
,  // measure 26
1001
0000
0000
0001
1000
0000
0000
0001
0100
0000
0000
0001
0010
0000
0000
0001
,  // measure 27
0100
0000
0000
0001
1000
0000
0000
0001
0200
0000
0000
0000
0302
0000
0000
0000
,  // measure 28
0103
0000
0010
0000
1000
0000
0100
0000
0010
0000
0001
0000
0100
0010
0000
0010
,  // measure 29
1000
0100
0010
0001
0100
0010
1000
0000
,  // measure 30
0010
0000
0100
0000
0001
0000
1000
0000
0100
0000
1000
0000
0010
0100
0000
0100
,  // measure 31
0001
0010
0100
1000
0010
0100
0001
0000
,  // measure 32
1000
0000
0100
0000
0010
0000
0100
0000
1000
0000
0010
0000
0100
0010
0000
0010
,  // measure 33
1000
0100
0010
0100
1000
0001
0010
0000
,  // measure 34
0001
0000
0100
0000
0010
0000
1000
0000
0100
0000
0010
0000
0001
0100
0000
0100
,  // measure 35
0010
1000
0100
0010
0001
1000
0100
0000
,  // measure 36
1000
0000
0010
0000
0100
0000
0001
0000
0010
0000
1000
0000
0010
0001
0000
0001
,  // measure 37
0100
1000
0100
0010
1000
0001
0010
0000
,  // measure 38
0001
0000
0100
0000
0010
0000
1000
0000
0100
0000
0010
0000
0001
0100
0000
0100
,  // measure 39
0001
0010
1000
0010
0001
0100
0010
0000
,  // measure 40
0100
0000
0001
0000
0010
0000
1000
0000
0010
0000
0001
0000
0100
1000
0000
1000
,  // measure 41
0100
0001
0010
0100
1000
0010
0100
0000
,  // measure 42
0001
0000
1000
0000
0010
0000
0100
0000
0001
0000
0010
0000
1000
0010
0000
0010
,  // measure 43
0001
0100
0010
1000
0100
0001
0100
1000
,  // measure 44
0010
0100
0001
1000
0010
0100
0001
1000
,  // measure 45
0010
0100
0001
1000
0010
0100
0001
1000
,  // measure 46
0001
0100
0010
1000
0001
0100
0010
1000
,  // measure 47
0001
0100
0010
1000
0001
0100
0010
0000
,  // measure 48
1000
0100
0010
0001
1000
0100
0010
0001
,  // measure 49
1000
0100
0010
0001
1000
0100
0010
0001
,  // measure 50
0100
0001
1000
0010
0100
0001
1000
0010
,  // measure 51
0100
0001
1000
0010
0100
0001
1000
0000
,  // measure 52
0020
0000
1030
0001
0020
0000
2030
0000
,  // measure 53
3020
0000
0031
0100
0010
0100
0001
0000
,  // measure 54
2000
0000
3010
0100
2000
0000
3200
0000
,  // measure 55
0302
0000
0013
0100
1000
0010
0100
0000
,  // measure 56
1002
0000
0103
0010
2000
0000
3200
0000
,  // measure 57
0302
0000
0103
1000
0010
0100
0001
0000
,  // measure 58
0100
1001
0010
1001
,  // measure 59
0011
0000
0000
0000
1001
0000
0000
0000
0100
0000
0000
1000
0000
0000
0010
0000
,  // measure 60
0100
0000
0100
0000
0001
0001
0000
1000
,  // measure 61
0000
1000
0000
0010
0010
0100
0001
0000
,  // measure 62
1000
0000
1000
0000
0010
0010
0000
0100
,  // measure 63
0000
0000
0100
0000
0000
0000
1002
0000
0000
0000
0000
0000
0103
0010
0100
0010
,  // measure 64
0100
0000
0101
0000
1001
1001
0000
0110
,  // measure 65
0000
0110
0000
1010
0000
0010
1000
0100
,  // measure 66
0110
0000
0000
0110
0000
0000
1010
0000
1001
0000
0011
0000
,  // measure 67
1001
0000
0000
0000
0011
0000
0000
0000
0001
1000
0001
1000
0001
0000
0100
0000
,  // measure 68
0010
1000
0010
0000
0100
0000
0001
0000
0010
0100
0010
0000
0001
0000
0100
0000
,  // measure 69
0010
1000
0010
0000
0001
0000
0000
0001
0000
0000
0001
0000
0010
0000
1000
0000
,  // measure 70
0100
0010
0100
0000
0010
0000
0001
0000
0100
0010
0100
0000
0010
0000
1000
0000
,  // measure 71
0001
0010
0001
0000
1000
0000
0000
1000
0000
0000
1000
0000
0010
0000
0001
0000
,  // measure 72
0010
1000
0010
0000
0100
0000
0001
0000
0010
1000
0010
0000
0001
0000
0100
0000
,  // measure 73
0010
1000
0010
0000
0100
0000
0000
0100
0000
0000
0100
0000
0001
0000
1000
0000
,  // measure 74
0010
0100
0001
0000
0010
0000
0100
0000
1000
0010
0100
0000
0001
0010
0000
0010
,  // measure 75
0000
0010
0000
0001
0000
1000
0000
0000
0110
0000
1001
0000
0000
0000
0000
0000
;

//---------------dance-single - Blank----------------
#NOTES:
     dance-single:
     :
     Easy:
     5:
     0.333,0.359,0.166,0.293,0.000,236.000,21.000,37.000,0.000,0.000,0.000,0.333,0.359,0.166,0.293,0.000,236.000,21.000,37.000,0.000,0.000,0.000:
0000
0000
0000
0000
,
0000
0000
0000
0000
,
0000
0000
0000
0000
,
0000
0000
0000
0000
,
1000
0000
0001
0100
,
0010
1000
0001
0010
,
0100
0000
0010
0001
,
1000
0100
1000
0001
,
0100
0000
1000
0100
,
0010
0001
0010
0100
,
1000
0000
0001
0100
,
0010
1000
0001
0101
,
1000
0000
0001
1000
,
0100
1000
0001
0010
,
0100
0000
1000
0001
,
0010
0001
0100
0010
,
1000
0000
0001
1000
,
0100
0010
0001
0010
,
0100
0000
1000
0001
,
0101
1000
1100
0001
,
2002
0000
0000
3003
,
2020
0000
0000
3030
,
0220
0000
0000
0330
,
0202
0000
0000
0303
,
2002
0000
0000
3003
,
0022
0000
0000
0033
,
0220
0000
0000
0330
,
2200
3300
0002
2003
,
3001
0100
0010
0010
,
1000
0100
0010
0001
,
1000
0010
0100
0100
,
0001
0010
0100
1000
,
0001
1000
0010
0010
,
1000
0100
0010
0001
,
1000
0001
0010
0010
,
0001
0010
0100
1000
,
1010
0100
0001
0001
,
1000
0010
0100
0001
,
1000
0100
1000
1000
,
0001
0100
0010
1000
,
1001
0100
0010
0010
,
1000
0010
0100
0001
,
1000
0100
1000
1000
,
0001
0100
0010
1000
,
0001
0010
1000
0010
,
0001
0010
1000
0010
,
0001
0010
1000
0010
,
0001
0100
0010
1000
,
0001
0100
1000
0100
,
0001
0100
1000
0100
,
0001
0100
1000
0100
,
0001
0010
0100
1000
,
0002
0000
0203
0320
,
0230
0000
0000
0000
,
0302
0000
0000
2003
,
3020
0000
0230
0302
,
2003
0000
3200
0320
,
0230
0000
0000
0000
,
2300
0000
0000
3002
,
0203
0000
0002
0303
,
1000
0000
1000
0000
0001
0000
0000
1000
,
0000
1000
0000
0001
0000
0000
1001
0000
,
0001
0000
0100
0000
0001
0000
0000
1000
,
0000
0100
0000
1000
0000
0000
1001
0000
,
0001
0000
0001
0000
1000
0000
0000
0001
,
0000
0001
0000
1000
0000
0000
1001
0000
,
0101
0000
1010
0000
,
1001
2200
3300
0001
,
0100
0001
0100
0001
,
0100
0001
0001
1000
,
0100
1000
0100
1000
,
0100
1000
1000
0001
,
0010
0001
0010
0001
,
0010
0001
0001
1000
,
0010
1000
0010
1000
,
1000
0001
0110
0000
;

//---------------dance-single - Blank----------------
#NOTES:
     dance-single:
     :
     Medium:
     6:
     0.454,0.419,0.111,0.198,0.008,362.000,14.000,25.000,0.000,0.000,0.000,0.454,0.419,0.111,0.198,0.008,362.000,14.000,25.000,0.000,0.000,0.000:
0000
0000
0000
0000
,
0000
0000
0000
0000
,
0000
0000
0000
0000
,
0000
0000
0000
0000
,
1000
0100
1000
0000
0001
0100
0001
0000
,
1000
0010
1000
0000
0001
0000
1000
0000
,
0001
0010
0001
0000
1000
0010
1000
0000
,
0001
0100
0001
0000
1000
0000
0001
0000
,
1000
0010
1000
0000
0001
0010
0001
0000
,
1000
0100
1000
0000
0001
0000
1000
0000
,
0001
0100
0001
0000
1000
0100
1000
0000
,
0001
0010
0001
0000
2000
0000
3002
0000
,
1003
0100
0010
0000
0001
0010
0100
0000
,
1000
0100
0010
0000
0001
0000
1000
0000
,
0001
0100
0010
0000
1000
0010
0100
0000
,
0001
0100
0010
0000
1000
0000
0001
0000
,
1000
0010
0100
0000
0001
0100
0010
0000
,
1000
0010
0100
0000
0001
0000
1000
0000
,
0001
0010
0100
0000
1000
0100
0010
0000
,
0001
0010
0100
0000
2000
0000
3002
0000
,
0103
0100
0100
0100
,
0100
0100
0100
0100
,
0010
0010
0010
0010
,
0010
0010
0010
0010
,
1001
1000
1000
1000
,
1000
1000
1000
1000
,
0001
0001
0001
0001
,
0001
0001
0200
0320
,
1030
0000
0001
0000
1000
0100
0010
0000
,
0001
1000
0010
0000
0100
0001
0010
0000
,
0001
0000
1000
0000
0010
0100
0001
0000
,
0010
0100
1000
0000
0010
0100
0010
0000
,
1000
0000
0001
0000
1000
0100
1000
0000
,
0001
0100
0010
0000
0100
0001
1000
0000
,
0001
0000
1000
0000
0001
0010
0001
0000
,
1000
0100
1000
0000
0002
0000
0103
0000
,
1001
0000
0010
0000
1000
0001
0100
0000
,
0001
0010
0100
0000
1000
0010
1000
0000
,
0001
0000
1000
0000
0001
0010
0100
0000
,
1000
0100
0010
0000
0001
1000
0010
0000
,
1001
0000
0001
0000
1000
0100
1000
0000
,
0001
0100
0001
0000
1000
0010
0100
0000
,
0001
0000
1000
0000
0001
0010
0100
0000
,
1000
0010
0100
0000
0002
0000
0013
0000
,
1000
0100
1000
0000
0010
1000
0010
0000
,
0001
0100
0001
0000
0100
0010
0100
0000
,
1000
0001
1000
0000
0010
0100
0010
0000
,
0001
0010
0001
0000
0100
1000
0100
0000
,
1000
0001
1000
0000
0010
0001
0010
0000
,
0001
1000
0001
0000
0100
0010
0100
0000
,
1000
0100
1000
0000
0010
0100
0010
0000
,
0001
1000
0001
0000
0100
0001
0100
0000
,
2001
0010
3002
0203
,
0320
0001
0100
0001
,
0230
0001
1000
0320
,
2030
0100
3002
0203
,
0320
0001
0230
0302
,
2003
0100
0010
0001
,
3100
1001
0010
1001
,
1100
0011
1010
0110
,
1000
0000
1000
0000
0001
0001
0000
0100
,
0000
0100
0000
0010
0000
1000
0001
0000
,
1000
0000
1000
0000
0001
0001
0000
0100
,
0000
0100
0000
2002
0000
0000
3003
0000
,
0010
0000
0010
0000
1000
1000
0000
0001
,
0000
0001
0000
0100
0000
0010
1000
0010
,
1000
0000
0000
1000
0000
0000
0001
0000
1000
0000
0001
0000
,
1001
0000
2200
0000
3300
0000
0001
0100
,
0010
0000
1000
0100
1000
0000
0001
1000
,
0100
0000
1000
0000
1000
0000
0001
0010
,
0100
0000
0010
0001
1000
0000
0010
0100
,
0001
0000
1000
0000
1000
0000
0010
0100
,
0001
0000
0010
0100
1000
0000
0001
0100
,
0010
0000
0100
0000
0100
0000
0001
0010
,
0100
0000
1000
0010
0100
0000
0001
0000
,
1000
0001
0110
0000
;
