#TITLE:桜花繚乱;
#SUBTITLE:[A Riot of Cherry Blossoms];
#ARTIST:悠然;
#TITLETRANSLIT:Oukaryouran;
#SUBTITLETRANSLIT:;
#ARTISTTRANSLIT:Yuuzen;
#GENRE:;
#CREDIT:Telperion;
#BANNER:okrr-bn.png;
#BACKGROUND:okrr-bg.png;
#LYRICSPATH:;
#CDTITLE:;
#MUSIC:okrr.ogg;
#OFFSET:-1.257;
#SAMPLESTART:43.979;
#SAMPLELENGTH:10.052;
#SELECTABLE:YES;
#DISPLAYBPM:191.000;
#BPMS:0.000=191.000
;
#STOPS:
;
#BGCHANGES:;
#KEYSOUNDS:;
#ATTACKS:;

//---------------dance-single - Telperion----------------
#NOTES:
     dance-single:
     :
     Hard:
     9:
     0.665,0.716,0.245,0.254,0.145,474.000,28.000,29.000,0.000,0.000,0.000,0.665,0.716,0.245,0.254,0.145,474.000,28.000,29.000,0.000,0.000,0.000:
0000
0000
0000
0000
,
0000
0000
0000
0000
,
0010
0001
1000
0001
0100
1000
0100
0010
,
1000
0001
1000
0100
0010
0100
1000
0000
,
0010
1000
0001
1000
0100
0001
0100
0010
,
0001
1000
0010
0100
0001
1000
0001
0000
,
0010
0001
0100
0010
0100
1000
0100
0001
,
0010
0001
0010
0100
1000
0001
1000
0000
,
0010
1000
0100
0010
0100
0001
0100
1000
,
0001
1000
0001
1000
0001
1000
0100
1000
,
0010
1010
0000
0110
0000
0101
0000
1001
,
0000
0011
0000
0010
0100
1000
0020
0000
,
0030
1010
0000
1001
0000
1100
0000
0110
,
0000
0011
0000
0001
1000
0001
0200
0000
,
0300
0110
0000
1010
0000
1001
0000
1100
,
0000
0110
0000
0011
0000
1000
0001
0100
,
0000
0110
0000
1010
0000
0001
1000
0200
,
0000
0300
0000
0000
0000
0000
0000
0000
,
1000
0001
0000
1000
0000
0000
0100
0000
1000
0000
0010
0000
0002
0000
0000
0000
,
0013
1000
0001
0100
0001
0010
0100
1000
,
0001
1000
0000
0001
0000
0000
0100
0000
0001
0000
0010
0000
2000
0000
0000
0000
,
3010
0100
1000
0001
0100
0010
1000
0010
,
0100
0001
0000
1000
0000
0001
0100
0000
0001
0000
1000
0000
0020
0000
0000
0000
,
1030
0100
0010
0001
0000
0010
0100
1000
,
0010
0001
0010
0100
1000
0100
0001
0010
,
0000
0000
0000
0000
0000
0020
0030
0000
,
0100
1000
0000
0001
0000
0000
1000
0000
0001
0000
0100
0000
2000
0000
0000
0000
,
3100
0001
0100
0010
1000
0100
0010
0001
,
0100
0001
0000
0100
0000
0000
0001
0000
1000
0000
0100
0000
0002
0000
0000
0000
,
0103
1000
0001
1000
0100
0010
0100
0010
,
0001
1000
0000
0001
0000
0000
0100
0000
0001
0000
1000
0000
0020
0000
0000
0000
,
1030
0100
1000
0001
1000
0010
0100
0010
,
0001
0010
1000
0100
0010
0100
1000
0002
,
0000
0203
0000
0301
0010
0100
0010
0000
,
0001
1000
0000
0001
0000
1000
0001
0000
0100
0000
0001
0000
0020
0000
0000
0000
,
0130
1000
0001
0100
0000
0010
0100
0001
,
1000
0001
0000
1000
0000
0001
1000
0000
0100
0000
1000
0000
0020
0000
0000
0000
,
1030
0100
1000
0001
0000
0010
0100
0010
,
0001
0100
1000
0100
0001
0100
1000
0000
,
0001
0010
1000
0010
0001
0000
1000
0100
,
0001
0010
0100
1000
0001
1000
0100
0010
,
0000
0000
0000
0000
,
0002
0000
0000
0010
,
1003
0010
0100
0001
,
0020
0000
0000
0000
,
0030
0100
1000
0010
,
2000
0100
0100
0100
,
3001
0010
0100
1000
,
0002
0100
2003
3100
,
0101
1100
0010
1100
,
0002
0100
0000
0013
,
0100
1000
0001
0100
,
0020
0100
0000
0100
,
0030
1000
0100
0010
,
0002
0100
0000
0100
,
0000
0013
0001
0100
,
2000
3100
0002
0103
,
0000
0000
0000
0000
,
0001
0010
0001
0100
0001
0010
0001
0100
,
0001
0010
0100
1000
0001
1000
0001
0000
,
1000
0010
1000
0100
1000
0010
1000
0100
,
1000
0010
0100
0001
0010
0001
1000
0000
,
0001
0010
0001
0100
0000
0001
0010
0100
,
1000
0010
1000
0100
0000
0010
0100
1000
,
0010
0000
0110
0000
0100
0101
0000
0101
,
0000
0000
0000
0000
,
0000
1000
0000
0001
0010
0010
0010
0000
,
0000
0000
0000
0000
,
0001
1000
0000
0001
0000
1000
0001
0000
0010
0000
0100
0000
0002
0000
0000
0000
,
0103
1000
0001
1000
0000
0010
0100
0001
,
1000
0001
0000
1000
0000
0001
1000
0000
0100
0000
0010
0000
2000
0000
0000
0000
,
3010
0100
1000
0001
0000
0010
0001
0010
,
0100
1000
0000
0001
0000
1000
0100
0000
1000
0000
0001
0000
0020
0000
0000
0000
,
0031
0100
0010
1000
0100
0001
0100
1000
,
0010
0100
0001
0100
0000
0010
1000
0010
,
0000
0100
0000
0010
1000
0001
0001
0000
,
1000
0100
0010
0100
0010
1000
0001
0100
,
0010
0001
0010
0100
1000
0010
0001
1000
,
0100
0010
0100
0001
0010
0100
0010
0001
,
0011
0110
1100
1001
,
1000
0010
0000
1000
0000
0010
1000
0000
0001
0000
0100
0000
0020
0000
0000
0000
,
1030
0000
0001
0100
0001
0000
1000
0100
1000
0000
0100
0000
0010
0000
0001
0000
,
1000
0001
0010
0100
1000
0010
0100
0001
,
0000
0000
0000
0000
,
2000
0000
0000
0000
,
0000
0000
0000
0000
,
3000
0000
0000
0000
;

//---------------dance-single - Telperion----------------
#NOTES:
     dance-single:
     :
     Medium:
     8:
     0.570,0.603,0.044,0.079,0.000,441.000,5.000,9.000,0.000,0.000,0.000,0.570,0.603,0.044,0.079,0.000,441.000,5.000,9.000,0.000,0.000,0.000:
0000
0000
0000
0000
,
0000
0000
0000
0000
,
0010
1000
0010
1000
0010
0100
0010
0100
,
0001
0100
0001
0100
0001
1000
0001
0000
,
0010
0001
0010
0001
0010
0100
0010
0100
,
1000
0100
1000
0001
1000
0100
1000
0000
,
0010
1000
0010
0100
0001
0100
0001
1000
,
0010
1000
0010
0100
0001
1000
0001
0000
,
0010
0001
0010
0100
1000
0100
0010
0001
,
1000
0001
1000
0001
1000
0001
1000
0000
,
0010
0100
0001
0010
,
0100
0000
1000
0000
0001
0100
0001
0000
,
0010
0100
1000
0010
,
0100
0000
0001
0000
1000
0100
1000
0000
,
0010
0100
0001
0010
,
1001
0010
1000
0100
,
0110
0000
0110
0000
0100
1000
0000
0001
,
0000
0000
0000
0000
,
0100
0001
0100
0001
0100
0010
1000
0000
,
0100
1000
0100
0010
0000
0001
0010
0100
,
1000
0100
1000
0100
1000
0100
0010
0000
,
0001
0100
0001
1000
0000
0010
1000
0010
,
0100
0001
0100
0001
1000
0001
0010
0000
,
0100
1000
0001
1000
0000
0010
1000
0010
,
0100
0010
1000
0001
0010
0100
1000
0001
,
0000
0000
0000
0000
0000
0020
0030
0000
,
0001
0100
0001
1000
0001
0100
0010
0000
,
1000
0010
1000
0001
0000
0010
0100
0000
,
1000
0100
1000
0001
1000
0100
0010
0000
,
0100
1000
0001
0100
0000
0010
0100
0000
,
0001
0100
0001
1000
0001
0100
0010
0000
,
1000
0010
0100
0001
0000
1000
0001
0000
,
0010
0001
0010
0100
1000
0001
1000
0100
,
0000
1000
0000
0001
0100
0001
1000
0000
,
0100
1000
0001
1000
0100
1000
0010
0000
,
0100
0001
0100
0010
0000
1000
0010
0000
,
0100
0001
1000
0001
0100
0001
0010
0000
,
0100
1000
0001
0100
0000
0001
1000
0001
,
0010
0100
1000
0010
0100
0001
0010
0000
,
0100
0010
0001
0100
0000
0010
0100
0001
,
0010
0100
1000
0001
1000
0100
0010
0001
,
0000
0000
0000
0000
,
1200
0000
0000
0301
,
0100
1000
0001
0100
,
2000
0000
0000
0000
,
3000
0100
0001
0010
,
0200
0000
0000
0000
,
0000
0301
0100
1000
,
0001
0000
0100
0000
,
1000
0100
0010
0100
,
0002
0000
0000
0013
,
0100
1000
0001
0100
,
0002
0000
0000
0000
,
0003
0100
0001
0010
,
0210
0000
0000
0000
,
0300
1000
0001
1000
,
0100
0000
0020
0000
,
0030
0000
0000
0000
,
0001
1000
0001
1000
0010
1000
0010
1000
,
0010
0100
0010
0100
1000
0100
0001
0000
,
1000
0001
1000
0001
1000
0100
1000
0100
,
0010
0100
1000
0100
0001
0100
1000
0000
,
0001
1000
0001
1000
0001
0100
0001
0100
,
0010
0100
0010
0100
0000
0100
0001
0100
,
0000
0100
0000
0100
0000
0100
0010
1000
,
0000
0000
0000
0000
,
0000
0001
0000
1000
0010
1000
0010
0000
,
0000
0000
0000
0000
,
1000
0100
1000
0001
1000
0100
0010
0000
,
0001
1000
0100
0010
0000
0001
1000
0000
,
0001
0100
0001
1000
0001
0100
0010
0000
,
1000
0010
0100
0001
0000
1000
0001
0000
,
0010
0100
1000
0010
0100
0001
0010
0000
,
0001
0100
0010
1000
0100
0010
0001
0100
,
0010
1000
0010
1000
0000
0010
0100
0010
,
0000
0100
0000
0001
0100
0010
1000
0000
,
0001
0010
0100
1000
0001
0010
0001
1000
,
0100
0001
0100
1000
0001
0010
0001
0100
,
1000
0100
0001
0010
0001
0100
0010
1000
,
0001
0100
1000
0100
0010
0100
0001
0000
,
1000
0100
1000
0100
1000
0100
0010
0000
,
0001
0100
1000
0100
0001
0100
0010
0000
,
1000
0001
1000
0001
0010
0100
0010
0001
,
0000
0000
0000
0000
,
2000
0000
0000
0000
,
0000
0000
0000
0000
,
3000
0000
0000
0000
;

//---------------dance-single - Telperion----------------
#NOTES:
     dance-single:
     :
     Easy:
     5:
     0.368,0.528,0.079,0.053,0.000,279.000,9.000,6.000,0.000,0.000,0.000,0.368,0.528,0.079,0.053,0.000,279.000,9.000,6.000,0.000,0.000,0.000: // measure 0
0000
0000
0000
0000
,  // measure 1
0000
0000
0000
0000
,  // measure 2
0010
0001
0100
1000
,  // measure 3
0010
1000
0100
0001
,  // measure 4
0010
0001
0100
1000
,  // measure 5
0010
1000
0100
0000
,  // measure 6
0010
0001
0100
1000
,  // measure 7
0010
1000
0100
0001
,  // measure 8
0010
0001
0100
1000
,  // measure 9
0010
0010
0010
0010
,  // measure 10
0000
1000
0000
0001
0000
1000
0000
0001
,  // measure 11
0000
1000
0000
0001
0010
0001
1000
0000
,  // measure 12
0000
0001
0000
1000
0000
0001
0000
1000
,  // measure 13
0000
0001
0000
1000
0010
1000
0100
0000
,  // measure 14
0000
1000
0000
0001
0000
1000
0000
0001
,  // measure 15
0100
0001
0000
1000
0000
0001
1000
0001
,  // measure 16
0000
1000
0000
0001
0000
1000
0100
1000
,  // measure 17
0000
0000
0000
0000
,  // measure 18
0001
0100
0010
0001
,  // measure 19
0010
1000
0000
0001
,  // measure 20
1000
0100
0010
1000
,  // measure 21
0010
0100
0000
0010
,  // measure 22
0002
0000
0003
1001
,  // measure 23
2000
0000
3000
1001
,  // measure 24
0010
0110
0100
0110
,  // measure 25
0000
0000
0000
0000
0000
0001
0000
0000
,  // measure 26
1000
0100
0010
1000
,  // measure 27
0010
0001
0000
0100
,  // measure 28
0001
0100
0010
0001
,  // measure 29
0010
0100
0000
0001
,  // measure 30
1000
0001
0010
1000
,  // measure 31
0010
0001
0000
0100
,  // measure 32
0010
1000
0001
0100
,  // measure 33
0000
0001
0000
1000
0001
0000
0001
0000
,  // measure 34
1000
0100
0010
1000
,  // measure 35
0010
0001
0000
0100
,  // measure 36
0010
1000
0010
0001
,  // measure 37
0010
0100
0000
0001
,  // measure 38
0200
0000
0300
0110
,  // measure 39
0020
0000
0030
0110
,  // measure 40
1001
0001
0101
0110
,  // measure 41
0000
0000
0000
0000
,  // measure 42
1000
0000
0000
0001
,  // measure 43
0010
0100
1000
0001
,  // measure 44
0100
0000
0000
0000
,  // measure 45
0000
1000
0100
0001
,  // measure 46
1000
0000
0000
0000
,  // measure 47
0000
0001
0010
0100
,  // measure 48
1000
0000
0001
0000
,  // measure 49
1000
0100
0001
0100
,  // measure 50
1000
0000
0000
0010
,  // measure 51
1000
0001
0100
0010
,  // measure 52
0100
0000
0000
0000
,  // measure 53
0000
0001
0100
0010
,  // measure 54
1000
0000
0000
0000
,  // measure 55
0000
0010
1000
0010
,  // measure 56
0100
0000
0002
0000
,  // measure 57
0003
0000
0000
0000
,  // measure 58
0000
0010
0000
0001
0000
0010
0000
0001
,  // measure 59
0000
0010
0000
0001
0010
0001
1000
0000
,  // measure 60
0000
0010
0000
1000
0000
0010
0000
1000
,  // measure 61
0000
0010
0000
1000
0001
1000
0100
0000
,  // measure 62
0000
0010
0000
0100
0000
0010
0000
0100
,  // measure 63
1000
0100
0000
0010
0000
0100
0010
0100
,  // measure 64
0000
0010
0000
0100
0000
0010
0001
0010
,  // measure 65
0000
0000
0000
0000
,  // measure 66
0000
0001
0000
1000
0010
0000
0010
0000
,  // measure 67
0000
0000
0000
0000
,  // measure 68
1000
0001
0100
1000
,  // measure 69
0100
0001
0000
0010
,  // measure 70
0100
1000
0100
0001
,  // measure 71
0100
1000
0000
0001
,  // measure 72
0100
0010
0100
1000
,  // measure 73
0100
0001
1000
0001
,  // measure 74
0010
0100
0010
0100
0000
1000
0100
1000
,  // measure 75
0000
0001
0000
1000
0001
0000
0001
0000
,  // measure 76
0100
0001
0010
1000
,  // measure 77
0100
1000
0010
0001
,  // measure 78
0100
1000
0010
1000
,  // measure 79
0100
0100
0100
0100
,  // measure 80
1000
0001
1000
0001
1000
0001
1000
0000
,  // measure 81
0001
1000
0001
1000
0001
1000
0001
0000
,  // measure 82
0010
0100
1000
0001
,  // measure 83
0000
0000
0000
0000
,  // measure 84
0020
0000
0000
0000
,  // measure 85
0000
0000
0000
0000
,  // measure 86
0030
0000
0000
0000
;

//---------------dance-single - Telperion----------------
#NOTES:
     dance-single:
     :
     Beginner:
     1:
     0.073,0.110,0.000,0.000,0.000,58.000,0.000,0.000,0.000,0.000,0.000,0.073,0.110,0.000,0.000,0.000,58.000,0.000,0.000,0.000,0.000,0.000:
0000
0000
0000
0000
,
0000
0000
0000
0000
,
0001
0000
0000
0000
,
0000
0000
0000
0000
,
1000
0000
0000
0000
,
0000
0000
0000
0000
,
0001
0000
0000
0000
,
0000
0000
0000
0000
,
1000
0000
0000
0000
,
0100
0000
0000
0000
,
0001
0000
0000
0000
,
0000
0000
0000
0000
,
1000
0000
0000
0000
,
0000
0000
0000
0000
,
0001
0000
0000
0000
,
1000
0000
0000
0000
,
0001
0000
0000
0000
,
0000
0000
0000
0000
,
0010
0000
0000
0000
,
0000
0000
0000
0000
,
0100
0000
0000
0000
,
0000
0000
0000
0000
,
0001
0000
0000
0000
,
0000
0000
0000
0000
,
1000
0000
0000
0000
,
0000
0000
0000
0000
,
0100
0000
0000
0000
,
0000
0000
0000
0000
,
0010
0000
0000
0000
,
0000
0000
0000
0000
,
0001
0000
0000
0000
,
0000
0000
0000
0000
,
1000
0000
0000
0000
,
0000
0000
0000
0000
,
0010
0000
0000
0000
,
0000
0000
0000
0000
,
0100
0000
0000
0000
,
0000
0000
0000
0000
,
0001
0000
0000
0000
,
1000
0000
0000
0000
,
0001
0000
0000
0000
,
0000
0000
0000
0000
,
0010
0000
0000
0000
,
0100
0000
0000
0000
,
1000
0000
0000
0000
,
0000
0000
0000
0000
,
0001
0000
0000
0000
,
0100
0000
0000
0000
,
0010
0000
0000
0000
,
0100
0000
0000
0000
,
0001
0000
0000
0000
,
0000
0000
0000
0000
,
1000
0000
0000
0000
,
0000
0000
0000
0000
,
0100
0000
0000
0000
,
0100
0000
0000
0000
,
0100
0000
0000
0000
,
0000
0000
0000
0000
,
0010
0000
0000
0000
,
0010
0000
0000
0000
,
0010
0000
0000
0000
,
0010
0000
0000
0000
,
0010
0000
0000
0000
,
0010
0000
0000
0000
,
0010
0000
0000
0000
,
0010
0000
0000
0000
,
0000
0000
0000
0000
,
0000
0000
0000
0000
,
0001
0000
0000
0000
,
0000
0000
0000
0000
,
0010
0000
0000
0000
,
0000
0000
0000
0000
,
1000
0000
0000
0000
,
0000
0000
0000
0000
,
0010
0000
0000
0000
,
0010
0000
0000
0000
,
0001
0000
0000
0000
,
0000
0000
0000
0000
,
0100
0000
0000
0000
,
1000
0000
0100
0000
,
0001
0000
0000
0000
,
1000
0000
0000
0000
,
0001
0000
1000
0000
,
0001
0000
0000
0000
,
0010
0000
0000
0000
;

//---------------dance-single - Telperion----------------
#NOTES:
     dance-single:
     Telperion:
     Challenge:
     12:
     0.829,0.957,0.351,0.298,0.548,588.000,40.000,34.000,98.000,0.000,4.000,0.829,0.957,0.351,0.298,0.548,588.000,40.000,34.000,98.000,0.000,4.000:
0000
0000
0000
0000
,
0000
M000
0000
00M0
000M
000M
000M
0000
,
0010
0000
0000
0000
0000
0000
1000
0000
0001
0000
1000
0000
0100
0000
0000
0000
0000
0000
0010
0000
0000
0100
0000
0000
1000
0000
0000
0000
0000
0000
0001
0000
0000
0000
0000
0000
1000
0000
0000
0000
0000
0000
0010
0000
0000
0000
0000
0000
,
0100
0000
0000
0000
0000
0000
0001
0000
1000
0000
0001
0000
0100
0000
0000
0000
0000
0000
0010
0000
0000
0100
0000
0000
0001
0000
0000
0000
0000
0000
1000
0000
0000
0000
0000
0000
0001
0000
0000
0000
0000
0000
0100
0000
0000
0000
0000
0000
,
0010
0000
0000
0000
0000
0000
1000
0000
0001
0000
1000
0000
0100
0000
0000
0000
0000
0000
0010
0000
0000
0100
0000
0000
1000
0000
0000
0000
0000
0000
0100
0000
0000
0000
0000
0000
0010
0000
0000
0000
0000
0000
0001
0000
0000
0000
0000
0000
,
1000
0000
0000
0000
0000
0000
0001
0000
1000
0000
0001
0000
0100
0000
0000
0000
0000
0000
0010
0000
0000
0100
0000
0000
0001
0000
0000
0000
0000
0000
1000
0000
0000
0000
0000
0000
0100
0000
0000
0000
0000
0000
1000
0000
0000
0000
0000
0000
,
0010
0000
0000
0000
0000
0000
1000
0000
0010
0000
0100
0000
0001
0000
0000
0000
0000
0000
1000
0000
0000
0001
0000
0000
1000
0000
0000
0000
0000
0000
0100
0000
0000
0000
0000
0000
0010
0000
0000
0000
0000
0000
0001
0000
0000
0000
0000
0000
,
0010
0000
0000
0000
0000
0000
0001
0000
0010
0000
0100
0000
1000
0000
0000
0000
0000
0000
0001
0000
0000
1000
0000
0000
0100
0000
0000
0000
0000
0000
1000
0000
0000
0000
0000
0000
0001
0000
0000
0000
0000
0000
1000
0000
0000
0000
0000
0000
,
0010
0000
0000
0000
0000
0000
0100
0000
0010
0000
0100
0000
0001
0000
0000
0000
0000
0000
1000
0000
0000
0001
0000
0000
0100
0000
0000
0000
0000
0000
0001
0000
0000
0000
0000
0000
1000
0000
0000
0000
0000
0000
0100
0000
0000
0000
0000
0000
,
M001
0100
010M
0100
M100
0100
100M
0100
,
0010
0011
0000
1100
0000
0011
0000
1100
,
0000
0011
0000
1000
0001
0010
2200
0000
,
3300
1010
0000
0101
0000
1010
0000
0101
,
0000
1010
0000
0101
1000
0010
0202
0000
,
M303
0011
0000
1100
0000
1010
0000
0101
,
M000
0011
0000
1100
0000
0011
0001
1000
,
000M
1010
0000
0101
0000
1010
1000
0200
,
0000
M300
0000
00M0
000M
000M
000M
0000
,
1M00
0001
0000
0001
0000
0100
0001
0000
1000
0000
0100
0010
0002
0000
0000
0000
,
1003
0000
0001
0100
0020
0000
1000
0000
M030
0000
0001
0000
0010
0000
1000
0000
,
0001
1000
0000
1000
0000
0100
1000
0000
0001
0000
0100
0010
2000
0000
0000
0000
,
3001
0000
1000
0100
1000
0000
0001
0000
0000
0000
0010
0000
0001
0000
0010
0000
,
010M
1000
0000
0001
0000
1000
0001
0000
0100
0000
0001
1000
0M20
0000
0000
0000
,
013M
0000
0001
0100
0010
0000
1000
0000
0000
0000
0001
0000
1M00
0000
0001
0000
,
M010
0000
0001
0010
0100
1000
0001
0010
M100
0000
10M0
0000
010M
0000
M010
0000
,
0000
M000
0000
00M0
000M
011M
000M
0000
,
M001
0100
0000
0100
0000
0001
1000
0000
0001
0000
0100
0010
2000
0000
0000
0000
,
3001
0000
1000
0100
0020
0000
0001
0000
M030
0000
1000
0000
0010
0000
0001
0000
,
1000
0100
0000
0100
0000
1000
0001
0000
1000
0000
0001
0100
0020
0000
0000
0000
,
1030
0000
0100
1000
0100
0000
0010
0000
0000
0000
0001
0000
0010
0000
0001
0000
,
0100
0001
0000
1000
0000
0001
1000
0000
0100
0000
1000
0100
0020
0000
0000
0000
,
0031
0000
0100
0001
1000
0000
0001
0000
0000
0000
0010
0000
0100
0000
0010
0000
,
0001
0000
1000
0010
0100
0001
0100
0010
1000
0000
0100
0000
1000
0000
0002
0000
,
0000
0103
0001
1000
0001
0100
0001
0010
,
00M1
1000
0000
0100
0000
0100
1000
0000
0001
0000
0100
0010
2000
0000
0000
0000
,
3001
0000
1000
0100
0020
0000
0001
0000
003M
0000
1000
0000
0010
0000
0001
0000
,
1000
0001
0000
0100
0000
0100
0001
0000
1000
0000
0100
0010
0002
0000
0000
0000
,
1003
0000
0001
0100
0001
0000
1000
0000
0000
0000
0010
0000
1000
0000
0010
0000
,
M100
0001
0100
0001
1000
0001
1000
0001
0010
0000
0000
0000
M021
0000
0000
0000
,
0130
0010
0100
0010
0100
1000
0100
1000
0001
0000
0000
0000
20M1
0000
0000
0000
,
3010
1000
0010
0100
0001
0100
0010
1000
001M
0000
M100
0000
00M1
0000
M010
0000
,
0000
M000
0000
00M0
000M
000M
000M
0000
,
2000
0000
0000
0010
,
3001
0010
0100
1000
,
0020
0000
0000
0000
,
0030
0100
0001
0010
,
0M02
1000
0100
1000
,
0103
0021
0230
2300
,
3002
0103
0120
0130
,
0101
1100
1010
1100
,
MM11
0000
1000
0001
1000
0100
0010
0100
,
0000
1000
0001
0100
0001
1000
0010
0100
,
0000
0001
1000
0001
1000
0100
0010
0001
,
0100
1000
0100
0010
1000
0010
0100
0001
,
0MM0
1000
0001
0100
0001
0010
0001
1000
,
0000
0100
0010
0100
1000
0001
0010
0001
,
0000
0000
0100
0000
0010
0000
0100
0000
0001
0000
1000
0001
1000
0001
1000
0001
,
0000
M000
0000
00M0
000M
000M
000M
0000
,
4000
0010
0000
0100
0000
0010
0000
0100
,
0000
0010
3000
0100
0001
0100
0110
0000
,
0004
0010
0000
1000
0000
0100
0000
1000
,
0000
0010
0003
1000
0001
0100
0110
0000
,
4000
0010
0000
0100
0000
0001
3000
0100
,
0014
0010
0000
0100
0003
1000
0010
1000
,
0000
1100
0000
0101
0000
0011
0001
0200
,
0300
M000
0000
00M0
000M
000M
000M
0000
,
0000
10M0
0000
0M01
M010
M001
M020
0000
,
0000
0000
0000
0030
,
0001
0100
0001
1000
0100
1000
0001
0000
0100
0000
0001
1000
0020
0000
0000
0000
,
1030
0000
0100
1000
0001
0000
0020
0000
000M
0000
1030
0000
0010
0000
0001
0000
,
1000
0100
1000
0001
0100
0001
1000
0000
0001
0000
0100
0010
2000
0000
0000
0000
,
3001
0000
1000
0100
1000
0000
0001
0000
0000
0000
0010
0000
0001
0000
0010
0000
,
0100
1000
0001
0100
0001
1000
0001
0000
0100
0000
0001
1000
0020
0000
0000
0000
,
1030
0000
0100
0000
0010
0000
0001
0000
1000
0001
0010
0100
1000
0001
0010
0100
,
100M
0M10
0010
0M10
0000
010M
M010
010M
,
0000
M001
0000
01M0
100M
010M
M001
M000
,
0010
0000
0000
0100
0000
0000
1000
0000
0000
0010
0000
0000
1000
0000
0000
0010
0100
0001
1000
0000
0000
0001
0000
0000
,
0010
0000
0000
1000
0000
0000
0001
0000
0000
0100
0000
0000
1000
0000
0000
0001
1000
0100
1000
0000
0000
0001
0000
0000
,
0010
0000
0000
0001
1000
0001
0100
0000
0000
0010
0000
0000
1000
0000
0000
0100
0000
0000
1000
0000
0000
0001
0000
0000
,
M010
0001
0010
0100
0000
0000
1M00
0001
1000
0010
0000
0000
01M0
0001
0100
0001
0000
0000
100M
0100
1000
0100
0000
0000
,
1000
0001
0000
1000
0000
0001
0100
0000
0001
0000
1000
0100
002M
0000
0000
0000
,
0031
0000
0000
1000
0100
0010
0001
0000
0000
0010
0001
0010
0100
0000
0000
1000
0000
0000
00M1
0000
0000
0100
0000
0000
,
001M
0000
1000
0010
0100
0001
0100
0010
1M00
0000
00M1
0000
M010
0000
0M01
0000
,
0000
M000
0000
00M0
000M
000M
000M
0000
,
1001
0000
0000
0000
;
