#VERSION:0.81;
#TITLE:U&M;
#SUBTITLE:;
#ARTIST:emon;
#TITLETRANSLIT:;
#SUBTITLETRANSLIT:;
#ARTISTTRANSLIT:;
#GENRE:;
#ORIGIN:;
#CREDIT:;
#BANNER:[ROUND 9] - U&M.png;
#BACKGROUND:[ROUND 9] - U&M-bg.png;
#PREVIEWVID:;
#JACKET:[ROUND 9] - U&M-jacket.png;
#CDIMAGE:;
#DISCIMAGE:;
#LYRICSPATH:;
#CDTITLE:cdtitle.png;
#MUSIC:[ROUND 9] - U&M.ogg;
#OFFSET:0.000;
#SAMPLESTART:58.140;
#SAMPLELENGTH:15.000;
#SELECTABLE:YES;
#BPMS:0.000=128.000;
#STOPS:;
#DELAYS:;
#WARPS:;
#TIMESIGNATURES:0.000=4=4;
#TICKCOUNTS:0.000=4;
#COMBOS:0.000=1;
#SPEEDS:0.000=1.000=0.000=0;
#SCROLLS:0.000=1.000;
#FAKES:;
#LABELS:0.000=Song Start;
#BGCHANGES:;
#KEYSOUNDS:;
#ATTACKS:
;

//---------------dance-single - ----------------
#NOTEDATA:;
#CHARTNAME:;
#STEPSTYPE:dance-single;
#DESCRIPTION:;
#CHARTSTYLE:;
#DIFFICULTY:Hard;
#METER:7;
#RADARVALUES:0.438,0.391,0.219,0.114,0.014,287.000,23.000,12.000,11.000,0.000,0.000,0.000,0.000,0.438,0.391,0.219,0.114,0.014,287.000,23.000,12.000,11.000,0.000,0.000,0.000,0.000;
#CREDIT:;
#NOTES:
0000
0000
0000
0000
,
0000
0000
0000
0000
,
0000
0000
0000
0000
,
0000
0000
0000
0000
,
2000
0000
0000
0000
0000
0000
3000
0001
,
0100
0100
0001
1000
0100
0010
0100
1000
,
0010
0000
0120
0000
1030
0000
0001
1000
,
0100
0120
0031
1001
,
1000
0000
2010
0000
3001
0000
0010
0100
,
1000
0000
0000
0000
2100
0000
0000
0002
0000
0000
0000
0000
3003
0000
0000
0000
,
1000
0000
1020
0000
0031
0000
0010
0100
,
0001
0000
0021
0000
0130
0000
1000
0001
,
0100
0000
1000
0001
0100
0000
1000
0001
,
0100
0001
1000
0100
0000
0M00
0M00
0000
,
0001
0000
1000
0010
1010
0000
1000
0000
,
0010
0000
0100
0000
0001
0010
0100
0000
,
1000
0000
0001
0100
0101
0000
0001
0000
,
1000
0100
0001
0100
0010
0000
0001
0000
,
2000
0100
0010
3001
,
1000
0010
0100
0010
1000
0001
1000
0000
,
0001
0010
0100
0010
0001
0000
1000
0000
,
0010
0100
0001
0010
1000
0000
1010
0000
,
0010
0001
1000
0010
1000
0001
0010
0000
,
0100
1000
0010
0100
0000
0001
1000
0100
,
0010
0001
0100
0010
0100
0001
1000
0000
,
0001
0010
0100
0001
0100
0010
0001
1000
,
0010
0100
0001
0010
0100
1000
0001
0000
,
1000
0100
0010
1000
0010
0001
1000
0010
,
0100
0001
0000
0010
0100
1000
0000
0001
,
0100
0010
0110
000M
,
00M0
0M00
M000
0000
00M0
0000
0M00
0000
000M
0000
M000
0000
0M00
0000
0000
0000
,
1001
0000
1000
0100
0001
0000
1000
0010
,
0001
0010
1000
0001
0010
0000
0001
0010
,
1000
0000
0001
0010
1000
0000
0001
0100
,
1000
0100
0010
1000
0001
0000
1000
0100
,
0001
0000
1000
0100
0001
0000
1000
0010
,
0001
0010
1000
0100
0010
0000
0100
1000
,
0010
0000
0100
0001
0010
0000
0001
0000
,
0100
0010
1000
0001
0010
0000
0011
0000
,
1001
0000
1000
0010
0001
0000
1000
0100
,
0001
0100
1000
0010
0100
0000
0001
0010
,
1000
0000
0001
0010
1000
0000
0001
0100
,
1000
0100
0010
1000
0001
0000
1000
0100
,
0001
0000
1000
0100
0001
0000
1000
0010
,
0001
0010
0100
0001
0010
0000
0001
0100
,
0010
1000
0001
0010
1000
0000
0001
0010
,
1000
0000
0001
0010
1000
0010
0100
1000
,
0010
0000
0110
0000
1010
0000
1000
0010
,
0100
0001
1000
0000
1100
0000
1000
0000
,
0010
0000
0110
0000
0101
0000
0001
0010
,
0100
0000
1000
0000
0010
0000
0000
2020
0000
0000
0000
0000
3030
0000
0000
0000
,
1000
0000
1100
0000
0110
0000
0010
0001
,
0100
0010
1000
0000
1001
0000
0001
0100
,
0010
0000
0001
0100
0010
0000
0001
0100
,
0010
1000
0100
0020
0000
0000
0030
0000
;

//---------------dance-single - ----------------
#NOTEDATA:;
#CHARTNAME:;
#STEPSTYPE:dance-single;
#DESCRIPTION:;
#CHARTSTYLE:;
#DIFFICULTY:Medium;
#METER:5;
#RADARVALUES:0.310,0.339,0.190,0.067,0.000,201.000,20.000,7.000,6.000,0.000,0.000,0.000,0.000,0.310,0.339,0.190,0.067,0.000,201.000,20.000,7.000,6.000,0.000,0.000,0.000,0.000;
#CREDIT:;
#NOTES:
0000
0000
0000
0000
,
0000
0000
0000
0000
,
0000
0000
0000
0000
,
0000
0000
0000
0000
,
0002
0000
0000
0003
,
1000
0100
0010
0100
,
1000
0001
0101
0000
,
0001
0010
0100
0000
,
0010
0001
1001
0000
,
1000
0010
0100
0000
,
0010
1000
1010
0000
,
0010
1000
0100
0010
,
0001
1000
0001
0010
,
0001
0200
0000
0300
,
0010
0000
0010
0100
1001
0000
0000
0000
,
0100
0000
0100
0010
1001
0000
0000
0000
,
0010
0000
0010
0100
1001
0000
0000
0000
,
0100
0000
0100
0010
1001
0000
0000
0000
,
0002
0000
2000
3003
,
0001
0000
0001
0100
0110
0000
0000
0000
,
1000
0000
1000
0100
0110
0000
0000
0000
,
0001
0000
0001
0100
0110
0000
0000
0000
,
1000
0100
0010
0000
0100
0000
1000
0000
,
0001
0100
0010
0000
0100
0000
0001
0000
,
1000
0010
0100
0000
0010
0000
1000
0000
,
0001
0010
0100
0000
0010
0000
0001
0000
,
1000
0001
0100
0000
1000
0000
0100
0000
,
0001
1000
0100
0000
0001
0000
0100
0000
,
0010
0001
1000
0000
0010
1000
0001
0000
,
1000
0100
022M
M000
,
000M
M000
000M
M330
,
0001
0100
1000
0010
,
0001
0100
0010
0000
1000
0000
1001
0000
,
1000
0100
0001
0010
,
1000
0100
0010
0000
0001
0000
1001
0000
,
0001
0010
1000
0100
,
0001
0010
0100
0000
1000
0000
0001
0100
,
0010
0000
0001
0100
0010
0000
0100
0000
,
0001
1000
1001
0000
,
1000
0010
0001
0100
,
1000
0010
0100
0000
0001
0000
1001
0000
,
1000
0100
0001
0010
,
1000
0100
0010
0000
0001
0000
1001
0000
,
0001
0100
1000
0010
,
0001
0100
0010
0000
1000
0000
1001
0000
,
0001
0010
0100
1000
0001
0000
0100
1000
,
0001
0000
0100
1000
0001
1000
0010
0000
,
1000
0100
1100
0000
,
1000
0010
0100
0000
,
0001
0010
0011
0000
,
0001
0100
0010
0000
,
1000
0001
0011
0000
,
0001
1000
0010
0100
,
0001
1000
0001
0100
,
0001
0010
0200
0300
;

//---------------dance-single - ----------------
#NOTEDATA:;
#CHARTNAME:;
#STEPSTYPE:dance-single;
#DESCRIPTION:;
#CHARTSTYLE:;
#DIFFICULTY:Challenge;
#METER:8;
#RADARVALUES:0.516,0.495,0.409,0.038,0.181,332.000,43.000,4.000,2.000,0.000,0.000,0.000,0.000,0.516,0.495,0.409,0.038,0.181,332.000,43.000,4.000,2.000,0.000,0.000,0.000,0.000;
#CREDIT:;
#NOTES:
// measure 0
0000
0000
0000
0000
,  // measure 1
0000
0000
0000
0000
,  // measure 2
0000
0000
0000
0000
,  // measure 3
0000
0000
0000
0000
,  // measure 4
2002
0000
0000
0000
0000
0000
0000
0000
0000
0000
0000
0000
3003
0000
1000
0010
,  // measure 5
0100
0100
0010
0000
1000
0000
0100
0010
0001
1000
0010
0100
0001
0010
0100
0000
,  // measure 6
0010
0000
0011
0000
1001
0000
0001
1000
,  // measure 7
0010
0100
0010
0000
1010
0000
1001
0000
,  // measure 8
0001
0000
0011
0000
1100
0000
0001
0100
,  // measure 9
1000
0000
0100
0000
0001
0000
0010
0100
0000
0010
0001
0100
0010
1000
0010
0000
,  // measure 10
1000
0000
1010
0000
1001
0000
0010
0001
,  // measure 11
0100
0010
1000
0000
1100
0000
0100
0010
,  // measure 12
1001
0000
0100
0010
1001
0000
0100
0010
,  // measure 13
1001
1000
0010
0100
0000
00M0
00M0
0000
,  // measure 14
0001
0000
0000
0001
0000
0000
1000
0000
0010
0000
0000
0000
0110
0000
0000
0000
,  // measure 15
1000
0000
0000
1000
0000
0000
0001
0000
0010
0001
1000
0010
0100
0000
0000
0000
,  // measure 16
0010
0000
0000
0010
0000
0000
1000
0100
1000
0000
0000
0000
1100
0000
0000
0000
,  // measure 17
0100
0000
0000
0100
0000
0000
0010
0000
0001
0000
0100
0000
0101
0000
0000
0000
,  // measure 18
0002
0000
0000
0010
0000
0000
0010
0000
0013
0000
0000
0000
0001
0000
0000
0000
,  // measure 19
1000
0000
0000
0010
0000
0000
0100
0000
0001
0000
0010
0000
0100
0000
0000
0000
,  // measure 20
0010
0000
0000
0001
0000
0000
1000
0000
0010
0000
0000
0000
0110
0000
0000
0000
,  // measure 21
0100
0000
0000
0001
0000
0000
1000
0000
0100
0000
0000
0000
1100
0000
0000
0000
,  // measure 22
0010
0000
0001
0100
0010
0000
0100
0000
0001
0010
0000
0000
0100
0000
1000
0000
,  // measure 23
0010
0000
1000
0100
0010
0000
0100
1000
0000
0000
0001
0000
0100
0000
0010
0000
,  // measure 24
1000
0000
0100
0010
0100
0000
1000
0000
0010
0100
0000
0000
0010
0000
1000
0000
,  // measure 25
0001
0000
0010
0100
0010
0000
0001
0100
0000
0000
0010
0000
1000
0000
0001
0000
,  // measure 26
0010
0000
0100
1000
0010
0000
0100
0000
0010
1000
0000
0000
0001
0000
1000
0000
,  // measure 27
0100
0000
0010
0001
0100
0000
0010
0100
0000
0000
0001
0000
0010
0000
0100
0000
,  // measure 28
1000
1100
0000
0001
0100
0101
0000
0001
,  // measure 29
0100
1010
1001
0001
,  // measure 30
0010
0100
1000
0000
0010
0000
0100
0000
0001
0000
1000
0000
0100
0000
0000
0000
,  // measure 31
1001
0000
1000
0100
0001
0000
1000
0010
,  // measure 32
0001
0100
1000
0010
0100
0000
0001
0010
,  // measure 33
1000
0000
0001
0010
1000
0000
0001
0100
,  // measure 34
1000
0010
0001
0100
0010
0000
1000
0100
,  // measure 35
0001
0000
1000
0100
0001
0000
1000
0010
,  // measure 36
0001
0100
1000
0010
0100
0000
0001
0010
,  // measure 37
0110
0000
1000
0010
0110
0000
0101
0000
,  // measure 38
1000
0100
0001
0100
1000
0010
0101
0000
,  // measure 39
1001
0000
1000
0010
0001
0000
1000
0100
,  // measure 40
0001
0010
1000
0100
0010
0000
0001
0010
,  // measure 41
1000
0000
0001
0010
1000
0000
0001
0100
,  // measure 42
1000
0010
0001
0100
0010
0000
1000
0100
,  // measure 43
0001
0000
1000
0100
0001
0000
1000
0010
,  // measure 44
0001
0100
1000
0010
0100
0000
0001
0010
,  // measure 45
1000
0010
0001
1000
0110
0000
0001
1000
,  // measure 46
0110
0000
0001
1000
0110
0010
1000
0001
,  // measure 47
0010
0000
0110
0000
0011
0000
1000
0010
,  // measure 48
0001
0010
0100
0000
0101
0000
1010
0000
,  // measure 49
1000
0000
1100
0000
0011
0000
1000
0010
,  // measure 50
0001
0000
0010
0000
1000
0000
0100
0010
0000
0100
1000
0010
0100
0001
0100
0000
,  // measure 51
0010
0000
0110
0000
0101
0000
1000
0100
,  // measure 52
0001
0100
0010
0000
0011
0000
1000
0010
,  // measure 53
0110
0000
1000
0010
0110
0000
1000
0010
,  // measure 54
0110
0100
0001
2000
0000
0000
3000
0000
;

//---------------dance-single - ----------------
#NOTEDATA:;
#CHARTNAME:;
#STEPSTYPE:dance-single;
#DESCRIPTION:;
#CHARTSTYLE:;
#DIFFICULTY:Easy;
#METER:3;
#RADARVALUES:0.199,0.209,0.086,0.048,0.000,132.000,9.000,5.000,5.000,0.000,0.000,0.000,0.000,0.199,0.209,0.086,0.048,0.000,132.000,9.000,5.000,5.000,0.000,0.000,0.000,0.000;
#CREDIT:;
#NOTES:
0000
0000
0000
0000
,
0000
0000
0000
0000
,
0000
0000
0000
0000
,
0000
0000
0000
0000
,
0002
0000
0000
0003
,
1000
1000
0001
0000
,
1000
0100
1000
0000
,
0001
0100
0001
0000
,
1000
0001
0100
0000
,
0001
1000
0100
0000
,
1000
0010
1000
0000
,
0001
0010
0001
0100
,
0010
0000
0010
0000
,
0010
0200
0300
0000
,
0001
0000
0101
0000
,
0001
0000
1001
0001
,
1000
0000
1100
0000
,
1000
0000
1001
1000
,
0002
0000
0000
0003
,
1000
0000
1001
1000
,
0001
0000
0011
0000
,
0001
0000
1001
0001
,
1000
0000
0100
0000
,
0001
0000
0010
1000
,
0001
0000
0010
0000
,
1000
0000
0100
0001
,
1000
0000
0100
0000
,
0001
0000
0010
1000
,
0001
0000
1000
0000
,
0100
0010
0100
00M0
,
000M
M000
00M0
0M00
,
0001
0000
0001
0000
,
0010
0010
0010
0000
,
0001
0000
0001
0000
,
0100
0100
0100
0000
,
0010
0000
0010
0000
,
1000
1000
1000
0000
,
0100
0000
0100
0000
,
0010
0001
1001
0000
,
1000
0000
1000
0000
,
0010
0010
0010
0000
,
1000
0000
1000
0000
,
0100
0100
0100
0000
,
0010
0000
0010
0000
,
0001
0001
0001
1000
,
0001
0100
0010
0100
,
0010
0100
0020
0030
,
1000
0100
0010
0000
,
0001
0100
0010
0000
,
1000
0001
0010
0000
,
0100
1000
1001
0000
,
0001
0010
0100
0000
,
1000
0010
0100
0000
,
0010
0000
0010
0000
,
0010
1000
0002
0003
;
