#VERSION:0.73;
#TITLE:Snow Fairy;
#SUBTITLE:;
#ARTIST:FUNKIST;
#TITLETRANSLIT:;
#SUBTITLETRANSLIT:;
#ARTISTTRANSLIT:;
#GENRE:;
#ORIGIN:;
#CREDIT:;
#BANNER:[ROUND 9] - Snow Fairy.png;
#BACKGROUND:[ROUND 9] - Snow Fairy-bg.png;
#LYRICSPATH:;
#CDTITLE:;
#MUSIC:[ROUND 9] - Snow Fairy.mp3;
#OFFSET:-10.000000;
#SAMPLESTART:28.301752;
#SAMPLELENGTH:12.000000;
#SELECTABLE:YES;
#BPMS:0.000000=212.001007
,27.875000=106.000504
,90.500000=212.001007
;
#STOPS:;
#DELAYS:;
#WARPS:;
#TIMESIGNATURES:0.000000=4=4
;
#TICKCOUNTS:0.000000=2
;
#COMBOS:0.000000=1
;
#SPEEDS:0.000000=1.000000=0.000000=0
;
#SCROLLS:0.000000=1.000000
;
#LABELS:0.000000=Song Start
;
#BGCHANGES:;
#KEYSOUNDS:;
#ATTACKS:;

//---------------dance-single - Blank----------------
#NOTEDATA:;
#STEPSTYPE:dance-single;
#DESCRIPTION:Blank;
#CHARTSTYLE:;
#DIFFICULTY:Hard;
#METER:7;
#RADARVALUES:0.392,0.492,0.273,0.109,0.027,216.000,25.000,10.000,0.000,0.000,0.000,0.000,0.000,0.392,0.492,0.273,0.109,0.027,216.000,25.000,10.000,0.000,0.000,0.000,0.000,0.000;
#CREDIT:;
#OFFSET:-10.000000;
#BPMS:0.000000=212.001007
,27.875000=106.000504
,90.500000=212.001007
;
#STOPS:;
#DELAYS:;
#WARPS:;
#TIMESIGNATURES:0.000000=4=4
;
#TICKCOUNTS:0.000000=2
;
#COMBOS:0.000000=1
;
#SPEEDS:0.000000=1.000000=0.000000=0
;
#SCROLLS:0.000000=1.000000
;
#FAKES:;
#LABELS:0.000000=Song Start
;
#ATTACKS:
;
#NOTES:
// measure 0
0000
0000
0000
0000
0000
0000
0000
0001
,  // measure 1
1000
0001
0100
0001
0010
1000
0001
0100
,  // measure 2
1000
1000
0010
0100
0001
1000
0010
1000
,  // measure 3
0001
0000
0000
0000
1000
0100
0000
0000
,  // measure 4
0000
0000
0000
0000
0001
0000
1000
0001
,  // measure 5
0010
0100
1000
0002
0000
0000
0010
0000
,  // measure 6
0000
0010
0000
0000
0013
0000
0000
0000
,  // measure 7
1001
0000
0000
0000
0110
0000
0000
0000
0000
0000
1000
0010
0100
0000
0001
0000
,  // measure 8
0101
0100
0110
0010
1010
1000
0000
0000
,  // measure 9
0110
0000
1001
0000
0001
0100
0010
1000
,  // measure 10
1100
0100
0110
0010
0011
0001
0000
0000
,  // measure 11
1100
0000
0000
0000
0101
0000
0000
0000
0000
0000
0001
1000
0100
0000
0010
0000
,  // measure 12
0011
0010
0110
0100
1100
1000
0000
0000
,  // measure 13
0101
0000
1100
0000
0010
1000
0001
1000
,  // measure 14
0011
1010
0000
2000
,  // measure 15
0000
0000
0000
3001
0010
0001
0100
0010
,  // measure 16
1000
0000
0100
0000
1000
0000
0010
0000
0100
0000
0001
0000
0020
0000
0000
2000
,  // measure 17
0030
0020
3000
0000
0031
0100
0001
1000
,  // measure 18
0010
0100
0010
1000
0010
0100
0002
0000
,  // measure 19
0000
0000
0003
1000
0001
0100
0010
1000
,  // measure 20
0010
0001
1000
0100
0001
0120
0000
0000
,  // measure 21
0000
0000
0000
0030
1000
0010
0100
0001
,  // measure 22
1000
0010
0100
0002
0000
0000
0003
0000
,  // measure 23
1000
0000
0000
0100
0000
0000
0001
0000
,  // measure 24
1000
0000
0000
0010
0000
0000
0001
0000
,  // measure 25
1000
0000
0000
0001
0000
1000
0000
0010
,  // measure 26
0000
0100
0001
0100
,  // measure 27
0001
0000
0000
0010
0000
0000
1000
0000
,  // measure 28
0001
0000
0000
0100
0000
0000
1000
0000
,  // measure 29
0001
0000
0100
0000
0010
0000
1000
0001
,  // measure 30
0100
0000
0001
0000
1000
0000
0000
0001
,  // measure 31
0010
0000
0000
0000
0000
1000
0000
0100
0000
0000
0000
0000
0001
0000
0010
0000
,  // measure 32
0000
0110
0000
1000
,  // measure 33
0010
0000
0000
0100
0000
0000
0001
0000
,  // measure 34
0010
1000
0100
1000
,  // measure 35
0002
0000
0100
0000
,  // measure 36
0003
0001
0000
0100
0000
1000
0000
0010
,  // measure 37
0000
0001
0000
1000
0000
0001
0000
1000
,  // measure 38
0000
0000
0000
0010
0000
0000
0000
0110
,  // measure 39
0000
0001
0000
0100
0000
1000
0000
0100
,  // measure 40
0000
0001
0000
0011
0000
0010
0000
1000
,  // measure 41
0000
0010
0000
1010
0000
0010
0000
0001
,  // measure 42
0000
0010
0000
0101
0000
0001
0000
0010
,  // measure 43
0000
0100
0000
1000
0000
0010
0000
1000
,  // measure 44
0000
0001
0000
0000
1000
0000
0001
0000
,  // measure 45
1000
0000
0000
0001
0000
0000
0001
0000
,  // measure 46
1000
0000
0000
0010
0000
0000
1000
0000
,  // measure 47
0001
0000
0000
1000
0000
0000
1000
0010
,  // measure 48
0000
0100
0001
0000
0000
0010
0000
0100
,  // measure 49
0000
0000
0000
1000
0000
0100
0000
0001
,  // measure 50
0000
0000
0000
0010
0000
0000
0000
0200
,  // measure 51
0000
0000
0000
0000
,  // measure 52
0000
0000
0000
0000
,  // measure 53
1300
0000
0000
0000
;

//---------------dance-single - Blank----------------
#NOTEDATA:;
#STEPSTYPE:dance-single;
#DESCRIPTION:Blank;
#CHARTSTYLE:;
#DIFFICULTY:Medium;
#METER:5;
#RADARVALUES:0.290,0.405,0.186,0.076,0.016,162.000,17.000,7.000,0.000,0.000,0.000,0.000,0.000,0.290,0.405,0.186,0.076,0.016,162.000,17.000,7.000,0.000,0.000,0.000,0.000,0.000;
#CREDIT:;
#OFFSET:-10.000000;
#BPMS:0.000000=212.001007
,27.875000=106.000504
,90.500000=212.001007
;
#STOPS:;
#DELAYS:;
#WARPS:;
#TIMESIGNATURES:0.000000=4=4
;
#TICKCOUNTS:0.000000=2
;
#COMBOS:0.000000=1
;
#SPEEDS:0.000000=1.000000=0.000000=0
;
#SCROLLS:0.000000=1.000000
;
#FAKES:;
#LABELS:0.000000=Song Start
;
#ATTACKS:
;
#NOTES:
// measure 0
0000
0000
0000
0000
,  // measure 1
1000
0100
0010
0001
,  // measure 2
0010
0100
1000
0010
,  // measure 3
0100
0001
0100
0001
,  // measure 4
0000
0000
0010
0100
,  // measure 5
1000
0002
0000
0000
,  // measure 6
0000
0000
0000
0003
,  // measure 7
0110
0000
0110
0000
0000
0001
0100
0001
,  // measure 8
0010
0001
1000
0001
0100
0000
0000
0000
,  // measure 9
1001
0000
1001
0000
0000
1000
0010
1000
,  // measure 10
0100
1000
0001
0010
0100
1000
0000
0000
,  // measure 11
0110
0000
0110
0000
0000
0001
0100
0010
,  // measure 12
1000
0001
0100
0010
1000
0001
0000
0000
,  // measure 13
1001
1001
0000
0000
,  // measure 14
0110
0110
0000
2000
,  // measure 15
0000
0000
0000
3000
0100
0001
1000
0000
,  // measure 16
0100
0000
1000
0000
0002
0000
0000
0000
0103
0000
0000
0000
1100
0000
0000
0101
,  // measure 17
0000
1001
0000
0000
0001
0010
0001
0000
,  // measure 18
0010
1000
0010
0000
0001
1000
0200
0000
,  // measure 19
0000
0000
0300
1000
0100
0010
0001
1000
,  // measure 20
0100
0010
0001
1000
0010
0200
0000
0000
,  // measure 21
0000
0000
0000
0300
0001
0001
1000
1000
,  // measure 22
0001
0100
0001
1000
0000
0000
0000
0000
,  // measure 23
1000
0000
0000
0010
,  // measure 24
1000
0000
0000
0100
,  // measure 25
1000
0000
0000
0001
0000
0100
0000
0010
,  // measure 26
0000
0100
0000
0001
,  // measure 27
1000
0000
0000
0010
,  // measure 28
1000
0000
0000
0100
,  // measure 29
1000
0000
0100
0001
,  // measure 30
0100
0000
0000
0000
1000
0000
0000
0001
,  // measure 31
0100
0000
0000
0000
0000
1000
0000
0010
0000
0000
0000
0000
0001
0000
0100
0000
,  // measure 32
0000
0000
0000
1000
,  // measure 33
0010
0000
0000
0100
0000
0000
0001
0000
,  // measure 34
0010
0100
1000
0001
,  // measure 35
0200
0000
0000
0000
,  // measure 36
0300
0001
0000
0000
0000
0100
0000
0000
,  // measure 37
0000
0010
0000
0000
0000
1000
0000
0000
,  // measure 38
0000
0000
0000
0010
0000
0000
0000
0110
,  // measure 39
0000
0000
0000
0000
0000
0001
0000
0100
,  // measure 40
0000
0010
0000
0110
0000
0000
0000
1000
,  // measure 41
0000
0001
0000
1001
0000
0000
0000
0001
,  // measure 42
0000
0100
0000
0101
0000
0000
0000
0000
,  // measure 43
0000
0100
0000
1000
0000
0010
0000
0100
,  // measure 44
0000
0001
0000
0000
0000
0000
0001
0000
,  // measure 45
1000
0000
0000
0010
,  // measure 46
1000
0000
0000
0100
,  // measure 47
1000
0000
0000
1000
0000
0000
0000
0100
,  // measure 48
0000
0010
0000
0000
0000
0001
0000
0100
,  // measure 49
0000
0000
0000
0010
0000
0000
0000
1000
,  // measure 50
0000
0000
0000
0001
0000
0000
0000
0200
,  // measure 51
0000
0000
0000
0000
,  // measure 52
0000
0000
0000
0000
,  // measure 53
0310
0000
0000
0000
;

//---------------dance-single - Blank----------------
#NOTEDATA:;
#STEPSTYPE:dance-single;
#DESCRIPTION:Blank;
#CHARTSTYLE:;
#DIFFICULTY:Easy;
#METER:3;
#RADARVALUES:0.208,0.260,0.153,0.120,0.011,108.000,14.000,11.000,0.000,0.000,0.000,0.000,0.000,0.208,0.260,0.153,0.120,0.011,108.000,14.000,11.000,0.000,0.000,0.000,0.000,0.000;
#CREDIT:;
#OFFSET:-10.000000;
#BPMS:0.000000=212.001007
,27.875000=106.000504
,90.500000=212.001007
;
#STOPS:;
#DELAYS:;
#WARPS:;
#TIMESIGNATURES:0.000000=4=4
;
#TICKCOUNTS:0.000000=2
;
#COMBOS:0.000000=1
;
#SPEEDS:0.000000=1.000000=0.000000=0
;
#SCROLLS:0.000000=1.000000
;
#FAKES:;
#LABELS:0.000000=Song Start
;
#ATTACKS:;
#NOTES:
// measure 0
0000
0000
0000
0000
,  // measure 1
1000
0000
0100
0000
,  // measure 2
0010
0000
0001
0000
,  // measure 3
1001
0000
1001
0000
,  // measure 4
0000
0000
1000
0000
,  // measure 5
0100
0000
0200
0000
,  // measure 6
0000
0000
0300
0000
,  // measure 7
0020
0130
0000
0001
,  // measure 8
1000
0000
1000
0001
1000
0001
0000
0000
,  // measure 9
2000
3010
0000
0100
,  // measure 10
0001
0100
0001
0000
,  // measure 11
0020
0031
0000
0100
,  // measure 12
0010
0000
1000
0100
1000
0100
0000
0000
,  // measure 13
0100
0110
0000
0000
,  // measure 14
0010
0110
0000
1001
,  // measure 15
0000
0000
0100
0010
,  // measure 16
1000
0000
0000
0000
0001
0000
0000
0000
0100
0000
0000
0000
0001
0000
0000
0001
,  // measure 17
0000
0001
0000
0000
1000
0000
0010
0000
,  // measure 18
0100
0001
1000
0001
,  // measure 19
0000
0000
1000
0010
,  // measure 20
1000
0010
0100
0000
,  // measure 21
0000
0000
0001
1000
,  // measure 22
1000
0001
0000
0000
,  // measure 23
1100
0000
0000
0000
,  // measure 24
0101
0000
0000
0000
,  // measure 25
1100
0000
0000
0010
,  // measure 26
0001
0010
0000
0000
,  // measure 27
1010
0000
0000
0000
,  // measure 28
0011
0000
0000
0000
,  // measure 29
1010
0000
0000
0010
,  // measure 30
1000
0000
0010
0000
0100
0000
0000
0002
,  // measure 31
0000
0000
0000
0000
0003
2000
0000
0000
0000
0000
0000
0000
3002
0000
0000
0000
,  // measure 32
0003
0000
0000
1000
,  // measure 33
0010
0000
0100
0001
,  // measure 34
1000
0000
0010
0100
,  // measure 35
0001
0000
0000
0000
0000
1000
0000
0000
,  // measure 36
0000
0001
0000
0000
0000
0001
0000
0000
,  // measure 37
0000
1000
0000
0000
0000
1000
0000
0000
,  // measure 38
0000
0000
0000
0010
0000
0000
0000
0100
,  // measure 39
0000
0000
0000
0000
0000
0000
0000
2000
,  // measure 40
0000
0000
0000
3010
0000
0000
0000
0020
,  // measure 41
0000
0000
0000
0130
0000
0000
0000
0200
,  // measure 42
0000
0000
0000
0301
0000
0000
0000
0000
,  // measure 43
0000
0100
0000
0000
0000
0010
0000
0000
,  // measure 44
0000
1000
0000
0000
0000
0000
0000
0000
,  // measure 45
0011
0000
0000
0000
,  // measure 46
0101
0000
0000
0000
,  // measure 47
1010
0000
0000
0000
0000
0000
0000
0100
,  // measure 48
0000
0010
0000
0000
0000
0000
0000
1000
,  // measure 49
0000
0000
0000
0000
0000
0000
0000
0001
,  // measure 50
0000
0000
0000
1000
0000
0000
0000
0020
,  // measure 51
0000
0000
0000
0000
,  // measure 52
0000
0000
0000
0000
,  // measure 53
0030
0000
0000
0000
;
