#VERSION:0.81;
#TITLE:In the Tdot;
#SUBTITLE:;
#ARTIST:Aspektz;
#TITLETRANSLIT:;
#SUBTITLETRANSLIT:;
#ARTISTTRANSLIT:;
#GENRE:;
#ORIGIN:;
#CREDIT:;
#BANNER:[ROUND 9] - In the Tdot.png;
#BACKGROUND:[ROUND 9] - In the Tdot-bg.png;
#PREVIEWVID:;
#JACKET:[ROUND 9] - In the Tdot-jacket.png;
#CDIMAGE:;
#DISCIMAGE:;
#LYRICSPATH:;
#CDTITLE:;
#MUSIC:[ROUND 9] - In the Tdot.ogg;
#OFFSET:-9.578;
#SAMPLESTART:9.587;
#SAMPLELENGTH:9.412;
#SELECTABLE:YES;
#DISPLAYBPM:102.000;
#BPMS:0.000=102.000;
#STOPS:;
#DELAYS:;
#WARPS:;
#TIMESIGNATURES:0.000=4=4;
#TICKCOUNTS:0.000=4;
#COMBOS:0.000=1;
#SPEEDS:0.000=1.000=0.000=0;
#SCROLLS:0.000=1.000;
#FAKES:;
#LABELS:0.000=Song Start;
#BGCHANGES:;
#KEYSOUNDS:;
#ATTACKS:
;

//---------------dance-single - ----------------
#NOTEDATA:;
#CHARTNAME:;
#STEPSTYPE:dance-single;
#DESCRIPTION:;
#CHARTSTYLE:;
#DIFFICULTY:Hard;
#METER:8;
#RADARVALUES:0.472,0.487,0.195,0.118,0.254,353.000,23.000,14.000,0.000,0.000,0.000,0.000,0.000,0.472,0.487,0.195,0.118,0.254,353.000,23.000,14.000,0.000,0.000,0.000,0.000,0.000;
#CREDIT:;
#DISPLAYBPM:102.000;
#NOTES:
1000
0010
0100
0010
1000
0001
1001
0000
,
0001
0010
0100
1000
0010
0100
0110
0000
,
0010
1000
0010
1000
0001
1000
1001
0000
,
0001
0000
0010
0000
0200
0000
0000
2300
0000
0000
3010
0000
0200
0000
0000
0000
,
0310
1000
0020
0000
0130
0001
0200
0000
,
0310
0000
1000
0000
0001
0000
0000
0010
0000
0000
0100
0000
1000
0000
0010
0000
,
0100
0000
0001
0000
1000
0000
0000
0100
0000
0000
1000
0000
0001
0000
0100
0000
,
0001
0000
1000
0000
0001
0000
0000
0100
0000
0000
0001
0000
0020
0000
0000
0000
,
0130
0000
1000
0000
0100
0000
0000
1000
0000
0000
0010
0000
0100
0000
0010
0100
,
0010
0000
0100
0000
0001
0000
0000
0010
0000
0000
0001
0000
0100
0000
0001
0010
,
0001
0000
1000
0000
0100
0000
0000
0010
0000
0000
0001
0000
1000
0000
0100
1000
,
0100
0000
1000
0000
0010
0000
0000
0100
0000
0000
0001
0000
0010
0000
0001
0100
,
0001
1000
0100
0010
0100
1000
0010
0000
,
0100
0010
1000
0010
0100
0001
0010
0000
,
0100
0010
0100
0010
0100
1000
0100
1000
,
0010
0000
0100
0000
0001
0000
0000
1001
0000
0000
1100
0000
0110
0000
0000
0000
,
0010
0001
0010
0000
0001
0000
0100
0001
0100
0000
0010
0000
1000
0000
0000
0000
,
0010
0000
0100
0000
0010
0000
1000
0010
1000
0000
0100
0000
0010
0000
0000
0000
,
0001
0010
0001
0010
0001
0000
0100
0001
0010
0000
0100
0000
0001
0000
0000
0000
,
0100
0000
1000
0000
0010
0000
0000
0100
0000
0000
0010
0000
0110
0000
0100
0000
,
0110
0000
0010
0000
1010
0000
1000
0000
1100
0000
0100
0000
0110
0000
0001
0010
,
0011
0001
0101
0100
0110
0010
1010
1000
,
1001
0000
0001
0000
0011
0000
0001
0000
1001
0000
1000
0000
1010
0000
1000
0100
,
1100
1000
1001
0001
0101
0001
1001
1000
,
0001
0000
1000
0000
0010
0000
0100
0000
0010
1000
0010
0000
2000
0000
0000
0000
,
3010
0000
1000
0000
0100
0000
0010
0000
0001
0010
0001
0010
0002
0000
0000
0000
,
1003
0000
0010
0000
0100
0000
0001
0000
1000
0001
1000
0001
1000
0000
0010
0000
,
1000
0000
0100
0000
0010
0000
0000
0001
0000
0100
0010
0100
0010
0000
0100
0000
,
0010
0000
1000
0000
0001
0000
1000
0001
0000
0100
0001
0000
0100
0000
0010
0100
,
0010
0000
1000
0000
0010
0000
0100
0010
0000
1000
0100
0000
0010
0000
0001
0100
,
0001
0000
0010
0000
0001
0000
0100
0010
0000
1000
0010
0000
0100
0000
0010
1000
,
0010
0100
0010
0100
0010
0000
0100
0000
0001
1000
0001
1000
0001
0000
1000
0000
,
0001
0000
1000
0000
0010
0000
0100
0010
0100
0000
0010
0000
2000
0000
0000
0000
,
3100
0000
0010
0000
0001
0000
0100
0001
0010
0000
0001
0000
0200
0000
0000
0000
,
0310
0000
1000
0000
0010
0000
1000
0001
1000
0000
0001
0000
0010
0000
0100
0000
,
1000
0000
0010
0000
0100
0000
0001
0100
0000
0010
0100
0000
0020
0000
0000
0000
,
1030
0010
1000
0000
0010
0000
1000
0001
1000
0000
0001
0000
0020
0000
0000
0000
,
0031
0000
0100
0000
0010
0000
1000
0010
1000
0000
0001
0000
0020
0000
0000
0000
,
0130
1000
0100
1000
0100
0000
1000
0001
0010
0000
0001
0000
0100
0000
0010
0000
,
0001
0000
0010
0000
1000
0000
0001
0010
0000
0100
1000
0000
0010
0000
0000
0000
,
0100
0000
0000
0000
0010
0000
0000
1000
0000
0000
0100
0000
0010
0000
0001
0000
,
0100
0000
0000
0000
0010
0000
0000
0100
0000
0000
0001
0000
1000
0000
0100
0000
,
1000
0000
0000
0000
0100
0000
0000
0010
0000
0000
0001
0000
0100
0000
0010
0000
,
0100
0000
0000
0000
0010
0000
0000
1000
0000
0000
0001
0000
1000
0000
0001
0000
,
0200
0000
0000
0000
,
0000
0000
0000
0000
,
0300
0000
0000
0000
;

//---------------dance-single - ----------------
#NOTEDATA:;
#CHARTNAME:;
#STEPSTYPE:dance-single;
#DESCRIPTION:;
#CHARTSTYLE:;
#DIFFICULTY:Medium;
#METER:5;
#RADARVALUES:0.318,0.311,0.068,0.042,0.025,250.000,8.000,5.000,0.000,0.000,0.000,0.000,0.000,0.318,0.311,0.068,0.042,0.025,250.000,8.000,5.000,0.000,0.000,0.000,0.000,0.000;
#CREDIT:;
#DISPLAYBPM:102.000;
#NOTES:
0010
1000
0010
0000
1000
0001
1000
0000
,
0001
0010
0001
0010
0100
0010
0100
0000
,
1000
0100
1000
0000
0010
1000
0010
0000
,
0100
0000
0110
0000
0001
0100
0001
0000
,
1000
1001
0001
1001
,
0001
0000
0010
0000
0100
0010
0100
0010
,
0100
1000
0010
0100
,
0010
0000
1000
0000
0001
1000
0001
1000
,
0001
0000
1000
0000
0010
0000
0100
0010
,
0100
0000
0010
0000
1000
0000
0001
0010
,
0001
0000
0010
0000
0100
0000
1000
0100
,
1000
0010
1000
0000
0010
0100
0010
0000
,
0100
0010
0100
0000
0010
1000
0010
0000
,
1000
0000
0001
0000
0010
0001
0010
0000
,
0100
0010
0100
0010
0100
1000
0100
0000
,
1000
0000
0010
0000
0100
0010
0100
0000
,
0010
1000
0001
1001
,
0001
0010
0100
1100
,
1000
0010
1000
1010
,
0010
0110
0001
1001
,
0001
0000
1000
0000
0010
1000
0010
1000
,
0010
0000
1000
0000
0001
0000
0010
0001
,
0010
0000
0100
0000
1000
0010
1000
0010
,
1000
0000
0001
0000
0100
0000
0001
1000
,
0001
0100
0010
0100
0001
0010
0100
0000
,
0010
0100
0010
0100
1000
0100
1000
0000
,
0010
1000
0010
1000
0010
0100
0010
0100
,
0001
0100
0001
0100
0001
0010
0001
0010
,
0001
0000
0000
0000
1000
0000
0000
0010
0000
0000
0100
0000
0000
0000
0010
0000
,
0100
0000
0000
0000
0010
0000
0000
1000
0000
0000
0100
0000
0000
0000
0010
0000
,
0100
0000
0000
0000
0010
0000
0000
0001
0000
0000
0100
0000
0000
0000
0001
0000
,
0100
0000
0000
0000
0001
0000
0000
0010
0000
0000
0100
0000
1000
0000
0100
0000
,
1000
0010
0100
0010
1000
0001
2000
0000
,
3001
0001
0010
0010
0100
0100
2000
0000
,
3010
1000
0010
1000
0010
0100
0020
0000
,
0130
0000
0001
0000
0100
0000
0000
0010
0000
0000
0100
0000
0020
0000
0000
0000
,
1030
0100
1000
0000
0001
0010
0001
0000
,
0100
0001
0100
0001
0100
0010
0100
0000
,
0010
1000
0010
0000
1000
0001
1000
0000
,
0001
0000
0010
0000
0001
0000
0000
0010
0000
0000
0100
0000
1000
0000
0000
0000
,
0010
0000
1000
0000
0001
0000
0010
0001
,
0010
0000
0001
0000
0100
0000
0010
1000
,
0010
0000
1000
0000
0001
0000
1000
0001
,
1000
0000
0001
0000
0010
0000
0001
0010
,
0002
0000
0000
0000
,
0000
0000
0000
0000
,
0003
0000
0000
0000
;

//---------------dance-single - ----------------
#NOTEDATA:;
#CHARTNAME:;
#STEPSTYPE:dance-single;
#DESCRIPTION:;
#CHARTSTYLE:;
#DIFFICULTY:Easy;
#METER:3;
#RADARVALUES:0.199,0.205,0.008,0.042,0.000,159.000,1.000,5.000,0.000,0.000,0.000,0.000,0.000,0.199,0.205,0.008,0.042,0.000,159.000,1.000,5.000,0.000,0.000,0.000,0.000,0.000;
#CREDIT:;
#DISPLAYBPM:102.000;
#NOTES:
1000
0010
0100
0010
,
0100
0001
0010
0001
,
0010
0100
1000
0100
,
1000
0010
0100
0110
,
0010
0010
1000
1000
,
0001
1000
0001
0001
,
0010
0001
0010
0010
,
0100
1000
0100
0100
,
1000
0000
0010
0100
,
0010
0000
0100
0001
,
0100
0000
0001
0010
,
0001
0000
1000
0001
,
1000
0010
0200
0310
,
0010
1000
0002
1003
,
1000
0100
0020
0031
,
0002
0103
0200
0310
,
0010
1000
0001
1000
,
0001
0010
0100
1000
,
0100
0010
0001
1000
,
0001
0100
0010
1000
,
0001
1000
0001
0000
,
0010
0001
0010
0000
,
0100
1000
0100
0000
,
1000
0010
1000
0000
,
0010
0100
0010
0100
,
0001
0010
0001
0010
,
0100
1000
0100
1000
,
0010
0100
0001
1000
,
0001
0001
0001
0000
,
1000
1000
1000
0000
,
0010
0010
0010
0000
,
1000
1000
1000
0000
,
0100
0010
0001
0001
,
0010
0100
1000
1000
,
0010
0100
0001
0001
,
1000
0000
0001
1000
,
0001
0010
0001
1000
,
0100
1000
0010
0100
,
0010
1000
0001
1000
,
0001
0000
1000
0001
,
1000
0000
0010
0100
,
0001
0000
0100
0010
,
1000
0000
0001
0010
,
0100
0000
1000
0001
,
1000
0000
0000
0000
;

//---------------dance-single - ----------------
#NOTEDATA:;
#CHARTNAME:;
#STEPSTYPE:dance-single;
#DESCRIPTION:;
#CHARTSTYLE:;
#DIFFICULTY:Beginner;
#METER:1;
#RADARVALUES:0.099,0.135,0.000,0.000,0.000,82.000,0.000,0.000,0.000,0.000,0.000,0.000,0.000,0.099,0.135,0.000,0.000,0.000,82.000,0.000,0.000,0.000,0.000,0.000,0.000,0.000;
#CREDIT:;
#DISPLAYBPM:102.000;
#NOTES:
// measure 0
1000
0000
0000
0010
,  // measure 1
0010
0000
0000
0100
,  // measure 2
0100
0000
0000
0001
,  // measure 3
0001
0000
1000
1000
,  // measure 4
1000
0000
0010
0000
,  // measure 5
0100
0100
0100
0100
,  // measure 6
0100
0000
0001
0000
,  // measure 7
1000
1000
1000
1000
,  // measure 8
1000
0000
0000
0000
,  // measure 9
0001
0000
0000
0000
,  // measure 10
0010
0000
0000
0000
,  // measure 11
0001
0000
0100
0000
,  // measure 12
0010
0000
0000
0100
,  // measure 13
0100
0000
0000
0010
,  // measure 14
0010
0000
0000
1000
,  // measure 15
1000
0000
0001
0000
,  // measure 16
1000
0000
0000
0001
,  // measure 17
0001
0000
0000
0100
,  // measure 18
0100
0000
0000
0010
,  // measure 19
0010
0000
1000
0000
,  // measure 20
0001
0000
0000
0000
,  // measure 21
0010
0000
0000
0000
,  // measure 22
0001
0000
0000
0000
,  // measure 23
1000
0000
0000
0000
,  // measure 24
0010
0000
0010
0000
,  // measure 25
0100
0000
0100
0000
,  // measure 26
0001
0000
1000
0000
,  // measure 27
0001
0000
1000
0000
,  // measure 28
0001
0000
0000
0000
,  // measure 29
1000
0000
0000
0000
,  // measure 30
0010
0000
0000
0000
,  // measure 31
0100
0000
0010
0000
,  // measure 32
0100
0100
0100
0100
,  // measure 33
0010
0010
0010
0010
,  // measure 34
1000
1000
1000
1000
,  // measure 35
0001
0001
1000
1000
,  // measure 36
0001
0000
0000
0000
,  // measure 37
1000
0000
0000
0000
,  // measure 38
0100
0000
0000
0000
,  // measure 39
0010
0000
0001
0001
,  // measure 40
0001
0000
0000
0000
;
