#TITLE:In Heaven;
#SUBTITLE:;
#ARTIST:Sota Fujimori;
#TITLETRANSLIT:;
#SUBTITLETRANSLIT:;
#ARTISTTRANSLIT:;
#CREDIT:;
#BANNER:ih-bn.png;
#BACKGROUND:ih-bg.png;
#LYRICSPATH:;
#CDTITLE:;
#MUSIC:[ROUND 9] - In Heaven.mp3;
#OFFSET:-0.025;
#SAMPLESTART:51.553;
#SAMPLELENGTH:12.000;
#SELECTABLE:YES;
#BPMS:0.000=149.000;
#STOPS:;
#BGCHANGES:;

//---------------dance-single - ----------------
#NOTES:
     dance-single:
     :
     Hard:
     8:
     0.464,0.594,0.033,0.237,0.143: // measure 1
0000
0000
0000
0000
,  // measure 2
0000
0000
0000
0000
,  // measure 3
0000
0000
0000
0000
,  // measure 4
0000
0000
0000
0000
,  // measure 5
0001
0100
0010
1000
,  // measure 6
0001
0000
0100
0010
0000
0000
0010
0000
,  // measure 7
0100
0001
1000
0100
,  // measure 8
0020
0000
0000
0030
,  // measure 9
0001
0000
0100
0000
1000
0100
0010
1000
,  // measure 10
0001
0000
0010
0100
0000
1000
0001
0100
,  // measure 11
0000
0010
1000
0100
0001
0100
1000
0010
,  // measure 12
0100
0000
0001
0000
0010
0001
0100
0000
,  // measure 13
0010
0000
1000
0000
0100
0010
0100
1000
,  // measure 14
0010
0000
0100
0001
0000
0010
0001
0100
,  // measure 15
0000
0010
1000
0100
0010
0001
1000
0010
,  // measure 16
0200
0000
0000
0300
,  // measure 17
0001
0000
0010
0000
0001
0100
0010
0000
,  // measure 18
1000
0000
0100
0000
1000
0001
0100
0000
,  // measure 19
0010
0000
1000
0000
0100
0010
0100
0000
,  // measure 20
1000
0000
0001
0000
0100
0010
0100
0010
,  // measure 21
1000
0000
0001
0000
0010
0000
0100
1000
,  // measure 22
0001
0000
0100
0000
0010
0000
0100
0001
,  // measure 23
0010
0000
0100
0000
1000
0001
0100
0000
,  // measure 24
0010
0000
1000
0001
0000
1001
0000
0000
,  // measure 25
0100
0000
0010
0000
0001
0100
0010
0000
,  // measure 26
0100
0000
0001
0000
1000
0100
0010
0000
,  // measure 27
0001
0000
0100
0000
1000
0100
0001
0000
,  // measure 28
0010
0000
0100
0000
1000
0010
0100
0000
,  // measure 29
0001
0000
0010
0000
1000
0010
0100
0000
,  // measure 30
1000
0000
0010
0000
0100
0001
1000
0000
,  // measure 31
0100
0000
0010
0000
0001
0100
0010
0000
,  // measure 32
0200
0000
0000
0300
,  // measure 33
0001
0000
0101
0000
0100
0010
0100
0001
,  // measure 34
2000
0000
0000
3200
0000
0000
1300
0000
,  // measure 35
0001
0000
0100
0010
0100
0001
0010
0100
,  // measure 36
1000
0000
0000
0002
0000
0000
0103
0000
,  // measure 37
0010
0000
1000
0100
0000
1000
0010
0100
,  // measure 38
0002
0000
0000
0023
0000
0000
0031
0000
,  // measure 39
1000
0000
0100
0001
0100
1000
0010
0100
,  // measure 40
0001
0000
0010
0001
0000
1000
0100
1000
,  // measure 41
0010
0000
1000
0100
0000
0100
1000
0001
,  // measure 42
0200
0000
0000
0320
0000
0000
0130
0000
,  // measure 43
0001
0000
0010
0000
0001
1000
0100
1000
,  // measure 44
0010
0000
0010
0200
0000
0000
0301
0000
,  // measure 45
1000
0100
0010
0001
0000
0001
0010
0100
,  // measure 46
2000
0000
0000
3020
0000
0000
1030
0000
,  // measure 47
2002
0000
3003
0000
0100
0010
0100
1000
,  // measure 48
0020
0000
0030
0200
0000
0000
0310
0000
,  // measure 49
1000
0000
0100
0010
0100
0000
1000
0000
,  // measure 50
0001
0000
0100
0010
0000
0000
1000
0100
,  // measure 51
1000
0000
0010
0200
0000
0000
0301
1000
,  // measure 52
0000
0000
0100
0000
0000
0000
0020
0000
0000
0000
0030
0000
0001
0100
0001
0000
,  // measure 53
1000
0000
0100
1000
0020
0000
0230
0000
,  // measure 54
0301
0000
0010
0002
0000
0003
2000
0000
,  // measure 55
3020
0000
0130
0001
1000
0000
0100
1000
,  // measure 56
0010
0100
1000
0000
0100
0001
0020
0000
,  // measure 57
0030
0001
0000
0000
0100
0000
0000
0010
0000
0000
1000
0000
0100
0000
1000
0000
,  // measure 58
0001
0000
0000
0100
0000
0000
0010
0000
0000
0100
0000
0000
0001
0000
1000
0000
,  // measure 59
0100
0000
0000
0010
0000
0000
0001
0000
0000
1000
0000
0000
0010
0000
0100
0000
,  // measure 60
0001
0000
0000
1000
0000
0000
0100
0000
0000
0001
0000
0000
0100
0000
0010
0000
,  // measure 61
0000
0001
0000
0000
0100
0000
0000
0010
0000
0000
1000
0000
0100
0000
1000
0000
,  // measure 62
0001
0000
0000
0100
0000
0000
0010
0000
0000
0100
0000
0000
0001
0000
1000
0000
,  // measure 63
0100
0000
0000
0010
0000
0000
0001
0000
0000
0100
0000
0000
1000
0000
0100
0000
,  // measure 64
0001
0000
0000
1000
0000
0000
0100
0000
0000
0010
0000
0000
0001
0000
0000
0000
,  // measure 65
2002
0000
3003
0000
0100
0010
0100
1000
,  // measure 66
0001
0000
0100
0000
0001
0000
0100
0000
0001
0000
0100
0000
1000
0000
0000
0100
0000
0000
0001
0000
0000
0000
0000
0000
,  // measure 67
1000
0001
1000
0001
0010
0100
1000
0001
,  // measure 68
0100
0000
0010
0000
0100
0000
0010
0000
0100
0000
0010
0000
1000
0000
0000
0100
0000
0000
0001
0000
0000
0000
0000
0000
,  // measure 69
0001
0100
1000
0100
0010
0001
1000
0010
,  // measure 70
0100
0000
1000
0000
0100
0000
2000
0000
0000
0000
0000
0000
3001
0000
0000
0010
0000
0000
0100
0000
0000
0000
0000
0000
,  // measure 71
0001
0000
0000
0010
0000
0000
0000
0000
0000
0010
0000
0000
0001
0000
1000
0000
0001
0000
1000
0000
0000
0010
0000
0000
,  // measure 72
0100
0000
0001
0000
0100
0000
0010
0000
1000
0000
0010
0000
1000
0000
0000
0001
0000
0000
0100
0000
0010
0000
1000
0000
,  // measure 73
0002
0000
0000
0003
;

//---------------dance-single - ----------------
#NOTES:
     dance-single:
     :
     Easy:
     4:
     0.229,0.237,0.098,0.073,0.000:
0000
0000
0000
0000
,
0000
0000
0000
0000
,
0000
0000
0000
0000
,
0000
0000
0000
0000
,
1000
0000
0010
0000
,
1000
0000
0100
0000
,
0010
0000
0001
0000
,
2002
0000
3003
0000
,
0100
0000
0010
0000
,
0100
0100
0100
0000
,
1000
0000
0001
0000
,
1000
1000
1000
0000
,
0010
0000
0100
0000
,
0010
0010
0010
0000
,
0001
0000
1000
0000
,
2002
0000
3003
0000
,
0001
0000
0010
0000
,
1000
0001
0010
0100
,
1000
0000
0100
0000
,
0010
0001
1000
0010
,
0100
0000
1000
0000
,
0001
1000
0100
0010
,
1000
0000
0001
0000
,
0010
0000
0100
0000
,
0100
0000
1000
0000
,
0010
0100
0010
0000
,
1000
0000
0001
0000
,
0010
0100
0010
0000
,
0001
0000
1000
0000
,
0010
0100
0001
0000
,
1000
0000
0100
0000
,
0220
0000
0000
0330
,
0010
0001
0100
0100
,
0010
0000
1000
0000
,
0100
1000
0010
0010
,
0100
0000
0001
0000
,
1000
0100
0010
0010
,
0100
0000
0001
0000
,
0100
1000
0001
0001
,
0100
0000
0010
0000
,
0100
0000
0001
0000
,
1000
0100
0001
0000
,
0001
0000
0100
0000
,
0010
0001
1000
0000
,
0010
0000
0100
0000
,
0001
1000
0100
0000
,
0010
0000
0001
0000
,
1000
0000
0000
1001
0000
0000
0000
0000
,
0001
0010
0001
0000
,
0010
0100
0010
0000
,
0100
1000
0100
0000
,
1000
0001
1000
1000
,
0010
0100
0010
0000
,
0100
0001
0100
0000
,
0001
1000
0001
0001
,
0010
0100
0010
0000
,
0010
0001
0010
0100
,
1000
0000
1000
0000
,
0001
0100
0010
0100
,
0001
0000
0001
0000
,
1000
0100
0010
0001
,
1000
0000
1000
0000
,
0010
0100
0001
1000
,
0001
0000
0000
0002
0000
0000
0003
0000
,
1000
0000
1001
0000
,
0010
0000
0110
0000
,
0001
0000
0101
0000
,
1000
0000
1010
0000
,
0100
0000
0110
0000
,
0020
0030
1001
0000
,
0100
0000
0101
0000
,
0100
0000
1010
0000
,
0002
0000
0003
0000
;

//---------------dance-single - ----------------
#NOTES:
     dance-single:
     :
     Medium:
     6:
     0.353,0.355,0.073,0.122,0.000:
0000
0000
0000
0000
,
0000
0000
0000
0000
,
0000
0000
0000
0000
,
0000
0000
0000
0000
,
1000
0000
0010
0000
,
0100
0001
1000
0100
,
0010
0000
0100
0000
,
2002
0000
3003
0000
,
1000
0100
1000
0010
,
0100
0000
0001
0100
0000
0100
0010
0000
,
1000
0100
0001
0100
,
1000
0000
0010
0000
0100
0001
0100
0000
,
0010
1000
0001
0010
,
0100
0000
1000
0010
0000
0010
0100
0000
,
0001
0010
0100
1000
,
2002
0000
3003
0000
,
0001
0100
0010
0100
,
0001
0000
1000
0000
0100
0010
0100
0000
,
1000
0010
0100
0001
,
0010
0000
0100
0000
1000
0001
1000
0000
,
0010
0001
0010
1000
,
0100
0000
0010
0000
0001
1000
0001
0000
,
0100
1000
0100
0010
,
1000
0000
0001
1000
0000
0001
0000
0000
,
0010
0100
1000
0010
,
0100
0000
0001
0000
0010
0001
0010
0000
,
0100
1000
0001
0100
,
0010
0000
0100
0000
0001
1000
0100
0000
,
1000
0010
0100
0001
,
0010
0000
0100
0000
1000
0010
0100
0000
,
0010
1000
0001
0010
,
0220
0000
0000
0330
,
0010
0000
0001
0000
0100
0010
0100
0000
,
0001
1000
0100
0100
,
1000
0000
0010
0000
0100
0001
0100
0000
,
0010
1000
0001
0001
,
0010
0000
0100
0000
0001
0100
0001
0000
,
0100
1000
0001
0001
,
0100
0000
0010
0000
0100
0001
0100
0000
,
0010
1000
1001
0000
,
0100
0000
0010
0000
0001
0100
0010
0000
,
0100
0001
1000
1000
,
0100
0000
0010
0000
0100
1000
0010
0000
,
0100
0001
0010
0010
,
0001
0000
0100
0000
0010
1000
0001
0000
,
0010
0100
0001
0001
,
0200
0000
0000
0000
0310
0001
1000
0000
,
0010
0000
0000
0110
0000
0000
1001
0000
,
0010
0000
0001
1000
0001
0000
0100
0000
,
0010
0000
1000
0100
0000
0000
1000
0000
,
0010
0000
0100
0001
0000
0000
0100
0010
,
0000
1000
0000
0100
0000
0000
1000
0000
,
0001
0000
0100
0010
0100
0000
0001
0000
,
1000
0000
0100
0010
0000
0000
0100
0000
,
1000
0000
0001
0100
0000
0000
0010
0100
,
0000
0000
0001
0000
0010
0000
0100
1000
,
0010
0000
0100
0000
0001
1000
0100
0000
,
0010
0100
1000
0010
,
0100
0000
0001
0000
0010
0100
0001
0000
,
0100
1000
0001
0100
,
0010
0000
1000
0000
0001
0010
1000
0000
,
0010
0100
1000
0010
,
0100
0000
0001
0000
1000
0100
0001
0000
,
0100
0000
0000
0010
0000
0000
1001
0000
,
0200
0300
1001
0001
,
0200
0000
0310
1000
,
0001
1000
0001
0000
0020
0000
0130
0000
,
2000
0000
3001
0100
,
0010
0100
0001
0000
1001
0000
0100
0000
,
0020
0000
0031
0100
,
0010
1000
0010
0000
0200
0000
0301
1000
,
0020
0000
0130
1000
,
0002
0000
0003
0000
;

//---------------dance-single - ----------------
#NOTES:
     dance-single:
     :
     Beginner:
     1:
     0.089,0.145,0.033,0.000,0.000:
0000
0000
0000
0000
,
0000
0000
0000
0000
,
0000
0000
0000
0000
,
0000
0000
0000
0000
,
1000
0000
0000
0000
,
0010
0000
0000
0000
,
0100
0000
0000
0000
,
1001
0000
0000
0000
,
0100
0000
0000
0000
,
0100
0000
0000
0000
,
0100
0000
0000
0000
,
0000
0000
0000
0000
,
0010
0000
0000
0000
,
0010
0000
0000
0000
,
0010
0000
0000
0000
,
0000
0000
0000
0000
,
0001
0000
0000
0000
,
1000
0000
0000
0000
,
0001
0000
0000
0000
,
1000
0000
0000
0000
,
0010
0000
0000
0000
,
0100
0000
0000
0000
,
0010
0000
0000
0000
,
0100
0000
0000
0000
,
0001
0000
0000
0000
,
0010
0000
0000
0000
,
0100
0000
0000
0000
,
1000
0000
0000
0000
,
0010
0000
0000
0000
,
0100
0000
0000
0000
,
0001
0000
0000
0000
,
1001
0000
0000
0000
,
0100
0000
0000
0000
,
0100
0000
0000
0000
,
0010
0000
0000
0000
,
0010
0000
0000
0000
,
0001
0000
0000
0000
,
0001
0000
0000
0000
,
1000
0000
0000
0000
,
1000
0000
0000
0000
,
0010
0000
0000
0000
,
0100
0000
0000
0000
,
0001
0000
0000
0000
,
1000
0000
0000
0000
,
0100
0000
0000
0000
,
0010
0000
0000
0000
,
0001
0000
0000
0000
,
1001
0000
0000
0000
,
0100
0000
0000
0000
,
0100
0000
0000
0000
,
0100
0000
0100
0000
,
0100
0000
0000
0000
,
0010
0000
0000
0000
,
0010
0000
0000
0000
,
0010
0000
0010
0000
,
0010
0000
0000
0000
,
0001
0000
1000
0000
,
0001
0000
1000
0000
,
0001
0000
0000
0000
,
1000
0000
0000
0000
,
0010
0000
0100
0000
,
0010
0000
0100
0000
,
0010
0000
0000
0000
,
0100
0000
0000
0000
,
1001
0000
0000
0000
,
0100
0000
0000
0000
,
0010
0000
0000
0000
,
0001
0000
0000
0000
,
1000
0000
0000
0000
,
0010
0000
0000
0000
,
0100
0000
0000
0000
,
0001
0000
0000
0000
;

//---------------dance-single - ----------------
#NOTES:
     dance-single:
     :
     Challenge:
     10:
     0.657,0.710,0.318,0.188,0.269:
0000
0000
0000
0000
,
0000
0000
0000
0000
,
0000
0000
0000
0000
,
0000
0000
0000
0000
,
0010
0000
0000
1000
0000
0000
0100
0000
1000
0000
0000
0001
0000
0000
0100
0000
,
0010
0000
0000
1000
0000
0000
0001
0000
0010
0000
0000
0100
0000
0000
1000
0000
,
0001
0000
0000
0100
0000
0000
0010
0000
1000
0000
0000
0001
0000
0000
0010
0000
,
0220
0000
0000
0330
,
0010
0100
1000
0001
0100
0010
0100
0001
,
0010
0000
0100
1000
0000
1000
0001
0100
,
0010
1000
0100
0010
0100
1000
0010
0100
,
0001
0000
0000
0010
0001
0000
0100
0000
1000
0000
0000
0010
0100
0000
0001
0000
,
0010
0001
0100
1000
0100
0010
1000
0001
,
0010
0000
0100
1000
0000
0001
0100
0010
,
1000
0001
0010
0100
1000
0001
0100
0010
,
0220
0000
0000
0000
0000
0000
0000
0000
0330
0000
0000
0110
0000
1001
0000
0000
,
1000
0100
0010
0001
0100
0010
0100
0001
,
1000
0100
0010
0100
1000
0001
0100
0010
,
0100
0001
0010
0100
1000
0001
0100
0010
,
1000
0001
0010
0100
1000
0001
0100
0010
,
0100
0001
1000
0100
0010
0001
1000
0010
,
0100
0001
1000
0100
0010
0100
1000
0010
,
0100
0001
0010
0001
0100
0010
1000
0001
,
0010
0000
0100
1000
0000
1001
0000
0000
,
0001
0010
0100
0010
0001
0100
0010
0100
,
0001
1000
0100
1000
0001
0100
1000
0100
,
0001
1000
0100
0010
0100
1000
0010
0100
,
0010
1000
0100
0001
0100
1000
0010
0001
,
0010
0100
0001
0010
0100
0010
0001
1000
,
0010
0100
1000
0100
0010
1000
0001
0010
,
0100
1000
0001
0100
0010
0100
0001
0010
,
0200
0000
0000
1300
0010
0001
1000
0100
,
0001
0010
0011
0000
0100
1000
1100
0000
,
1000
0010
1010
0000
0100
0001
0101
0000
,
0001
0010
0011
0000
0001
1000
1001
0000
,
1000
0100
1100
0000
1000
0010
1010
0010
,
0100
0001
0011
0000
0010
0100
1100
0000
,
1000
0001
0101
0000
0100
0010
1010
0000
,
1000
0001
0011
0000
0010
0100
0110
0000
,
0100
0000
1000
0000
1001
0000
0001
0000
0100
0010
0000
0000
0110
0000
0100
0000
,
0001
0010
0011
0010
0100
1000
1100
1000
,
0001
0100
0101
0100
0010
1000
1010
1000
,
0001
0010
0011
0010
0100
1000
1100
1000
,
0001
0100
0101
0100
0010
1000
1010
1000
,
0100
0010
0110
0100
1000
0001
1001
0001
,
0100
0010
0110
0010
1000
0001
1001
0000
,
0220
0000
0330
0000
0010
1000
0100
1000
,
0002
0000
0000
0203
0000
0000
0310
0000
,
1000
0100
0010
0001
0100
0010
0100
0001
,
2000
0000
3100
0002
0000
0000
0103
0010
,
0002
0000
0103
2000
0000
0000
3100
0001
,
0000
0000
0010
0000
0000
0000
0200
0000
0000
0000
0000
0000
1300
0100
1000
0000
,
0010
0100
0001
1000
0100
0010
0001
0100
,
0020
0000
1030
0200
0000
0000
0320
0000
,
0230
0000
0310
0002
0000
0000
0013
0100
,
1000
0100
0001
0100
1000
0010
0110
0000
,
0010
1000
0000
0001
0010
0000
0100
1000
0000
0001
0100
0010
1000
0001
0010
0100
,
1000
0000
0010
0100
0000
0001
0010
0000
0100
1000
0000
0010
0100
0000
0001
0000
,
0010
0000
0001
0100
0000
0010
1000
0000
0100
0010
0000
0100
1000
0000
0010
0000
,
0100
0000
0001
0010
0000
0100
1000
0000
0010
0100
0000
0001
0100
0000
0010
0000
,
1000
0100
0000
1000
0010
0000
0100
0001
0000
1000
0100
0010
0001
0010
0100
1000
,
0001
0000
0100
0010
0000
1000
0100
0000
0010
0001
0000
0100
0010
0000
1000
0000
,
0001
0000
0010
0100
0000
1000
0010
0000
0100
0001
0000
1000
0100
0000
0010
0000
,
0011
0000
0000
1100
0000
0000
1001
0000
0000
0101
0000
0000
0200
0000
0000
0000
,
0310
0000
0000
0000
0010
0000
0000
0000
0010
0000
0000
0000
1000
0000
0000
1000
0000
0000
0001
0000
0000
0001
0000
0000
,
0100
0000
0010
0000
0100
0000
0001
0000
1000
0000
0001
0000
0010
0000
0000
0100
0000
0000
1000
0000
0000
0001
0000
0000
,
0100
0010
0100
0010
1000
0100
0001
0100
,
1000
0000
0010
0000
1000
0000
0001
0000
0000
0001
0000
0000
0100
0000
0000
0010
0000
0000
0100
0000
0001
0000
0100
0000
,
0010
1000
0001
1000
0010
0001
0010
1000
,
0001
0000
0000
0000
0010
0000
0000
0000
0001
0000
0000
0000
0200
0000
0000
0000
0000
0000
0000
0000
0000
0000
0000
0000
0310
0000
0000
0000
0000
0000
1000
0000
0000
0000
0000
0000
0001
0000
0000
0010
0000
0000
0001
0000
0000
0000
0000
0000
,
0100
0000
0000
0000
0000
0000
0010
0000
0000
0000
0000
0000
0000
0000
0000
0010
0000
0000
0100
0000
0000
0000
0000
0000
0001
0000
0000
0000
0000
0000
1000
0000
0100
0000
1000
0000
0100
0000
0000
0000
0000
0000
0010
0000
0000
0000
0000
0000
,
0001
0000
0100
0000
0010
0000
1000
0000
0000
0001
0000
0000
0010
0000
0000
0100
0000
0000
2000
0000
0000
0000
0000
0000
,
3002
0000
0003
0000
;
