#TITLE:Hello;
#SUBTITLE:;
#ARTIST:capsule;
#TITLETRANSLIT:;
#SUBTITLETRANSLIT:;
#ARTISTTRANSLIT:;
#CREDIT:Lisek;
#BANNER:bn.png;
#BACKGROUND:bg.jpg;
#LYRICSPATH:;
#CDTITLE:Lisek.png;
#MUSIC:[ROUND 9] - Hello.ogg;
#OFFSET:-0.100;
#SAMPLESTART:36.235;
#SAMPLELENGTH:14;
#SELECTABLE:YES;
#BPMS:0.000=132.000,144.000=66.000,152.000=132.000;
#STOPS:;
#BGCHANGES:;

//---------------dance-single - ----------------
#NOTES:
     dance-single:
     Lisek:
     Hard:
     7:
     0.406,0.636,0.511,0.138,0.044:
0000
0000
0000
0000
,
0000
0000
0000
0000
,
0000
0000
0000
0000
,
0110
0110
0MM0
0110
,
1000
0000
0000
0001
0100
0000
0000
1000
,
0100
0000
0000
0001
0100
0000
0010
1000
,
0100
0000
0000
0001
0100
0000
0000
1000
,
0100
0000
0000
0001
0100
1000
0001
0000
,
0101
0000
0100
0000
0010
1000
0100
0000
,
0010
0000
0001
0000
0100
1000
0100
0001
,
1000
0000
0000
0010
0001
0000
0000
0010
,
1000
0000
0000
0001
1000
0010
0100
0000
,
0110
0000
1001
0000
,
0110
0000
1001
0000
,
0110
0000
1001
0000
,
0110
0000
1001
1010
,
1001
0000
0001
0000
1000
0001
0100
0000
,
1001
0000
1000
0000
0001
1000
0010
0000
,
1001
0000
0000
0000
0110
0000
0000
2002
,
0000
0000
0000
3003
M00M
0000
0110
0000
,
1000
0001
0100
0010
1000
0100
0010
0100
,
1000
0001
0100
0010
0100
0001
1000
0100
,
1000
0010
0100
0001
0010
0001
1000
0100
,
1000
0000
0001
0000
0100
0000
0010
0100
0010
0000
1000
0000
0001
0000
0000
0000
,
1000
0100
0100
0000
0010
0001
0001
1000
,
0010
0100
0100
0000
0010
1000
1000
0001
,
0010
0000
0000
0100
1000
0000
0000
0001
,
0100
0010
1000
0001
1000
0000
1001
0000
,
2002
0000
0000
0010
0010
0000
0000
0100
,
0100
0000
0000
0010
0100
0000
0000
0100
,
0100
0000
0000
0010
0010
0000
0000
0100
,
0100
0000
0000
0010
3103
0000
1111
0000
,
1010
0000
1100
0000
,
0101
0000
0011
0000
,
1010
1000
0000
0000
0101
0001
1000
2002
,
0000
0000
0000
3003
M00M
0000
0001
0000
,
2000
0000
0000
3010
0002
0000
0000
0013
2000
0000
0000
3001
0020
0000
0000
0031
,
0200
0000
0000
1300
0200
0000
0000
0301
2000
0000
0000
3010
0200
0010
0001
0300
,
0001
0100
0100
0000
0010
1000
1000
0100
,
1000
0001
0001
0000
0100
0010
0010
0100
,
0010
1000
0010
0001
0010
1000
0010
0001
,
0110
0110
0MM0
0110
,
1010
1100
0100
0010
,
0101
0000
1001
0000
,
1010
0110
0010
1010
,
1001
0000
0101
0000
,
0011
0101
0000
0000
1100
1010
0000
0000
,
0011
0101
0000
0000
1100
1010
0010
0000
,
0101
0100
0100
0000
1010
0010
0010
1000
,
0001
0000
0000
0010
M10M
0000
1001
0000
;

//---------------dance-single - ----------------
#NOTES:
     dance-single:
     Lisek:
     Medium:
     5:
     0.308,0.416,0.295,0.138,0.000:
0000
0000
0000
0000
,
0000
0000
0000
0000
,
0000
0000
0000
0000
,
1000
0001
000M
1000
,
1001
0000
0000
1000
0100
0000
0000
0100
,
0010
0000
0000
0010
0001
0000
1000
0000
,
1001
0000
0000
0001
0010
0000
0000
0010
,
0100
0000
0000
0100
1000
0000
0001
0000
,
1000
0000
0010
0000
0100
0010
1000
0000
,
0001
0000
0010
0000
0001
0100
0010
0000
,
0100
0000
0000
0010
0100
0000
0000
0100
,
0010
0000
0000
0010
0100
0000
0001
0000
,
1001
0000
0110
0000
,
1001
0000
0110
0000
,
1001
0000
0110
0000
,
1001
0000
0110
1001
,
1001
0000
0100
0000
0001
0100
0010
0000
,
0100
0000
0010
0000
1000
0100
0010
0000
,
1001
0000
0000
0000
0110
0000
0000
2002
,
0000
0000
3003
0000
,
1000
0001
0100
0010
,
0100
0001
1000
0100
,
0010
0100
1000
0001
,
0100
0001
2000
3000
,
0001
0000
0000
1000
1000
0000
0000
0001
,
0001
0000
0000
0100
0100
0000
0000
0010
,
0010
0000
0000
1000
1000
0000
0000
0001
,
0001
0000
0000
1000
1000
0000
1001
0000
,
0001
0000
0100
0000
0001
0100
0001
0000
,
1000
0000
0010
0000
1000
0010
1000
0000
,
0001
0000
1000
0000
0001
1000
0001
0000
,
0100
0000
0010
0000
0100
0010
0100
0000
,
0110
0000
1010
0000
,
1001
0000
0101
0000
,
1002
0000
0003
0000
2001
0000
3001
2000
,
0000
0000
3001
1001
,
2000
3002
0203
0320
,
2030
0000
3200
0000
0320
0000
0032
0003
,
1000
0000
0000
0010
0010
0000
0000
0100
,
0100
0000
0000
0001
0001
0000
0000
0010
,
0010
0000
0000
0100
0100
0000
0000
1000
,
1000
0000
0001
1001
,
1001
0000
0000
0001
0010
0000
0000
0100
,
1000
0000
0000
1000
0001
0000
0000
0001
,
1000
0000
0000
1000
0100
0000
0000
0100
,
0010
0000
0000
0010
0001
0000
0000
0000
,
1001
0001
0000
0000
1001
1000
0000
0000
,
1001
0001
0000
0000
1001
1000
0000
0000
,
0010
0010
0010
0000
0100
0100
0100
0000
,
0010
0000
0100
1001
;

//---------------dance-single - ----------------
#NOTES:
     dance-single:
     Lisek:
     Easy:
     2:
     0.159,0.414,0.000,0.079,0.000: // measure 1
0000
0000
0000
0000
,  // measure 2
0000
0000
0000
0000
,  // measure 3
0000
0000
0000
0000
,  // measure 4
1000
0001
1000
0000
,  // measure 5
0001
0000
0100
0000
,  // measure 6
0010
0000
1000
0000
,  // measure 7
0001
0000
0010
0000
,  // measure 8
0001
0000
1000
0000
,  // measure 9
0010
0000
0100
0000
,  // measure 10
0010
0000
1000
0000
,  // measure 11
0001
0000
0100
0000
,  // measure 12
0001
0000
1000
0000
,  // measure 13
0001
0000
0010
0000
,  // measure 14
0100
0000
1000
0000
,  // measure 15
1000
0000
0100
0000
,  // measure 16
0010
0000
0001
0000
,  // measure 17
1000
0000
0010
0000
,  // measure 18
0100
0000
0010
0000
,  // measure 19
1000
0000
0000
0000
0001
0000
0000
1000
,  // measure 20
0000
0000
0000
0000
,  // measure 21
0001
0100
0001
0000
,  // measure 22
1000
0010
1000
0000
,  // measure 23
0001
1000
0001
0000
,  // measure 24
0100
0010
0100
0000
,  // measure 25
0001
0000
0010
0000
,  // measure 26
0100
0000
1000
0000
,  // measure 27
0001
0000
0100
0000
,  // measure 28
0010
0000
1000
0000
,  // measure 29
0001
0000
0010
0000
,  // measure 30
0001
0000
1000
0000
,  // measure 31
0010
0000
0100
0000
,  // measure 32
0010
0000
1000
0000
,  // measure 33
0001
0000
0010
0000
,  // measure 34
0100
0000
1000
0000
,  // measure 35
1000
0000
0000
0000
0001
0000
0000
1000
,  // measure 36
0000
0000
0001
0000
,  // measure 37
2000
3200
0320
0032
,  // measure 38
2003
0000
3200
0000
0320
0000
0032
0003
,  // measure 39
1000
0000
0010
0000
,  // measure 40
0100
0000
0010
0000
,  // measure 41
1000
0000
0001
0000
,  // measure 42
0100
0100
0100
0000
,  // measure 43
0001
0000
1000
0000
,  // measure 44
0010
0000
0100
0000
,  // measure 45
0010
0000
1000
0000
,  // measure 46
0001
0000
1000
0000
,  // measure 47
0001
0000
0010
0000
,  // measure 48
0100
0000
1000
0000
,  // measure 49
0001
0010
0001
1000
,  // measure 50
0010
0000
0100
0000
;

//---------------dance-single - ----------------
#NOTES:
     dance-single:
     Lisek:
     Beginner:
     1:
     0.065,0.120,0.000,0.020,0.000:
0000
0000
0000
0000
,
0000
0000
0000
0000
,
0000
0000
0000
0000
,
0000
0000
0000
0000
,
1000
0000
0000
0000
,
0001
0000
0000
0000
,
1000
0000
0000
0000
,
0001
0000
0000
0000
,
1000
0000
0000
0000
,
0010
0000
0000
0000
,
0100
0000
0000
0000
,
0010
0000
0000
0000
,
1000
0000
0000
0000
,
0001
0000
0000
0000
,
1000
0000
0000
0000
,
0001
0000
0000
0000
,
0100
0000
0000
0000
,
0001
0000
0000
0000
,
1000
0000
0000
0000
,
0000
0000
0000
0000
,
0001
0000
0000
0000
,
0100
0000
0000
0000
,
0010
0000
0000
0000
,
1000
0000
0000
0000
,
0001
0000
0000
0000
,
0010
0000
0000
0000
,
0100
0000
0000
0000
,
1000
0000
0000
0000
,
0001
0000
0000
0000
,
0100
0000
0000
0000
,
0010
0000
0000
0000
,
1000
0000
0000
0000
,
0001
0000
0000
0000
,
1000
0000
0000
0000
,
0001
0000
0000
0000
,
0000
0000
0000
0000
,
2000
0000
0000
0000
,
3020
0000
0000
0030
,
1000
0000
0000
0000
,
0001
0000
0000
0000
,
0100
0000
0000
0000
,
0010
0000
0000
0000
,
1000
0000
0000
0000
,
0100
0000
0000
0000
,
0010
0000
0000
0000
,
0001
0000
0000
0000
,
1000
0000
0000
0000
,
0010
0000
0000
0000
,
0100
0000
0000
0000
,
0001
0000
0000
0000
;
