#TITLE:Elisha;
#SUBTITLE:;
#ARTIST:DJ YOSHITAKA;
#TITLETRANSLIT:;
#SUBTITLETRANSLIT:;
#ARTISTTRANSLIT:;
#GENRE:;
#CREDIT:Telperion;
#BANNER:[ROUND 9] - Elisha.png;
#BACKGROUND:[ROUND 9] - Elisha-bg.png;
#LYRICSPATH:;
#CDTITLE:cdtitle.png;
#MUSIC:[ROUND 9] - Elisha.mp3;
#OFFSET:-0.588;
#SAMPLESTART:10.966;
#SAMPLELENGTH:10.378;
#SELECTABLE:YES;
#DISPLAYBPM:92.500:185.000;
#BPMS:0.000=185.000
,25.500=245.575
,27.500=185.000
,30.000=711.538
,31.000=185.000
,32.000=92.500
,96.000=138.750
,96.500=277.500
,97.000=138.750
,97.500=277.500
,98.000=138.750
,98.500=277.500
,99.000=138.750
,99.500=277.500
,100.000=138.750
,100.500=277.500
,101.000=138.750
,101.500=277.500
,102.000=138.750
,102.500=277.500
,103.000=138.750
,103.500=277.500
,104.000=138.750
,104.500=277.500
,105.000=185.009
,105.250=190.002
,105.500=195.130
,105.750=200.396
,106.000=205.804
,106.250=211.358
,106.500=217.062
,106.750=222.920
,107.000=228.936
,107.250=235.114
,107.500=241.459
,107.750=247.975
,108.000=254.667
,108.250=261.540
,108.500=268.598
,108.750=275.847
,109.000=283.291
,109.250=290.937
,109.500=298.788
,109.750=306.852
,110.000=315.133
,110.250=323.637
,110.500=332.371
,110.750=341.341
,111.000=350.553
,111.250=360.013
,111.500=369.729
,111.750=379.707
,112.000=370.000
,114.375=74.000
,114.500=92.500
,114.625=277.500
,115.000=185.000
,209.000=711.538
,210.000=185.000
,211.000=92.500
,223.000=85.000
,223.333=101.451
,223.667=80.000
,224.000=109.630
,224.333=75.000
,224.667=120.652
,225.000=70.000
,225.333=136.316
,225.667=65.000
,226.000=160.333
,226.333=60.000
,226.667=201.818
,227.000=46.250
;
#STOPS:25.500=0.080,
26.500=0.080,
30.000=0.040,
30.167=0.040,
30.333=0.040,
30.500=0.040,
30.667=0.040,
30.833=0.040,
209.000=0.040,
209.167=0.040,
209.333=0.040,
209.500=0.040,
209.667=0.040,
209.833=0.040
;
#BGCHANGES:;
#KEYSOUNDS:;
#ATTACKS:;

//---------------dance-single - ----------------
#NOTES:
     dance-single:
     :
     Hard:
     9:
     0.445,0.904,0.109,0.218,0.300,306.000,12.000,24.000,36.000,0.000,0.000,0.445,0.904,0.109,0.218,0.300,306.000,12.000,24.000,36.000,0.000,0.000:
0000
0000
0000
0000
,
0000
0000
0000
0000
,
0000
0000
0000
0000
,
0000
0000
0000
0000
,
1010
0000
0010
0000
0100
0000
0001
1000
,
0100
0000
0010
0000
0001
0010
0100
1000
,
0001
0000
1000
0110
0000
0100
0000
0010
,
1000
0001
0010
0000
2000
0000
3010
0000
,
0002
0000
0000
0000
0000
0000
0000
0000
0000
0000
0000
0000
0000
0003
0000
0000
,
0200
0000
0000
0000
0000
0000
0000
0000
0000
0000
0000
0000
0000
0300
0000
0000
,
0120
0000
0000
0000
0000
0000
0000
0000
0000
0000
0000
0000
0000
0030
0000
0000
,
2001
0000
0000
0000
0000
0000
0000
0000
3200
0000
0000
0000
0000
0000
0000
0300
,
0120
0000
0000
0000
0000
0000
0000
0000
0000
0000
0000
0000
0000
0030
0001
0000
,
0200
0000
0000
0000
0000
0000
0000
0000
0000
0000
0000
0000
0000
0300
0010
0000
,
2000
0000
0000
0000
0000
0000
0000
0000
0000
0000
0000
0000
0000
3000
1000
0000
,
0002
0000
0000
0000
0000
0000
0000
0000
0200
0000
0000
0003
0010
0000
0000
0000
,
1300
0000
0100
0000
0001
0000
1000
0000
0001
0000
0000
1000
0000
0100
0000
0010
,
0000
0000
0001
0000
1000
0000
0010
0000
0100
0000
0000
0001
0000
0100
0000
0010
,
0000
0000
1000
0000
0010
0000
1000
0000
0100
0000
0000
0010
0000
0100
0000
0010
,
0000
1000
0000
0010
0001
0000
1000
0000
0020
0000
0000
0000
0230
0000
0000
0000
,
1300
0000
0000
0000
0100
0000
0000
0000
0001
0000
0000
1000
0000
0000
0001
0000
0000
0000
0000
0000
0010
0000
0000
0000
1000
0000
0000
0001
0000
0000
1000
0000
,
0000
0000
0000
0000
0100
0000
0000
0000
0001
0000
0000
1000
0000
0000
0001
0000
0000
0000
0010
0000
0001
0000
0000
0000
1000
0000
0000
0001
0000
0000
1000
0000
,
0010
0100
0001
1000
0010
0100
0010
0001
1000
0100
0010
1000
0001
0010
0100
1000
,
0001
0010
0001
0000
1000
0000
0010
1000
0010
0000
0100
0000
0010
0000
1000
0001
1000
0000
0010
0000
0001
0000
0010
0000
1000
0000
0001
0000
0010
0000
0100
0000
,
200M
00M0
000M
00M0
000M
00M0
000M
00M0
,
000M
00M0
000M
00M0
000M
00M0
000M
00M0
,
000M
00M0
000M
00M0
000M
0M00
00M0
000M
,
0M00
00M0
000M
0M00
00M0
000M
0M00
00M0
,
3MMM
0000
0000
0000
M000
0000
1000
0001
,
0100
0020
0001
0000
1030
0000
0010
0100
,
0001
0010
0100
0010
0001
0000
1000
0001
,
0100
0020
0001
0000
1030
0000
0010
0100
,
0001
0010
0100
1000
0001
0000
1000
0001
,
0010
0200
0001
0000
1300
0000
0001
1000
,
0100
0001
0100
1000
0001
0100
0000
1010
,
0000
0010
0100
0000
0001
0000
1000
0100
,
1000
0001
1000
0100
0010
0010
0011
0001
,
0000
0000
1000
0000
0010
0000
0100
0001
0100
0000
0010
0000
1000
0000
0000
0000
,
0001
0000
0010
0000
0100
0000
1000
0001
1000
0000
0100
0000
0010
0000
0001
0000
,
0000
0000
1000
0000
0010
0000
0100
0001
0100
0000
0010
0000
1000
0000
0000
0000
,
0001
0000
0010
0000
0001
0000
1000
0100
1000
0000
0001
0000
0100
0000
0010
0000
,
0000
0000
0001
0000
0010
0000
1000
0010
1000
0000
0001
0000
0010
0000
0000
0000
,
0100
0000
0001
0000
0100
0000
1000
0001
1000
0000
0100
0000
0000
0000
0011
0000
,
0000
0010
0100
0100
0010
0010
1002
0000
,
0100
0000
0000
0000
1003
0010
1000
0010
0100
0000
0000
0000
0101
0000
0100
0000
,
0010
0000
1000
0000
0001
0000
0010
0100
0000
0000
0100
0000
1000
0000
0010
0100
,
0000
0000
0100
0000
0001
0000
0010
0100
0000
0000
0100
0000
1000
0000
0001
0100
,
0000
0000
0100
0000
0010
0000
1000
0010
0000
0000
0010
0000
0100
0000
0001
0100
,
0000
0000
0010
0000
1000
0010
0000
0000
0100
0000
0001
0000
0011
0000
0010
0100
,
0000
0000
1000
0000
0001
1000
0000
1000
0010
0000
0100
0000
1010
0000
0010
0100
,
0000
0000
0001
0000
1000
0001
0000
0001
0010
0000
0100
0000
1000
0001
1000
0100
,
0010
0000
0001
1000
0001
0010
0100
0000
1000
0001
1000
0001
0100
0000
0010
0000
,
1000
0010
0002
0000
0013
1000
0002
0000
,
0000
0000
0000
2000
,
0000
0000
0000
0000
0003
0000
0000
0000
0000
3000
0000
0000
0200
0000
0000
0000
,
0000
0000
0000
0000
0000
0000
0000
0000
0000
0300
0000
0000
0020
0000
0000
0000
,
0000
0032
0000
0003
;

//---------------dance-single - ----------------
#NOTES:
     dance-single:
     :
     Medium:
     6:
     0.277,0.542,0.055,0.146,0.091,191.000,6.000,16.000,36.000,0.000,0.000,0.277,0.542,0.055,0.146,0.091,191.000,6.000,16.000,36.000,0.000,0.000:
0000
0000
0000
0000
,
0000
0000
0000
0000
,
0000
0000
0000
0000
,
0000
0000
0000
0000
,
0001
0000
0010
0000
0100
0000
1000
0001
,
0100
0000
0010
0000
1000
0010
1000
0010
,
0100
0000
0000
0001
0000
1000
0000
0001
,
0100
0001
0020
0030
,
0210
0000
0000
0000
,
1300
0000
0000
0000
,
1002
0000
0000
0000
,
0103
0000
0010
0000
,
0210
0000
0000
0000
,
0301
0000
0000
0000
,
2001
0000
0000
0000
,
3100
0000
1000
0200
,
0320
0001
0000
0001
,
0000
0001
0000
0001
,
0000
0001
0100
0001
,
0000
0001
1000
0230
,
2300
0000
0000
0000
0010
0000
0000
0010
0000
0000
0000
0000
0001
0000
0000
0001
,
0000
0000
0000
0000
0010
0000
0000
0010
0000
0000
0000
0000
0001
0000
0000
3001
,
1000
0100
0010
0001
1000
0010
0100
0001
,
1000
0100
0010
0000
0001
0000
1000
0001
0100
0010
0100
0001
1000
0000
0100
0010
,
M002
0M00
M000
0M00
M000
0M00
M000
0M00
,
M000
0M00
M000
0M00
M000
0M00
M000
0M00
,
00M0
M000
0M00
00M0
M000
0M00
00M0
M000
,
0M00
00M0
M000
0M00
00M0
M000
0M00
00M0
,
MMM3
0000
000M
0001
,
0100
0010
1000
0001
,
0100
0001
0000
0100
0000
0010
0000
0000
,
1000
0100
0010
0001
,
1000
0100
0000
1000
0000
0001
0000
0000
,
0100
0010
0100
0001
,
1000
0010
0000
1000
0000
0100
0000
0001
,
0000
0100
1000
0000
0010
0000
0100
0000
,
0100
0001
0000
1000
0100
1000
0001
0000
,
0010
0100
1000
0001
,
0010
0001
0000
0010
0000
0100
0000
0000
,
1000
0010
0100
0001
,
1000
0010
0000
1000
0000
0001
0000
0000
,
0010
0100
0010
0001
,
1000
0100
0000
1000
0000
0010
0000
0001
,
0000
0010
1000
0000
0100
0000
0210
0000
,
1000
0000
0301
0100
1000
0000
0001
0000
,
1000
0000
0001
0000
0100
0000
0000
0010
0000
0000
0100
0000
0001
0000
0000
1000
,
0000
0000
0001
0000
0010
0000
0000
0100
0000
0000
0010
0000
0001
0000
0000
1000
,
0000
0000
0100
0000
0010
0000
0000
0100
0000
0000
1000
0000
0010
0000
0000
0100
,
0000
0000
0001
0000
0000
0100
0000
0000
0010
0000
1000
0000
0001
0000
0000
0010
,
0000
0000
0100
0000
0000
1000
0000
0000
0001
0000
0100
0000
1000
0000
0000
0100
,
0000
0000
0010
0000
0000
1000
0000
0000
0001
0000
0010
0000
1000
0000
0010
0000
,
0100
1000
0100
0010
1000
0010
0001
0000
,
1000
0020
0030
0102
,
0000
0000
0000
0000
,
0000
0003
0000
2000
,
0000
0000
0000
3200
,
0000
0320
0000
0030
;

//---------------dance-single - ----------------
#NOTES:
     dance-single:
     :
     Easy:
     3:
     0.159,0.207,0.027,0.036,0.000,115.000,3.000,4.000,0.000,0.000,0.000,0.159,0.207,0.027,0.036,0.000,115.000,3.000,4.000,0.000,0.000,0.000:
0000
0000
0000
0000
,
0000
0000
0000
0000
,
0000
0000
0000
0000
,
0000
0000
0000
0000
,
1000
0000
0100
0000
,
0001
1000
0001
0000
,
0100
0000
0000
0010
0000
0010
0000
0000
,
0010
0000
0100
0000
,
1001
0000
0000
0000
,
0100
0000
0000
0000
,
0010
0000
0000
0000
,
1000
0000
0001
0000
,
1001
0000
0000
0000
,
0100
0000
0000
0000
,
0010
0000
0000
0000
,
0001
0000
1000
0100
,
0010
0000
0001
0000
,
0100
0000
0001
0000
,
1000
0000
0100
0000
,
0001
0000
0010
0100
,
1000
0000
1000
0000
,
1000
0000
1000
0000
,
0001
0001
0001
0001
,
1000
1000
0001
0001
,
2002
0000
0000
0000
,
0000
0000
0000
0000
,
0000
0000
0000
0000
,
0000
0000
0000
0000
,
3003
0000
0000
1000
,
0000
0010
0000
0001
,
0100
0001
0000
1000
,
0000
0100
0000
0001
,
0010
0001
0000
1000
,
0000
0001
0000
1000
,
0100
0000
1000
0000
0000
0000
0000
0010
,
0000
1000
0000
0001
,
0100
0001
1000
0001
,
0000
0010
0000
1000
,
0100
1000
0000
0001
,
0000
0100
0000
1000
,
0010
1000
0000
0001
,
0000
0100
0000
0001
,
1000
0000
0001
0000
0000
0000
0000
0010
,
0000
0100
1000
0001
,
1000
0100
0000
0010
,
0100
0010
0000
0001
,
0010
0001
0000
0100
,
0001
0100
0000
0010
,
0100
0010
0000
1000
,
0010
1000
0000
0001
,
0010
0001
0000
1000
,
0001
0010
0100
1000
,
0010
0100
0000
0001
,
0000
0000
0000
0100
,
0000
0000
0000
0010
,
0000
0000
0000
2000
,
0000
0002
0000
3003
;

//---------------dance-single - ----------------
#NOTES:
     dance-single:
     :
     Beginner:
     1:
     0.064,0.197,0.027,0.027,0.000,43.000,3.000,3.000,0.000,0.000,0.000,0.064,0.197,0.027,0.027,0.000,43.000,3.000,3.000,0.000,0.000,0.000: // measure 0
0000
0000
0000
0000
,  // measure 1
0000
0000
0000
0000
,  // measure 2
0000
0000
0000
0000
,  // measure 3
0000
0000
0000
0000
,  // measure 4
1000
0000
0000
0000
,  // measure 5
0001
0000
0000
0000
,  // measure 6
0100
0000
0000
0000
,  // measure 7
0010
0000
0000
0000
,  // measure 8
1001
0000
0000
0000
,  // measure 9
0000
0000
0000
0000
,  // measure 10
0000
0000
0000
0000
,  // measure 11
0000
0000
0000
0000
,  // measure 12
1001
0000
0000
0000
,  // measure 13
0000
0000
0000
0000
,  // measure 14
0000
0000
0000
0000
,  // measure 15
0000
0000
0000
0000
,  // measure 16
0010
0000
0000
0000
,  // measure 17
0100
0000
0000
0000
,  // measure 18
1000
0000
0000
0000
,  // measure 19
0001
0000
0100
0000
,  // measure 20
0010
0000
0010
0000
,  // measure 21
0010
0000
0010
0000
,  // measure 22
0100
0100
0100
0100
,  // measure 23
0100
0100
0100
0100
,  // measure 24
0200
0000
0000
0000
,  // measure 25
0000
0000
0000
0000
,  // measure 26
0000
0000
0000
0000
,  // measure 27
0000
0000
0000
0000
,  // measure 28
0300
0000
0000
0001
,  // measure 29
0000
0000
0000
0000
,  // measure 30
0000
0000
0000
0100
,  // measure 31
0000
0000
0000
0000
,  // measure 32
0000
0000
0000
1000
,  // measure 33
0000
0000
0000
0000
,  // measure 34
0000
0000
0000
0010
,  // measure 35
0000
0000
0000
0100
,  // measure 36
0000
0000
0000
1000
,  // measure 37
0000
0000
0000
0000
,  // measure 38
0000
0000
0000
0100
,  // measure 39
0000
0000
0000
0000
,  // measure 40
0000
0000
0000
0001
,  // measure 41
0000
0000
0000
0000
,  // measure 42
0000
0000
0000
0010
,  // measure 43
0000
0000
0000
0100
,  // measure 44
0000
0000
0000
1000
,  // measure 45
0000
0000
0000
0001
,  // measure 46
0000
0000
0000
1000
,  // measure 47
0000
0000
0000
0001
,  // measure 48
0000
0000
0000
0100
,  // measure 49
0000
0000
0000
0100
,  // measure 50
0000
0000
0000
0010
,  // measure 51
0000
0000
0000
0100
,  // measure 52
0000
0000
0000
2002
,  // measure 53
0000
0000
0000
0000
,  // measure 54
0000
3003
0000
0000
;
