#VERSION:0.81;
#TITLE:Dreams (feat. Laura Brehm);
#SUBTITLE:;
#ARTIST:Rogue;
#TITLETRANSLIT:;
#SUBTITLETRANSLIT:;
#ARTISTTRANSLIT:;
#GENRE:;
#ORIGIN:;
#CREDIT:;
#BANNER:[ROUND 9] - Dreams (feat. Laura Brehm).png;
#BACKGROUND:[ROUND 9] - Dreams (feat. Laura Brehm)-bg.png;
#PREVIEWVID:;
#JACKET:;
#CDIMAGE:;
#DISCIMAGE:;
#LYRICSPATH:;
#CDTITLE:;
#MUSIC:[ROUND 9] - Dreams (feat. Laura Brehm).ogg;
#OFFSET:-0.770;
#SAMPLESTART:64.765;
#SAMPLELENGTH:11.636;
#SELECTABLE:YES;
#BPMS:0.000=165.000,
64.000=82.500,
80.000=165.000,
208.000=82.500,
212.000=165.000,
332.000=82.500;
#STOPS:;
#DELAYS:;
#WARPS:;
#TIMESIGNATURES:0.000=4=4;
#TICKCOUNTS:0.000=4;
#COMBOS:0.000=1;
#SPEEDS:0.000=1.000=0.000=0;
#SCROLLS:0.000=1.000;
#FAKES:;
#LABELS:0.000=Song Start;
#BGCHANGES:16.000=bracelet1.avi=1.000=1=0=1===CrossFade==,
30.000=blackhole1.avi=1.000=0=0=1=====,
32.000=bubble2.avi=1.000=0=0=1=====,
48.000=circle10.avi=1.000=0=0=1=====,
64.000=snow5.avi=0.700=0=0=1=====,
79.000=blackhole1.avi=1.000=0=1=1=StretchRewind====,
80.000=ring10.avi=1.000=0=0=1=====,
96.000=square1.avi=1.000=0=0=1=====,
104.000=tunnel3.avi=1.000=0=0=1=====,
106.000=bracelet1.avi=1.000=0=0=1=====,
106.250=blackhole1.avi=1.000=0=0=1=====,
106.500=bubble2.avi=1.000=0=0=1=====,
106.750=circle10.avi=1.000=0=0=1=====,
107.000=snow5.avi=1.000=0=0=1=====,
107.250=ring10.avi=1.000=0=0=1=====,
107.500=square1.avi=1.000=0=0=1=====,
107.750=tunnel3.avi=1.000=0=0=1=====,
108.000=light1.avi=1.000=0=0=1=====,
112.000=light6.avi=1.000=0=0=1=====,
128.000=light7.avi=1.000=0=0=1=====,
136.000=light1.avi=1.000=0=0=1=====,
136.500=light6.avi=1.000=0=0=1=====,
137.000=light7.avi=1.000=0=0=1=====,
137.500=light2.avi=1.000=0=0=1=====,
138.000=bracelet1.avi=1.000=0=0=1=====,
138.250=blackhole1.avi=1.000=0=0=1=====,
138.500=bubble2.avi=1.000=0=0=1=====,
138.750=circle10.avi=1.000=0=0=1=====,
139.000=snow5.avi=1.000=0=0=1=====,
139.250=ring10.avi=1.000=0=0=1=====,
139.500=square1.avi=1.000=0=0=1=====,
139.750=tunnel3.avi=1.000=0=0=1=====,
140.000=light2.avi=1.000=0=0=1=====,
142.000=letters1.avi=1.000=0=0=1=====,
144.000=thunder1.avi=1.000=0=0=1=====,
160.000=ddr2.avi=1.000=0=0=1=====,
176.000=thunder2.avi=1.000=0=0=1=====,
192.000=ddr1.avi=1.000=0=0=1=====,
200.000=light3.avi=1.000=0=0=1=====,
204.000=thunder1.avi=1.000=0=0=1=====,
206.000=ddr2.avi=1.000=0=0=1=====,
208.000=snow5.avi=1.000=0=0=1=====,
212.000=thunder1.avi=1.000=0=0=1=====,
220.000=ddr2r.avi=1.000=0=0=1=====,
236.000=light6.avi=1.000=0=0=1=====,
252.000=light7.avi=1.000=0=0=1=====,
260.000=bracelet1.avi=1.000=0=0=1=====,
260.250=blackhole1.avi=1.000=0=0=1=====,
260.500=bubble2.avi=1.000=0=0=1=====,
260.750=circle10.avi=1.000=0=0=1=====,
261.000=snow5.avi=1.000=0=0=1=====,
261.250=ring10.avi=1.000=0=0=1=====,
261.500=square1.avi=1.000=0=0=1=====,
261.750=tunnel3.avi=1.000=0=0=1=====,
262.000=bracelet1.avi=2.000=0=0=1=====,
262.250=blackhole1.avi=2.000=0=0=1=====,
262.500=bubble2.avi=2.000=0=0=1=====,
262.750=circle10.avi=2.000=0=0=1=====,
263.000=snow5.avi=2.000=0=0=1=====,
263.250=ring10.avi=2.000=0=0=1=====,
263.500=square1.avi=2.000=0=0=1=====,
263.750=tunnel3.avi=2.000=0=0=1=====,
264.000=light2.avi=2.000=0=0=1=====,
266.000=letters1.avi=2.000=0=0=1=====,
268.000=thunder1.avi=1.000=0=0=1=====,
284.000=ddr2.avi=1.000=0=0=1=====,
300.000=thunder1.avi=1.000=0=0=1=====,
316.000=ddr3.avi=1.000=0=0=1=====,
324.000=bubble2.avi=1.000=0=0=1=====,
328.000=tunnel3.avi=1.000=0=0=1=====,
330.000=letters1.avi=1.000=0=0=1=====,
332.000=snow5.avi=0.700=0=0=1=====,
346.000=[ROUND 9] - Dreams (feat. Laura Brehm)-bg.png=1.000=1=0=1===CrossFade==,
99999=-nosongbg-=1.000=0=0=0 // don't automatically add -songbackground-
;
#KEYSOUNDS:;
#ATTACKS:
;

//---------------dance-single - X-4----------------
#NOTEDATA:;
#CHARTNAME:X-4;
#STEPSTYPE:dance-single;
#DESCRIPTION:X-4;
#CHARTSTYLE:;
#DIFFICULTY:Beginner;
#METER:3;
#RADARVALUES:0.202,0.246,0.120,0.134,0.000,164.000,17.000,19.000,0.000,0.000,0.000,0.000,0.000,0.202,0.246,0.120,0.134,0.000,164.000,17.000,19.000,0.000,0.000,0.000,0.000,0.000;
#CREDIT:X-4;
#NOTES:
0000
0000
0000
0000
,
0000
0000
0000
0000
,
0000
0000
0000
0000
,
0000
0000
0000
0000
,
0000
0000
0000
0000
,
0000
0000
0000
0000
,
0000
0000
0000
0000
,
0000
0000
0000
0000
,
0001
0000
1000
0000
,
1000
0000
0001
0000
,
1000
0000
0001
0000
,
0001
0000
1000
0000
,
0010
0000
0100
0000
,
0100
0000
0010
0000
,
0100
0000
0010
0000
,
0010
0000
0100
0000
,
1001
0000
0000
0000
,
1000
0000
0001
0010
,
0010
0000
0000
0000
,
0001
0000
1000
0010
,
0010
0000
1000
0000
,
0010
0000
0001
0000
,
0010
0000
1000
0000
,
0100
0000
1001
0000
,
0100
0100
0100
0100
,
0100
0100
0100
0100
,
0200
0000
0000
0000
,
0300
0000
1001
0000
,
1000
1000
1000
0000
,
0001
0001
0001
0000
,
0100
0100
0100
0000
,
0010
0010
0010
0000
,
1000
1000
1000
1000
,
1000
1000
1000
0000
,
0001
0001
0002
0000
,
0003
0000
0000
0000
,
1001
0000
0020
0030
,
1000
0000
0002
0003
,
0110
0000
1000
0000
,
0001
0001
0001
0000
,
1001
0000
0020
0030
,
0001
0000
2000
3000
,
0110
0000
0001
0000
,
1000
1000
1000
0000
,
1001
0000
0100
0000
,
0010
0000
0001
0000
,
1000
0000
0010
0000
,
0100
0100
0100
0000
,
1001
0000
0100
0000
,
0010
0000
1000
0000
,
0001
0001
0001
0000
,
0010
0000
0100
0000
,
1001
0000
0000
0000
,
0000
1000
0000
1000
,
0000
0001
0000
0001
,
0000
0010
0000
0010
,
0000
0100
0000
0100
,
0000
1000
0000
0001
,
0000
0100
0000
0010
,
0020
0000
0000
0000
,
0030
0000
0000
0000
,
2000
0000
0000
0000
,
3000
0000
0000
0000
,
0001
0000
1000
0000
,
0010
0000
0100
0000
,
0001
1000
0001
2000
,
0002
0000
3003
0000
,
1001
0000
0020
0030
,
2000
3000
0002
0003
,
0110
0000
1000
0000
,
0001
0001
0001
0000
,
1001
0000
0020
0030
,
0001
0000
2000
3000
,
0110
0000
0001
0000
,
1000
1000
1000
0000
,
1001
0000
0100
0000
,
0010
0000
0001
0000
,
1000
0000
0010
0000
,
0100
0100
0100
0000
,
1001
0000
0100
0000
,
0010
0000
1000
0000
,
0001
0001
0001
0000
,
0010
0000
0100
0000
,
2001
0000
3000
0000
,
0002
0000
0003
0000
,
0200
0000
0300
0000
,
0020
0000
0000
0000
,
0030
0000
0000
0000
;

//---------------dance-single - X-16----------------
#NOTEDATA:;
#CHARTNAME:X-16;
#STEPSTYPE:dance-single;
#DESCRIPTION:X-16;
#CHARTSTYLE:;
#DIFFICULTY:Hard;
#METER:10;
#RADARVALUES:0.633,0.735,0.368,0.276,0.357,535.000,52.000,39.000,0.000,0.000,0.000,0.000,0.000,0.633,0.735,0.368,0.276,0.357,535.000,52.000,39.000,0.000,0.000,0.000,0.000,0.000;
#CREDIT:X-16;
#NOTES:
0000
0000
0000
0000
,
0000
0000
0000
0000
,
0000
0000
0000
0000
,
0000
0000
0000
0000
,
0000
0000
0000
0000
,
0000
0000
0000
0000
,
0000
0000
0000
0000
,
0000
0000
0000
0000
0100
0010
0001
1000
,
1000
0000
0010
0100
0000
0101
0000
0001
,
1000
0000
0001
0010
0100
0010
0001
0000
,
1000
0000
0000
0000
0010
0100
0001
0000
0001
0000
0000
0000
0010
0100
1000
0000
,
1000
0000
0001
1000
0110
0001
1000
0010
,
1000
0000
0100
0010
0000
0011
0000
0001
,
1000
0000
0001
0100
0010
0100
0001
1000
,
1000
0000
0000
0000
0100
0010
0001
0000
0001
0000
0000
0000
0100
0010
1000
0000
,
1000
0000
0001
1000
0110
0001
1000
0100
,
0020
0000
0032
0000
,
0203
0000
0000
0000
0000
0000
0310
0010
0100
1000
0100
0100
0001
1000
0100
0010
,
0200
0000
0000
1000
0000
0000
2000
0000
0300
0000
0000
0000
0000
0000
0000
0000
,
3020
0000
0000
0000
0000
0000
0000
0000
0130
0000
0000
0000
0001
0010
0100
1000
,
1000
0000
0010
0100
0001
0000
0000
0000
1000
0100
0010
0000
0000
0000
0001
0000
,
1000
1000
0000
0001
0201
0000
1000
0000
,
0301
0000
0000
0000
1000
0001
0010
0100
1000
0000
0000
0000
0010
0100
0001
0000
,
0000
0100
0100
0000
0110
0010
1000
0001
,
0100
0000
0001
0000
1000
0100
0010
0000
0002
0000
0000
0000
1003
0000
0000
0000
,
0001
1000
0001
0100
1001
0000
1000
0000
,
0001
0000
0001
0000
0001
0000
0001
0000
0010
0001
0010
0001
1000
0010
1000
0010
,
0200
0000
0310
0000
,
0110
0010
1000
1000
,
0001
0001
1000
1000
,
0100
0100
0010
0020
,
0001
1000
0031
0010
,
0011
0101
1010
1100
,
0110
1001
1010
0101
,
1000
0000
1000
0000
1000
0000
1000
0000
0010
0100
0010
1000
0001
0010
0001
1000
,
0010
0000
0100
0000
0001
0010
0100
0000
1100
0000
1000
0000
0001
0000
0000
0000
,
0120
0000
0000
0000
1030
1000
1000
1000
,
2001
0000
0000
0000
3100
0100
0100
0100
,
0120
0000
0000
0000
0000
0000
0000
0000
0031
0000
0100
0010
1000
0100
1000
0001
,
1000
0010
0100
0010
0100
0001
1000
0100
0010
0100
0010
0002
,
1000
0000
0000
0000
0013
0010
0010
0010
,
2100
0000
0000
0000
3001
0001
0001
0001
,
1020
0000
0000
0000
0000
0000
0000
0000
0130
0000
0001
0010
0001
1000
0010
0100
,
0010
0100
0001
0010
0100
1000
0001
0100
1000
0001
0010
1000
,
0100
0000
0010
0001
0000
0001
0100
0000
,
1001
0000
0100
0001
1000
0100
0010
0000
,
0002
1000
0000
0023
0000
0100
0000
1030
,
1000
0010
0001
1000
0010
0001
1000
0100
0001
1000
0100
0001
,
0200
0000
1300
0000
1010
0010
0100
0100
,
0001
0000
0021
0000
0130
0100
1000
1000
,
0001
0000
0000
0010
0100
0000
1000
0000
1001
0000
0201
0000
0000
0000
0000
0000
,
0310
0100
0001
0010
0100
0001
0100
1000
0001
0100
1000
0100
,
0002
0000
0000
0000
,
1003
0001
1000
0100
0010
0100
0001
0100
,
1000
0000
0010
0000
0100
0000
0001
0010
0000
0100
1000
0000
0010
0000
0100
0000
,
0010
1000
0001
0010
1000
0010
0001
1000
,
0010
0100
0001
1000
0100
0010
0100
1000
,
0001
1000
0001
0100
0010
0100
1000
0100
,
0001
0000
0010
0000
0100
0000
1000
0010
0100
0000
0001
0000
0011
0000
0020
0000
,
0001
0001
0001
0032
,
1000
1000
1000
2003
,
0010
0010
0010
3020
,
0100
0100
0100
0100
,
0130
0100
0001
1000
0100
0100
1000
0001
,
0100
0100
0001
1000
0100
0100
1000
0001
,
1000
0010
1000
0010
0100
0001
0100
0001
1000
0100
0010
0001
1000
0010
0100
0001
,
0020
0000
0130
0000
,
2001
0000
0000
3001
1000
0020
0000
0130
,
0010
0001
1000
0100
0001
0001
1001
1000
,
1000
0000
0011
0001
1200
0000
0001
0000
,
1300
0000
0010
0010
0110
0100
0100
0001
,
0201
0000
0010
0310
1000
1001
0101
0001
,
1000
0010
0100
0001
0010
0010
0100
1000
,
0001
0000
1001
1000
2010
0000
0010
0000
,
3001
0000
0100
0010
1010
1000
1001
0000
,
0010
0000
0100
1000
0000
1000
0010
0000
,
1001
0000
0010
1000
0001
0010
0100
0000
,
2000
0001
0000
3200
0000
0010
0000
0301
,
0001
0100
1000
0001
0100
1000
0001
0010
1000
0001
0010
1000
,
0020
0000
0031
0000
0101
0100
0010
0010
,
1000
0000
1200
0000
0310
0010
0001
0001
,
1000
0000
0000
0100
0010
0000
0001
0000
1001
0000
1020
0000
0000
0000
0000
0000
,
0130
0100
0101
0001
1001
1000
1100
0100
,
0110
0000
0000
0001
0000
0000
1000
0010
0010
0200
0000
0000
0000
0000
0301
0000
,
0001
0000
0000
1000
0000
0000
0100
0000
0011
0000
0000
1010
0000
0000
0000
0000
,
0110
0000
0000
1000
0000
0000
0001
0010
0010
0100
0100
1000
0010
0001
0020
0100
,
0130
0001
1000
0100
0010
0001
1000
0010
0100
0000
0000
0000
0000
0000
0000
0000
;

//---------------dance-single - X-12----------------
#NOTEDATA:;
#CHARTNAME:X-12;
#STEPSTYPE:dance-single;
#DESCRIPTION:X-12;
#CHARTSTYLE:;
#DIFFICULTY:Medium;
#METER:8;
#RADARVALUES:0.532,0.643,0.340,0.361,0.159,427.000,48.000,51.000,0.000,0.000,0.000,0.000,0.000,0.532,0.643,0.340,0.361,0.159,427.000,48.000,51.000,0.000,0.000,0.000,0.000,0.000;
#CREDIT:X-12;
#NOTES:
0000
0000
0000
0000
,
0000
0000
0000
0000
,
0000
0000
0000
0000
,
0000
0000
0000
0000
,
0000
0000
0000
0000
,
0000
0000
0000
0000
,
0000
0000
0000
0000
,
0000
0000
0020
0000
,
0130
0000
0000
0001
1000
0000
0100
0000
,
0010
0100
0000
0100
1001
0000
0000
0000
,
2000
0010
3200
0001
,
1300
0000
0010
1000
0001
0010
0100
1000
,
0010
0000
0000
1000
0001
0000
0010
0000
,
0100
0010
0000
0010
1001
0000
0000
0000
,
0002
0100
0023
1000
,
0031
0000
0100
0001
1000
0100
0010
0001
,
2000
0000
3002
0000
,
0203
0000
0000
0310
0010
1000
0001
0010
,
0020
0000
0000
0001
0000
0000
0002
0000
0030
0000
0000
0000
0000
0000
0000
0000
,
2003
0000
0000
0000
0000
0000
0000
0000
3010
0000
0000
1000
0010
0100
0001
0010
,
0100
0000
1000
0001
0000
0001
0100
0000
,
0010
0010
1000
0100
0001
0100
1000
0000
,
0101
0000
1100
0000
2001
0000
3100
1000
,
0000
0001
0100
0000
1001
0010
1000
0001
,
0010
0010
1001
0010
,
0100
0100
1001
0100
,
0010
0100
0010
0100
0001
0001
1000
1000
,
0200
0000
0310
0000
,
1001
1000
0001
0001
,
0100
0100
0010
0010
,
1000
1000
0001
0002
,
0010
0100
0010
1003
,
0011
0010
0110
0100
,
1100
1000
1010
0010
,
0110
0100
0001
1000
0001
0010
0100
1000
,
0020
0000
0000
0000
0130
0010
0110
0000
,
2001
0000
0000
0000
3100
0010
0100
0010
,
0120
0000
0000
0000
0031
1000
0001
1000
,
1002
0000
0000
0000
0103
0110
0000
0010
,
1000
0000
0100
0001
0000
1000
0010
0000
0001
0100
0000
0000
,
1002
0000
0000
0000
0013
0100
0010
0100
,
0210
0000
0000
0000
1300
0001
1000
0001
,
2001
0000
0000
0000
3010
0100
0000
0100
,
0001
0000
0010
1000
0000
0001
0100
0000
1000
0010
0000
0100
,
0001
0000
0100
0010
0000
0010
1000
0000
,
0100
0000
0010
0001
0100
0010
0100
0000
,
1000
0200
0000
0302
0000
2003
0000
3100
,
0010
0000
0001
1000
0000
0010
0100
0000
1000
0001
0000
0010
,
0200
0000
0000
0000
0301
0001
1000
1000
,
0220
0000
0330
0000
1000
1000
0001
0001
,
0110
0000
1001
0000
1000
0001
0000
0010
,
0001
0100
0001
0100
0010
0100
0010
1000
0010
1000
0100
1000
,
0200
0000
0000
0000
,
0310
0001
0100
0000
0010
1000
0100
0000
,
1000
0000
0001
1000
0010
0001
0010
1000
,
0100
0000
0011
0000
0000
1000
0010
0000
,
0100
0000
1010
0000
0000
0001
0010
0000
,
0100
1000
0010
0000
0100
0001
0010
0000
,
0001
0000
0000
0000
1000
0000
0000
0001
0100
0000
1000
0000
0100
0000
0002
0000
,
1000
1000
1000
2003
,
0001
0001
0001
3002
,
0010
0010
0010
0023
,
0100
0100
0100
0130
,
0110
0011
0101
0110
,
1010
1100
0110
1001
,
1000
0000
0010
0000
0001
0000
0010
0000
1000
0100
1000
0000
0001
0100
0001
0000
,
0020
0000
0130
0000
,
1002
0000
0000
0000
1003
0010
0000
0001
,
0010
1000
0100
0020
0100
0130
0010
0001
,
2000
0000
3010
1000
1002
0000
0013
0000
,
0110
0000
0100
1000
1010
0010
0100
0001
,
2000
0000
3100
1000
1001
0001
0100
0001
,
0010
1000
0010
0002
0100
0103
0001
1000
,
0010
0000
0100
0010
2002
0000
3003
0000
,
0002
0000
0013
0100
2000
0000
3001
0000
,
1000
0000
0010
0100
0000
0100
0001
0000
,
0010
0000
0100
1000
0010
0100
0010
0000
,
0001
0020
0000
2030
0000
3002
0000
0013
,
0100
0000
1000
0001
0000
0100
0010
0000
0001
1000
0000
0100
,
0020
0000
0000
0000
1030
1000
0001
0001
,
0220
0000
0330
0000
0001
0001
1000
1000
,
0110
0000
1001
0000
0001
1000
0000
0100
,
1000
0010
0100
0001
0010
1000
0010
0001
,
0110
0000
0000
1000
0000
0000
0001
0100
0100
0020
0000
0000
0000
0000
1030
0000
,
1000
0000
0000
0001
0000
0000
0010
0000
1100
0000
0000
0101
0000
0000
0000
0000
,
0110
0000
0000
0001
0000
0000
1000
0100
0100
0010
0010
0001
0100
1000
0200
0010
,
0310
1000
0001
0010
0100
1000
0001
0100
0010
0000
0000
0000
0000
0000
0000
0000
;

//---------------dance-single - X-7----------------
#NOTEDATA:;
#CHARTNAME:X-7;
#STEPSTYPE:dance-single;
#DESCRIPTION:X-7;
#CHARTSTYLE:;
#DIFFICULTY:Easy;
#METER:5;
#RADARVALUES:0.317,0.429,0.149,0.382,0.000,239.000,21.000,54.000,0.000,0.000,0.000,0.000,0.000,0.317,0.429,0.149,0.382,0.000,239.000,21.000,54.000,0.000,0.000,0.000,0.000,0.000;
#CREDIT:X-7;
#NOTES:
// measure 0
0000
0000
0000
0000
,  // measure 1
0000
0000
0000
0000
,  // measure 2
0000
0000
0000
0000
,  // measure 3
0000
0000
0000
0000
,  // measure 4
0000
0000
0000
0000
,  // measure 5
0000
0000
0000
0000
,  // measure 6
0000
0000
0000
0000
,  // measure 7
0000
0000
0020
0000
,  // measure 8
0130
0000
0001
1000
,  // measure 9
0100
0000
0000
0100
0010
0000
0000
0000
,  // measure 10
0002
0003
2000
3000
,  // measure 11
0010
0100
1001
0000
,  // measure 12
0100
0000
1000
0001
,  // measure 13
0100
0000
0000
0100
0010
0000
0000
0000
,  // measure 14
2000
3000
0002
0003
,  // measure 15
1000
0010
0100
0001
,  // measure 16
0020
0030
0002
0003
,  // measure 17
2000
0000
3000
0010
0010
0000
1001
0000
,  // measure 18
2000
3000
0200
0300
,  // measure 19
0020
0000
0030
0000
0002
0000
1003
0001
,  // measure 20
1000
0010
0110
0000
,  // measure 21
0001
0000
0000
0010
0100
0000
0000
0000
,  // measure 22
2000
3000
0002
0003
,  // measure 23
1000
0001
0110
0000
,  // measure 24
1000
1000
0001
0001
,  // measure 25
0100
0100
0010
0010
,  // measure 26
1000
0100
0020
0032
,  // measure 27
0103
0000
0010
0000
,  // measure 28
0001
1000
0000
1000
,  // measure 29
0000
0001
0000
0001
,  // measure 30
0000
0100
0000
0100
,  // measure 31
0000
0010
0000
0010
,  // measure 32
1010
1000
1000
1000
,  // measure 33
0001
0001
0001
0001
,  // measure 34
0010
0010
0200
0000
,  // measure 35
0310
0000
0100
0000
1000
0001
1000
0000
,  // measure 36
0020
0000
0130
0000
,  // measure 37
2000
0000
3001
0000
,  // measure 38
0020
0000
0130
0000
,  // measure 39
1000
0010
0001
0100
,  // measure 40
2000
0000
3001
0000
,  // measure 41
0020
0000
0130
0000
,  // measure 42
2000
0000
3001
0000
,  // measure 43
1000
0100
0001
0010
,  // measure 44
1000
0000
0000
0100
0010
0000
0000
0000
,  // measure 45
0001
0100
0000
0100
0010
0000
0000
0000
,  // measure 46
1000
0001
0110
0000
,  // measure 47
0001
0100
1000
0010
,  // measure 48
0001
0000
0000
0010
0100
0000
0000
0000
,  // measure 49
1000
0010
0000
0010
0100
0000
0000
0000
,  // measure 50
0001
1000
0110
0000
,  // measure 51
0001
0010
1000
0100
,  // measure 52
0001
0000
0000
0000
,  // measure 53
1000
0100
0001
0100
,  // measure 54
1000
0100
0010
0001
,  // measure 55
0001
0001
1000
1000
,  // measure 56
0010
0010
1000
1000
,  // measure 57
0001
0010
1000
0010
,  // measure 58
0001
0100
0010
1000
,  // measure 59
0002
0003
0002
0003
,  // measure 60
2000
3000
2000
3000
,  // measure 61
0002
0003
0002
0003
,  // measure 62
2000
3000
2000
3000
,  // measure 63
0220
0330
0220
0330
,  // measure 64
2002
3003
2002
3003
,  // measure 65
1000
0000
0001
0000
0100
0010
0100
0010
,  // measure 66
0200
0000
0310
0000
,  // measure 67
2001
0000
3002
0000
,  // measure 68
0023
0100
0230
0000
,  // measure 69
2300
0010
3020
0000
,  // measure 70
0130
0010
0110
0000
,  // measure 71
1002
0000
2003
0000
,  // measure 72
3020
0100
0230
0000
,  // measure 73
0302
0010
0023
0000
,  // measure 74
0130
0010
0110
0000
,  // measure 75
0001
0000
0000
0010
0100
0000
0000
0000
,  // measure 76
1000
0010
0000
0010
0100
0000
0000
0000
,  // measure 77
0001
1000
0110
0000
,  // measure 78
1000
0010
0001
0100
,  // measure 79
1000
0000
0000
0100
0010
0000
0000
0000
,  // measure 80
0001
0100
0000
0100
0010
0000
0000
0000
,  // measure 81
1000
0001
0110
0000
,  // measure 82
1001
1100
1001
0101
,  // measure 83
0010
0000
0100
0000
,  // measure 84
0001
0000
1000
0000
,  // measure 85
0200
0000
0320
0000
,  // measure 86
0031
0000
0010
0100
1000
0000
0000
0000
;
