#VERSION:0.81;
#TITLE:DistorteD MoonlighT;
#SUBTITLE:;
#ARTIST:π/3;
#TITLETRANSLIT:;
#SUBTITLETRANSLIT:;
#ARTISTTRANSLIT:pi/3;
#GENRE:;
#ORIGIN:;
#CREDIT:;
#BANNER:[ROUND 9] - DistorteD MoonlighT.png;
#BACKGROUND:[ROUND 9] - DistorteD MoonlighT-bg.png;
#PREVIEWVID:;
#JACKET:[ROUND 9] - DistorteD MoonlighT-jacket.png;
#CDIMAGE:;
#DISCIMAGE:;
#LYRICSPATH:;
#CDTITLE:cdtitle.png;
#MUSIC:[ROUND 9] - DistorteD MoonlighT.ogg;
#OFFSET:-1.580;
#SAMPLESTART:26.640;
#SAMPLELENGTH:12.000;
#SELECTABLE:YES;
#DISPLAYBPM:182.000;
#BPMS:0.000=182.000,
64.000=45.000,
66.000=182.000,
68.000=364.000,
72.000=182.000;
#STOPS:;
#DELAYS:;
#WARPS:;
#TIMESIGNATURES:0.000=4=4;
#TICKCOUNTS:0.000=4;
#COMBOS:0.000=1;
#SPEEDS:0.000=1.000=0.000=0;
#SCROLLS:0.000=1.000;
#FAKES:;
#LABELS:0.000=Song Start;
#BGCHANGES:;
#KEYSOUNDS:;
#ATTACKS:
;

//---------------dance-single - ----------------
#NOTEDATA:;
#CHARTNAME:;
#STEPSTYPE:dance-single;
#DESCRIPTION:;
#CHARTSTYLE:;
#DIFFICULTY:Hard;
#METER:9;
#RADARVALUES:0.675,0.728,0.865,0.100,0.093,526.000,121.000,14.000,0.000,0.000,0.000,0.000,0.000,0.675,0.728,0.865,0.100,0.093,526.000,121.000,14.000,0.000,0.000,0.000,0.000,0.000;
#CREDIT:;
#DISPLAYBPM:182.000;
#NOTES:
0000
0000
0000
0000
,
0000
0000
0000
0000
,
0000
0000
0000
0000
,
0000
0000
0000
0000
,
0000
0000
0000
0000
,
0000
0000
0000
0000
,
0000
0000
0000
0000
,
0000
0000
0000
0000
,
1000
0000
0001
0000
0000
0100
0000
0000
,
0001
0000
0010
0000
0000
0100
0000
0000
,
0010
0000
0001
0000
1000
0010
0000
0000
,
1000
0100
0010
0000
0110
0000
1001
0000
,
1000
0001
0100
0000
0001
1000
0000
0001
,
0010
0100
1000
0000
0010
0100
0000
0001
,
1000
0100
0010
0000
0100
1000
0000
0010
,
0100
0001
1000
0100
0001
0100
1000
0010
,
0100
0000
0020
0000
,
0200
0000
0000
0330
,
0001
1000
1100
0000
1000
1010
0000
0001
,
0100
0010
0110
0000
1000
1100
0000
0010
,
0100
0001
1001
0000
0001
0101
0000
1000
,
0100
0010
0001
0100
1000
0100
0010
1000
,
0001
0010
0011
0000
1000
1010
0000
0010
,
1000
0100
1100
0000
0010
0011
0000
0001
,
0100
0010
0110
0000
0100
0101
0000
0001
,
1000
0100
0110
0000
0001
0100
0110
0000
,
0100
0010
1010
0000
1000
1001
0000
1000
,
0001
0010
0110
0000
0100
1100
0000
0100
,
0010
0001
1001
0000
1000
1010
0000
1000
,
0001
0010
1000
0010
0100
1000
0010
0100
,
0001
1000
1010
0000
1000
1100
0000
0001
,
1000
0100
0011
0000
0001
0101
0000
0100
,
0001
1000
0110
0000
0010
0011
0000
0001
,
2002
0000
0000
3003
,
1000
0000
0000
1100
0000
0000
0100
0010
0001
1000
0010
0100
,
0001
0000
1000
0000
0100
0000
0010
0000
0100
0000
1000
0000
0010
0000
0100
0000
0001
0000
1000
0000
0000
0100
0000
0000
,
0011
0001
0100
1010
1000
0100
0011
0001
,
1000
0000
0000
1000
0000
0000
1000
0000
0010
0000
0000
0010
0000
0000
0010
0000
,
1000
0000
0000
0101
0000
0000
0001
0010
0100
1000
0010
0100
,
0001
1000
0100
0001
0100
1000
0010
0100
,
0001
0000
0000
1001
0000
0000
1000
0100
1000
0100
0010
0100
,
1000
0001
0110
0000
0001
1000
0110
0000
,
0001
0000
0101
0000
0010
1000
0001
0000
,
1000
0100
1100
0000
1000
0001
1001
0000
,
1000
0000
0101
0000
0010
1000
0100
0000
,
0010
0001
0100
1000
0100
0010
1000
0100
,
0010
0000
0011
0000
0001
1000
0010
0100
,
0001
0000
1100
0000
1000
0010
0100
0001
,
0010
1100
0001
1010
,
1100
0000
0000
1100
0000
0000
0011
0000
0000
0011
0000
0000
1001
0000
1001
0000
,
0220
0000
0000
0300
,
2000
0000
0000
0030
,
0002
0000
0000
3000
,
0020
0003
0200
0030
,
2000
0000
0000
0300
,
0002
0000
0000
3003
,
1000
0010
0100
0001
0010
0100
1000
0001
,
1000
0100
0001
0100
1000
0010
0100
0001
,
0010
1001
0010
1001
,
0100
1001
0100
1001
,
1000
0110
1000
0110
,
0001
0110
0001
0110
,
1000
0100
1000
0001
1000
0010
0001
0010
,
1000
0001
0010
0100
1000
0010
0100
0001
,
0010
0001
1000
0010
0100
0001
0010
0100
,
0011
0000
0000
0011
0000
0000
1001
0000
0000
1001
0000
0000
1010
0000
1010
0000
,
1000
0001
0011
0000
0001
0101
0000
1000
,
0001
0010
0110
0000
0010
1001
0000
0001
,
0100
0010
1010
0000
1000
1100
0000
1000
,
0010
0100
0001
0010
1000
0010
0100
1000
,
0001
0100
0110
0000
0001
0011
0000
1000
,
0010
0100
0101
0000
0001
1001
0000
1000
,
0001
0010
0110
0000
0100
1100
0000
1000
,
0001
0100
1010
0000
0001
0010
1100
0000
,
1000
0001
0101
0000
0010
1010
0000
1000
,
0001
0010
1100
0000
0001
0101
0000
1000
,
0100
0010
0110
0000
1000
0101
0000
0001
,
1000
0010
0001
0010
0100
0001
1000
0100
,
0010
0100
1001
0000
1000
1010
0000
0010
,
1000
0001
0110
0000
0100
0101
0000
0001
,
1000
0010
0110
0000
0100
1010
0000
1000
,
0001
0010
0100
1000
0010
0100
0001
1000
,
0100
0010
0011
0000
0001
0101
0000
0100
,
0001
1000
1100
0000
1000
1001
0000
0001
,
1000
0100
0011
0000
0001
0101
0000
0100
,
0010
1000
0001
0010
1000
0010
0001
1000
,
0010
0100
0101
0000
0001
1001
0000
1000
,
0100
0010
0110
0000
0100
1100
0000
1000
,
0001
0100
1010
0000
1000
1100
0000
1000
,
0010
0100
0101
0001
1000
0100
0011
0001
,
1000
0010
0110
0000
1000
0100
0110
0000
,
1000
0010
0011
0000
1000
0100
0101
0000
,
0010
0001
0101
0000
0010
1000
1100
0000
,
0010
0001
1010
0000
0010
1000
0011
0000
,
0001
0100
0001
1000
0100
0001
0100
1000
,
0010
0100
0001
0010
1000
0010
0100
1000
,
0001
0100
0010
0100
0001
0010
0100
1000
,
1100
0000
0000
1100
0000
0000
1010
0000
0000
1010
0000
0000
0110
0000
0110
0000
,
2002
0000
0000
0000
,
0000
0000
0000
0000
,
0000
0000
0000
0000
,
0000
0000
0000
3003
;

//---------------dance-single - ----------------
#NOTEDATA:;
#CHARTNAME:;
#STEPSTYPE:dance-single;
#DESCRIPTION:;
#CHARTSTYLE:;
#DIFFICULTY:Challenge;
#METER:10;
#RADARVALUES:0.798,0.982,0.880,0.136,0.336,639.000,123.000,19.000,0.000,0.000,0.000,0.000,0.000,0.798,0.982,0.880,0.136,0.336,639.000,123.000,19.000,0.000,0.000,0.000,0.000,0.000;
#CREDIT:;
#DISPLAYBPM:182.000;
#NOTES:
// measure 0
0000
0000
0000
0000
,  // measure 1
0000
0000
0000
0000
,  // measure 2
0000
0000
0000
0000
,  // measure 3
0000
0000
0000
0000
,  // measure 4
0000
0000
0000
0000
,  // measure 5
0000
0000
0000
0000
,  // measure 6
0000
0000
0000
0000
,  // measure 7
0000
0000
0000
0000
,  // measure 8
1000
0010
0100
0000
0001
0010
0000
0100
,  // measure 9
0010
0001
1000
0000
0010
0100
0000
0001
,  // measure 10
0010
0100
1000
0000
0010
0100
0000
0010
,  // measure 11
1000
0100
0001
0000
0100
0010
0000
0001
,  // measure 12
0100
0010
0110
0000
0100
0001
0000
1000
,  // measure 13
0100
0010
0110
0000
0100
1000
0000
0010
,  // measure 14
1000
0001
0011
0000
0001
0100
0000
0010
,  // measure 15
0100
0000
0001
0000
1000
0000
0100
0010
0001
0100
0010
0000
1000
0000
0001
0000
,  // measure 16
0010
0000
0002
0000
,  // measure 17
2000
0000
0000
3003
,  // measure 18
1000
0100
1100
0000
0001
0101
0000
0001
,  // measure 19
0010
0100
0110
0000
0010
0011
0000
0001
,  // measure 20
1000
0010
0101
0000
0010
1010
0000
1000
,  // measure 21
0001
0010
1000
0001
0100
1000
0100
0010
,  // measure 22
0001
1000
0110
0000
0100
0101
0000
0001
,  // measure 23
1000
0100
0110
0000
0010
0011
0000
0001
,  // measure 24
1000
0001
0101
0000
0010
0110
0000
0100
,  // measure 25
0002
0100
0100
0103
2000
0100
0100
3100
,  // measure 26
0010
1000
1001
0000
0001
0011
0000
0001
,  // measure 27
1000
0010
0101
0000
0001
0011
0000
0010
,  // measure 28
0100
1000
1100
0000
0010
0011
0000
0001
,  // measure 29
1000
0001
0100
1000
0001
0010
1000
0010
,  // measure 30
0100
0001
0101
0000
0001
1001
0000
1000
,  // measure 31
0100
0010
0011
0000
0001
0101
0000
0001
,  // measure 32
1000
0010
0110
0000
0100
0101
0000
0001
,  // measure 33
1000
0100
0001
0100
0010
0001
1000
0010
,  // measure 34
2001
0000
0000
3100
0000
0000
0010
0001
0100
1000
0001
0010
,  // measure 35
1000
0000
0001
0000
1000
0000
0100
0000
0001
0000
0100
0000
0010
0000
0000
0001
0000
0000
1000
0000
0000
0010
0000
0000
,  // measure 36
0101
0100
0100
0110
0010
0010
1010
1000
,  // measure 37
1001
0000
0000
0110
0000
0000
0101
0000
1010
0000
0000
1001
0000
0000
1100
0000
,  // measure 38
0012
0000
0000
1003
0000
0000
0001
0100
1000
0001
0010
1000
,  // measure 39
0001
0010
0100
1000
0010
0100
0001
0010
1000
0010
0001
1000
0010
1000
0100
0010
,  // measure 40
0001
0000
0000
1001
0000
0000
1000
0100
0001
1000
0010
0001
,  // measure 41
0010
1000
1001
0000
0010
0001
1001
0000
,  // measure 42
1010
0000
1000
0100
1100
0000
0011
0000
,  // measure 43
1000
0010
0001
0010
0100
0001
1000
0100
0010
0001
1000
0010
1000
0001
0010
0100
,  // measure 44
1000
0010
0001
1000
0100
0001
0100
0100
0100
0001
0001
0001
,  // measure 45
1000
0100
1000
0001
0100
0001
0010
0100
1000
0010
0100
0001
,  // measure 46
1000
0000
0000
1100
0000
0000
1001
0000
0001
0100
0001
0100
0010
1000
0010
1000
,  // measure 47
0001
0000
0000
0000
0000
0000
0000
0000
0000
0011
0000
0000
0000
0000
0000
0000
0000
0000
1100
0000
0000
0000
0000
0000
1000
0000
0000
0000
1000
0000
0000
0000
1000
0000
0000
0000
0001
0000
0000
0000
0001
0000
0000
0000
0001
0000
0000
0000
,  // measure 48
0101
0000
0010
1000
0100
0100
0110
0000
,  // measure 49
0011
0000
0000
1001
0000
0000
1010
0000
0000
0101
0000
0000
0110
0000
0110
0000
,  // measure 50
2002
0000
0000
0003
,  // measure 51
0200
0000
0000
3300
,  // measure 52
0010
0000
0001
0000
1001
0000
1000
0010
0001
0010
0100
0000
0001
0000
0100
0000
,  // measure 53
0001
0000
1000
0100
0001
0000
1000
0100
0001
0000
1000
0010
0001
0000
0010
0000
,  // measure 54
0200
0000
0000
0000
,  // measure 55
0002
0000
0000
0303
,  // measure 56
1000
0000
0100
0000
0110
0000
0010
0001
1000
0010
1000
0000
0100
0000
1100
0000
,  // measure 57
1000
0000
0001
0100
1000
0000
0001
0100
1000
0000
0001
0010
1000
0000
0010
0000
,  // measure 58
0100
1000
1100
0000
1000
0001
1001
0000
,  // measure 59
0001
0100
0101
0000
0010
1000
1010
0000
,  // measure 60
1000
0100
1100
0000
0010
0001
0011
0000
,  // measure 61
0001
1000
1001
0000
1000
0010
1010
0000
,  // measure 62
1000
0100
0001
0100
0010
0001
1000
0010
,  // measure 63
0100
0001
0010
1000
0010
0100
1000
0001
,  // measure 64
0100
0010
1000
0001
0010
1000
0010
0001
1000
0010
0100
0001
0010
0100
0010
0001
,  // measure 65
1000
0000
0000
0101
0000
0000
1001
0000
0000
1100
0000
0000
0011
0000
0011
0000
,  // measure 66
0001
1000
1010
0000
1000
1100
0000
0100
,  // measure 67
0010
0001
1001
0000
0001
0101
0000
0100
,  // measure 68
0010
1000
0101
0000
0001
0011
0000
0010
,  // measure 69
0100
1000
0010
0001
0010
0100
0001
1000
,  // measure 70
0001
0010
1100
0000
0010
0101
0000
0010
,  // measure 71
1000
0100
0011
0000
1000
0110
0000
0010
,  // measure 72
1000
0001
0011
0000
0001
1010
0000
1000
,  // measure 73
0002
0010
0010
0013
2000
0010
0010
3010
,  // measure 74
0100
1000
1001
1000
0010
0110
0000
0100
,  // measure 75
0001
0010
0110
0100
1000
1100
0000
1000
,  // measure 76
0001
0100
0101
0001
0010
0110
0000
0100
,  // measure 77
1000
0010
0001
0010
0100
0001
1000
0100
,  // measure 78
0010
0001
0101
0100
0010
1010
0000
1000
,  // measure 79
0100
0010
0011
0001
1000
1010
0000
0010
,  // measure 80
0100
0001
0110
0100
1000
1001
0000
0001
,  // measure 81
0200
0000
0020
0330
,  // measure 82
1000
0010
0101
0100
0010
1010
0000
1000
,  // measure 83
0001
0010
0110
0100
1000
1001
0000
0001
,  // measure 84
0100
0010
1010
1000
0001
0011
0000
0010
,  // measure 85
0001
0100
1000
0100
0001
0010
0100
1000
,  // measure 86
0001
0100
1010
0010
1000
1001
0000
0001
,  // measure 87
1000
0100
0011
0001
1000
1010
0000
0010
,  // measure 88
0100
0001
1001
1000
0100
0110
0000
0010
,  // measure 89
0002
0100
0100
0103
2000
0100
0100
3100
,  // measure 90
0010
0100
1001
0000
0010
0100
1001
0000
,  // measure 91
0100
0010
1001
0000
0100
0010
1001
0000
,  // measure 92
0001
0100
1010
0000
0001
0100
1010
0000
,  // measure 93
0001
0010
1100
0000
0001
0010
1100
0000
,  // measure 94
1000
0010
0100
0001
0010
0100
1000
0010
,  // measure 95
0001
0010
0100
0001
0010
0100
1000
0010
,  // measure 96
0100
0001
0010
1000
0010
0001
1000
0010
0100
0001
1000
0100
0010
0100
1000
0001
,  // measure 97
0100
0000
0000
0110
0000
0000
0101
0000
0000
1010
0000
0000
1001
0000
1001
0000
,  // measure 98
0220
0000
0000
0000
,  // measure 99
0000
0000
0000
0000
,  // measure 100
0000
0000
0000
0000
,  // measure 101
0000
0000
0000
0330
;

//---------------dance-single - ----------------
#NOTEDATA:;
#CHARTNAME:;
#STEPSTYPE:dance-single;
#DESCRIPTION:;
#CHARTSTYLE:;
#DIFFICULTY:Medium;
#METER:7;
#RADARVALUES:0.401,0.509,0.336,0.086,0.021,333.000,47.000,12.000,0.000,0.000,0.000,0.000,0.000,0.401,0.509,0.336,0.086,0.021,333.000,47.000,12.000,0.000,0.000,0.000,0.000,0.000;
#CREDIT:;
#DISPLAYBPM:182.000;
#NOTES:
0000
0000
0000
0000
,
0000
0000
0000
0000
,
0000
0000
0000
0000
,
0000
0000
0000
0000
,
0000
0000
0000
0000
,
0000
0000
0000
0000
,
0000
0000
0000
0000
,
0000
0000
0000
0000
,
0001
0100
0010
0000
,
1000
0000
0100
0000
0010
0100
0000
0000
,
1000
0000
0010
0000
0100
0001
0000
0000
,
1000
0000
0001
0000
0010
0100
0000
0010
,
0001
0000
1000
0000
0001
0100
0000
0000
,
0010
0000
1000
0000
0001
0010
0000
0000
,
0001
0000
0010
0000
0100
1000
0000
0000
,
0010
0000
1000
0000
0100
0000
0010
0001
,
1000
0000
0002
0000
,
0000
0000
0000
0003
,
1000
0010
0110
0000
,
0100
0001
1001
0000
,
1000
0001
0011
0000
,
0001
0100
0010
1000
,
0001
0010
0110
0000
,
0010
0001
1001
0000
,
1000
0010
1010
0000
,
1000
0100
0001
0100
,
1000
0001
0101
0000
,
0100
0001
0011
0000
,
0010
0100
1100
0000
,
1000
0010
0100
0001
,
1000
0001
0101
0000
,
0100
0010
1010
0000
,
1000
0100
0110
0000
,
0010
0000
0001
0000
0100
0000
0010
1000
,
0020
0000
0030
0000
1000
0001
1000
0001
,
1000
0100
0010
0001
,
1000
0000
0000
1010
0000
0000
0101
0000
,
0001
0001
1000
1000
,
0200
0000
0300
0000
0010
0001
0010
0001
,
0010
0001
0100
0010
,
1000
0000
1100
0000
1000
0010
1000
0010
,
1000
0101
1000
0011
,
1000
0000
0001
0100
0001
0000
1000
0000
,
0001
0010
0100
1000
,
0001
0000
1000
0010
1000
0000
0001
0000
,
1000
0100
0010
0001
,
1000
0000
0010
0100
0010
0000
1000
0000
,
0001
0010
0100
1000
,
0001
0000
0100
0010
0100
0000
0001
0000
,
1000
0000
0000
1000
0000
0000
0001
0000
0000
0001
0000
0000
0100
0000
0010
0000
,
0220
0000
0000
0000
,
0000
0000
0000
0300
,
2000
0000
0000
0030
,
0002
0000
0000
3000
,
0020
0000
0000
0003
,
0200
0000
0000
0330
,
1000
0000
0001
0000
0100
0010
0100
0000
,
0001
0010
0001
0100
,
0001
0011
0001
0011
,
0001
0101
0001
0101
,
1000
1010
1000
1010
,
1000
1100
1000
1100
,
1000
0010
0100
0001
,
1000
0001
0010
0100
,
1000
0010
1000
0010
0100
0001
0100
0001
,
0010
0000
0000
0010
0000
0000
0100
0000
0000
0100
0000
0000
1000
0000
0001
0000
,
1000
0001
0101
0000
,
0001
1000
1100
0000
,
1000
0001
0011
0000
,
0001
0100
0010
1000
,
0001
1000
1100
0000
,
1000
0001
0101
0000
,
0001
1000
1010
0000
,
1000
0010
0001
0010
,
1000
0100
1100
0000
,
1000
0001
1001
0000
,
0001
0100
0101
0000
,
0001
0100
0010
1000
,
0001
0010
0011
0000
,
0001
0100
0101
0000
,
1000
0010
1010
0000
,
2000
0000
0000
3000
,
0001
0000
0100
0000
0010
0100
0000
0000
,
0001
0000
1000
0000
0100
0010
0000
0000
,
0100
0000
1000
0000
0010
0100
0000
0000
,
0001
0010
0100
0010
,
0001
0000
1000
0000
0010
0100
0000
0000
,
0010
0000
1000
0000
0001
0010
0000
0000
,
0100
0000
0010
0000
0001
1000
0000
0000
,
0001
0010
1000
0010
,
0100
0110
0100
0110
,
0100
1100
0100
1100
,
1000
1001
1000
1001
,
1000
1010
1000
1010
,
1000
0100
0010
0001
,
1000
0001
0100
0010
,
1000
0100
1000
0100
0010
0001
0010
0001
,
1000
0000
0000
1000
0000
0000
0001
0000
0000
0001
0000
0000
0100
0000
0010
0000
,
0220
0000
0000
0000
,
0000
0000
0000
0000
,
0000
0000
0000
0000
,
0000
0000
0000
0330
;

//---------------dance-single - ----------------
#NOTEDATA:;
#CHARTNAME:;
#STEPSTYPE:dance-single;
#DESCRIPTION:;
#CHARTSTYLE:;
#DIFFICULTY:Easy;
#METER:4;
#RADARVALUES:0.251,0.291,0.114,0.086,0.000,218.000,16.000,12.000,0.000,0.000,0.000,0.000,0.000,0.251,0.291,0.114,0.086,0.000,218.000,16.000,12.000,0.000,0.000,0.000,0.000,0.000;
#CREDIT:;
#DISPLAYBPM:182.000;
#NOTES:
0000
0000
0000
0000
,
0000
0000
0000
0000
,
0000
0000
0000
0000
,
0000
0000
0000
0000
,
0000
0000
0000
0000
,
0000
0000
0000
0000
,
0000
0000
0000
0000
,
0000
0000
0000
0000
,
1000
0000
0000
0000
,
1000
0000
0000
0000
,
0001
0000
0000
0000
,
0001
0000
0000
0000
,
1000
0000
0000
0000
,
1000
0000
0000
0000
,
0001
0000
0000
0000
,
0001
0000
1000
0000
,
0001
0000
0020
0000
,
0000
0000
0000
0030
,
0100
0000
0100
0000
,
1000
0000
1000
0000
,
0001
0000
0001
0000
,
1000
0010
1000
0000
,
0010
0000
0010
0000
,
0100
0000
0100
0000
,
0001
0000
0001
0000
,
1000
0100
1000
0100
,
1000
0000
1000
0000
,
0010
0000
0010
0000
,
0100
0000
0100
0000
,
0001
0010
0001
0000
,
0100
0000
0100
0000
,
0010
0000
0010
0000
,
1000
0000
1000
0000
,
2002
0000
0000
3003
,
1001
0000
0001
0000
,
0100
0100
0100
0000
,
0010
0000
0010
0000
,
1000
1000
1000
1000
,
0001
0000
0010
0000
,
0100
0100
0100
0000
,
0010
0000
0100
0000
,
1000
0000
1000
0000
,
0001
0000
1001
0000
,
1000
0010
1000
0010
,
1000
0000
1001
0000
,
0001
0010
0001
0010
,
0001
0000
1001
0000
,
1000
0010
1000
0000
,
1000
0000
1001
0000
,
0001
0100
0001
0000
,
2002
0000
0000
0000
,
0000
0000
0000
0003
,
0200
0000
0000
3000
,
0020
0000
0000
0300
,
0002
0000
0000
0030
,
2000
0000
0000
3003
,
1000
0000
1000
0000
,
0001
0100
0001
0100
,
0001
0000
1001
0000
,
1000
0000
1001
0000
,
0001
0000
0101
0000
,
0100
0000
0101
0000
,
0001
0010
0001
0010
,
0100
1000
0100
1000
,
0001
0000
1000
0000
,
0010
0100
0010
0100
,
0001
0010
0001
0000
,
1000
0010
1000
0000
,
0001
0100
0001
0000
,
1000
0100
0010
0001
,
1000
0010
1000
0000
,
0001
0010
0001
0000
,
1000
0100
1000
0000
,
0001
0100
0010
1000
,
0001
0010
0001
0000
,
1000
0100
1000
0000
,
0001
0100
0001
0000
,
1000
0100
0010
0001
,
1000
0010
1000
0000
,
0001
0100
0001
0000
,
1000
0100
1000
0000
,
0002
0000
0000
0003
,
1000
0001
0100
0000
,
0001
1000
0100
0000
,
0010
0001
1000
0000
,
0010
0100
0010
0000
,
1000
0001
0010
0000
,
0001
1000
0010
0000
,
1000
0001
0100
0000
,
0010
0100
0010
0100
,
0001
0000
1001
0000
,
1000
0000
1001
0000
,
0001
0000
0011
0000
,
0010
0000
0011
0000
,
0001
0100
0001
0100
,
0010
1000
0010
1000
,
0100
0000
0010
0000
,
0001
1000
0001
1000
,
2002
0000
0000
0000
,
0000
0000
0000
0000
,
0000
0000
0000
0000
,
0000
0000
0000
3003
;
