#TITLE:瞬;
#SUBTITLE:;
#ARTIST:小野秀幸;
#TITLETRANSLIT:Matataki;
#SUBTITLETRANSLIT:;
#ARTISTTRANSLIT:Hideyuki Ono;
#GENRE:;
#CREDIT:;
#BANNER:[ROUND 8] - Matataki.png;
#BACKGROUND:[ROUND 8] - Matataki-bg.png;
#LYRICSPATH:;
#CDTITLE:cdtitle.png;
#MUSIC:[ROUND 8] - Matataki.mp3;
#OFFSET:-0.030;
#SAMPLESTART:87.874;
#SAMPLELENGTH:12.000;
#SELECTABLE:YES;
#BPMS:0.000=178.000
;
#STOPS:
;
#BGCHANGES:;
#KEYSOUNDS:;
#ATTACKS:;

//---------------dance-single - ----------------
#NOTES:
     dance-single:
     :
     Hard:
     9:
     0.634,0.703,0.396,0.308,0.132,424.000,45.000,35.000,0.000,0.000,0.000,0.634,0.703,0.396,0.308,0.132,424.000,45.000,35.000,0.000,0.000,0.000:
0000
0000
0000
0000
,
0000
0000
0000
0000
,
0000
0000
0000
0000
,
0000
0000
0000
0000
,
0000
0000
0000
0000
1000
0010
0001
0010
,
0100
0001
0000
0101
0000
1001
0000
1000
,
0200
0300
0100
0010
0000
0011
0000
1000
,
0020
0000
0030
0002
0000
0003
0010
0200
,
0000
0300
0000
0000
0001
0010
1000
0010
,
0100
1000
0000
1100
0000
1001
0000
0001
,
0200
0300
0100
0010
0000
1010
0000
1000
,
0100
0002
0000
0000
0000
0003
0100
0020
,
0000
0030
0000
0000
0001
0100
1000
0001
,
0010
1000
0000
1010
0000
0011
0000
0010
,
0002
0003
0001
0100
0000
0101
0000
0001
,
0020
0000
0030
0002
0000
0000
0000
0003
,
0000
0000
0000
0000
1000
0010
0100
0001
,
0010
0000
0001
0100
0000
0110
0000
1010
,
0000
1000
0100
1000
0000
0001
0000
0020
,
0000
0030
0000
0001
0200
0300
1000
0100
,
0000
0110
0000
0010
0100
0001
0100
0000
,
0001
0000
1000
0000
0001
0010
0100
1000
,
0000
1100
0000
0011
0000
1001
0000
0000
,
0002
0000
0000
0200
0000
0000
0000
0303
,
0000
0000
0000
0000
0010
1000
0001
0100
,
0001
0000
1000
0100
0000
1100
0000
0011
,
0000
1000
0010
0001
0000
1000
0000
0200
,
0000
0300
0000
0001
0020
0030
0100
0010
,
0000
0011
0000
0001
0100
1000
0100
0000
,
0010
0000
1000
0000
0001
0010
0001
0100
,
0000
0101
0000
1001
0000
1100
0000
0000
,
0100
0000
1000
0020
0000
0030
0001
0020
,
0000
0030
0000
0100
1000
0100
0010
1000
,
0010
0000
0000
1010
0000
0000
1000
0000
0100
0000
0010
0000
,
0001
1000
0010
1000
0000
1001
0000
0001
,
0100
0000
1000
0200
0000
0000
0000
0020
,
0000
0300
0000
0130
0001
1000
0010
0100
,
0001
0000
0000
0000
1001
0000
0000
0000
1000
0000
0000
0100
0000
0000
0001
0000
,
1000
0000
1010
0000
0010
0001
0000
2000
,
0000
0000
0000
0002
0000
3003
0000
0000
,
1000
0010
0001
1000
0100
0010
1000
0001
,
0010
0000
0000
0011
0000
0000
0001
0000
0100
0000
0001
0000
,
1000
0100
1000
0010
0000
1010
0000
1000
,
0200
0300
0001
0200
0000
0300
0010
0002
,
0000
0003
0000
1000
0010
0100
0001
0010
,
0000
0000
0010
0000
0001
0000
0000
0000
1000
0000
0000
0010
0000
0000
1000
0000
,
0001
0000
0101
0000
0100
0010
0000
0200
,
0000
0000
0000
0002
0000
0303
0000
0000
,
1000
0000
0100
0000
1000
0010
1000
0000
0001
0100
0001
0000
1000
0100
0010
0100
,
1000
0000
0001
0100
0000
0101
0000
1001
,
0000
0000
1000
0100
0010
0000
0001
0000
1000
0000
0020
0000
0030
0000
0001
0000
,
0010
0000
0100
0010
0100
0001
0010
0100
,
1000
0000
0100
0000
0010
0000
0001
0000
1000
0000
0010
0000
1000
0000
0100
0010
,
0001
0100
1000
0100
0010
1000
0100
0001
,
0100
1000
0010
1000
0001
0010
1000
0010
,
0100
0000
1000
0100
1000
0000
0100
0010
0100
0000
0010
0001
0010
0000
0001
1000
,
0001
1000
0010
0200
0300
0001
1000
0001
,
0010
0000
0100
1000
0001
0000
0100
0000
1000
0000
0100
0000
0001
0000
1000
0000
,
0000
1001
0000
1000
0100
0001
0100
0010
,
0000
0000
0001
0100
1000
0100
0001
0000
1000
0100
0001
0100
1000
0000
0020
0000
,
0030
1000
0100
0010
0001
0100
0010
1000
,
0001
0000
0010
0000
1000
0000
0020
0000
0030
0000
0100
1000
0100
0000
1000
0000
,
0002
0003
1000
0010
0001
0020
0030
1000
,
0100
0000
0001
0000
1000
0000
0010
0001
1000
0000
0010
1000
0001
0000
0010
0001
,
0100
0100
0001
1000
0001
0010
1000
0010
,
0100
0000
1000
0000
0000
0000
1100
0000
0000
0000
0011
0000
0000
0000
0001
0010
,
0001
0000
1000
0010
0000
1010
0000
1000
,
0100
0000
1100
0000
1000
0010
0100
0010
,
0000
1000
0000
0001
1000
0100
0001
0100
,
0010
0000
0001
0000
0000
0000
0011
0000
0000
0000
1100
0000
0000
0000
1000
0010
,
1000
0000
0000
0000
0001
0000
0100
0000
0000
0000
0001
0000
0000
1000
0000
0000
,
0100
0000
1100
0000
1000
0010
0001
0010
,
0000
0100
0001
1000
0001
0010
1000
0001
,
0100
0000
0010
0000
0000
0000
0110
0000
0000
0000
0011
0000
0000
0000
0001
0100
,
0001
0000
0010
0100
0000
0010
0000
0001
,
0100
0000
0101
0000
0001
0010
1000
0010
,
0000
0100
0000
1000
0001
0100
1000
0001
,
0010
0000
0100
0000
0000
0000
0110
0000
0000
0000
1010
0000
0000
0000
1000
0100
,
1000
0000
0001
0100
0000
0101
0000
0001
,
2000
0000
0000
0002
0000
3003
0000
1001
;

//---------------dance-single - ----------------
#NOTES:
     dance-single:
     :
     Medium:
     7:
     0.478,0.492,0.176,0.264,0.000,330.000,20.000,30.000,0.000,0.000,0.000,0.478,0.492,0.176,0.264,0.000,330.000,20.000,30.000,0.000,0.000,0.000:
0000
0000
0000
0000
,
0000
0000
0000
0000
,
0000
0000
0000
0000
,
0000
0000
0000
0000
,
0000
0000
0000
0000
0001
0100
0001
0000
,
1000
1100
0001
0101
,
0002
0013
2000
3010
,
0001
0000
0100
0000
0010
1000
0010
0000
,
1010
0000
0000
0000
1000
0100
1000
0000
,
0001
0011
1000
1010
,
2000
3100
0002
0103
,
1000
0000
0010
0000
0100
0001
0100
0000
,
0101
0000
0000
0000
0001
0100
0001
0000
,
1000
1010
0001
0011
,
0002
0103
2000
3100
,
0010
0000
1000
0000
0001
1000
0001
1000
,
0000
0000
0000
0000
0001
0100
0010
0000
,
0100
0000
0001
0010
0000
0100
0000
1000
,
0000
0010
0100
0010
0000
1000
0000
1100
,
0000
0000
0000
0001
0010
0000
1000
0020
,
0000
0000
0000
0000
0000
0030
0000
0000
,
0000
0000
0000
0000
0100
1000
0100
0010
,
0000
0001
0000
1000
0000
0010
0000
0000
,
0200
0000
0000
0002
0000
0000
0000
0303
,
0000
0000
0000
0000
1000
0100
0010
0000
,
0100
0000
1000
0001
0000
0100
0000
0010
,
0000
1000
0010
1000
0000
0001
0000
0101
,
0000
0000
0000
1000
0100
0000
0001
0200
,
0000
0000
0000
0000
0000
0300
0000
0000
,
0000
0000
0000
0000
0010
0001
0010
0100
,
0000
1000
0000
0100
0000
0010
0000
0000
,
0001
0000
1000
0020
0000
0030
0001
0020
,
0000
0030
0000
1000
0100
0000
0010
0000
,
0001
0100
0010
0100
,
0001
0010
0001
1000
0000
0010
0000
0100
,
0010
0000
1000
0200
0000
0000
0000
0020
,
0000
0330
0000
0100
1000
0100
0010
0000
,
0001
0100
0010
0100
,
0001
0000
0010
0000
0100
0010
0000
0002
,
0000
0003
0000
2000
0000
0000
0000
3000
,
0001
0010
0100
0000
1000
0000
0010
0000
,
1000
0100
0010
0100
,
1000
0001
0100
0001
0000
1000
0000
0001
,
0010
0000
0001
0200
0000
0300
1000
0200
,
0000
0300
0000
0010
0000
0100
0001
0100
,
0000
0001
1000
0000
0100
0000
0010
0000
,
0100
0000
1000
0000
0001
0100
0000
0002
,
0000
0000
0000
2000
0000
0000
0000
3003
,
0001
0000
0010
0000
0100
0000
1000
0100
,
1000
0000
0001
0100
0000
0010
0000
0100
,
0000
0001
1000
0100
1000
0010
0000
0010
,
1000
0000
0001
0010
0100
0000
0010
0001
,
0000
1000
0000
0010
0000
0100
0000
0010
,
0100
0000
0001
0000
0010
0100
0010
0001
,
1000
0001
0100
0110
,
0100
0010
1000
0001
,
0010
0000
0100
1000
0000
0001
0010
0100
,
0010
0000
0001
0000
1000
0000
0010
1000
,
0000
0010
0000
0100
0010
0000
0100
0000
,
0000
0010
1000
0010
0000
1000
0100
1000
,
0000
0010
0100
0000
0001
0000
1000
0000
,
0100
1000
0001
1000
0000
0010
0100
0001
,
1000
0000
0001
0010
1000
0010
0000
0100
,
1000
0010
0100
0010
1000
0001
0100
0001
,
0010
0100
0010
0001
1000
0010
1000
0000
,
0001
0101
1000
1100
,
2000
3010
0002
0013
,
1000
0000
0001
0000
1000
0010
1000
0000
,
0001
0000
0100
0000
0001
0010
0001
0000
,
1000
1100
0001
0101
,
0002
0013
2000
3010
,
0001
0000
0100
0000
0001
0010
0001
0010
,
0000
0001
0000
1000
0001
0100
0001
0000
,
1000
1010
0001
0011
,
0002
0103
2000
3100
,
0010
0000
0100
0000
0001
1000
0001
0000
,
0010
0000
0001
0000
1000
0100
1000
0000
,
0001
0011
1000
1010
,
2000
3100
0002
0103
,
0020
0000
0000
0200
0000
0330
0000
0110
;

//---------------dance-single - ----------------
#NOTES:
     dance-single:
     :
     Easy:
     4:
     0.304,0.281,0.150,0.097,0.000,214.000,17.000,11.000,0.000,0.000,0.000,0.304,0.281,0.150,0.097,0.000,214.000,17.000,11.000,0.000,0.000,0.000: // measure 0
0000
0000
0000
0000
,  // measure 1
0000
0000
0000
0000
,  // measure 2
0000
0000
0000
0000
,  // measure 3
0000
0000
0000
0000
,  // measure 4
0000
0000
1000
0010
,  // measure 5
1000
0000
1001
0000
,  // measure 6
0001
0100
0001
0000
,  // measure 7
1000
0010
0100
0001
,  // measure 8
1000
0000
0001
0010
,  // measure 9
0001
0000
1001
0000
,  // measure 10
1000
0100
1000
0000
,  // measure 11
0001
0100
0010
1000
,  // measure 12
0001
0000
1000
0100
,  // measure 13
1000
0000
1001
0000
,  // measure 14
0001
0010
0001
0000
,  // measure 15
1000
0000
0020
0000
,  // measure 16
0030
0000
0010
1000
,  // measure 17
0010
0000
0100
0000
,  // measure 18
0001
1000
0001
0100
,  // measure 19
0001
0000
1000
0100
,  // measure 20
2000
3000
0002
0003
,  // measure 21
1000
0001
1000
0010
,  // measure 22
1000
0000
1000
0000
,  // measure 23
0002
0000
0020
0033
,  // measure 24
0000
0000
0010
0001
,  // measure 25
0010
0000
0001
0000
,  // measure 26
1000
0010
1000
0001
,  // measure 27
1000
0000
0100
0010
,  // measure 28
0200
0300
2000
3000
,  // measure 29
0001
1000
0001
0100
,  // measure 30
0001
0000
0001
0000
,  // measure 31
2000
3000
0200
0300
,  // measure 32
0020
0030
0001
1000
,  // measure 33
0001
0000
1001
0000
,  // measure 34
1000
0100
1000
0000
,  // measure 35
0010
0000
0110
0000
,  // measure 36
0100
0000
0110
0000
,  // measure 37
0010
0000
1010
0000
,  // measure 38
1000
0100
1000
0000
,  // measure 39
0001
0000
1001
0000
,  // measure 40
1000
0010
1000
0010
,  // measure 41
1000
0000
1001
0000
,  // measure 42
0001
0010
0001
0000
,  // measure 43
0100
0000
0110
0000
,  // measure 44
0010
0000
0110
0000
,  // measure 45
0100
0000
0101
0000
,  // measure 46
0001
0010
0001
0000
,  // measure 47
2000
0000
0000
3000
,  // measure 48
0001
0100
0010
1000
,  // measure 49
0001
0000
0001
0000
,  // measure 50
1000
0010
1000
0000
,  // measure 51
0001
0100
0001
0000
,  // measure 52
1000
0100
0010
0001
,  // measure 53
1000
0010
1000
0000
,  // measure 54
0001
0010
0001
0000
,  // measure 55
1000
0100
1000
0010
,  // measure 56
0100
0001
1000
0001
,  // measure 57
1000
0000
1000
0000
,  // measure 58
0001
0010
0001
0000
,  // measure 59
1000
0100
1000
0100
,  // measure 60
0010
0001
0010
0001
,  // measure 61
1000
0000
1000
0000
,  // measure 62
0001
0000
0001
0000
,  // measure 63
1000
0010
0100
0010
,  // measure 64
1000
0001
1000
0100
,  // measure 65
1000
0000
1100
0000
,  // measure 66
1000
0010
1000
0000
,  // measure 67
0001
0100
0001
1000
,  // measure 68
0001
0010
0001
0100
,  // measure 69
0001
0000
0101
0000
,  // measure 70
1000
0010
1000
0000
,  // measure 71
0001
0010
0100
1000
,  // measure 72
0001
0000
1000
0010
,  // measure 73
1000
0000
0101
0000
,  // measure 74
0001
0010
0001
0000
,  // measure 75
1000
0100
0010
0100
,  // measure 76
1000
0010
1000
0100
,  // measure 77
1000
0000
0011
0000
,  // measure 78
0001
0100
0001
0000
,  // measure 79
1000
0000
0000
0000
0001
0000
0000
1001
;
