#TITLE:Kimi ga Yume wo Tsuretekita;
#SUBTITLE:;
#ARTIST:Pet na Kanojotachi;
#TITLETRANSLIT:;
#SUBTITLETRANSLIT:;
#ARTISTTRANSLIT:;
#CREDIT:Lisek;
#BANNER:bn.png;
#BACKGROUND:bg.png;
#LYRICSPATH:;
#CDTITLE:Lisek.png;
#MUSIC:Kimi ga Yume wo Tsuretekita.ogg;
#OFFSET:-0.555;
#SAMPLESTART:44.999;
#SAMPLELENGTH:11.880;
#SELECTABLE:YES;
#BPMS:0.000=135.000;
#STOPS:;
#BGCHANGES:0.000=Kimi ga Yume wo Tsuretekita.avi=1.000=1=1=0,
198.000=bg.png=1.000=1=0=1,
99999=-nosongbg-=1.000=0=0=0 // don't automatically add -songbackground-
;

//---------------dance-single - Lisek----------------
#NOTES:
     dance-single:
     Lisek:
     Hard:
     7:
     0.384,0.385,0.343,0.122,0.000: // measure 1
0000
0000
0000
0000
,  // measure 2
0000
0000
0000
0000
,  // measure 3
0001
0000
0100
0000
0010
1000
0001
0100
,  // measure 4
0020
0000
0000
0030
,  // measure 5
1000
1100
0100
0110
,  // measure 6
0010
0011
0001
0101
,  // measure 7
0100
0000
0011
0101
,  // measure 8
0110
1010
1001
0000
,  // measure 9
0001
0101
0100
0110
,  // measure 10
0010
1010
1000
1100
,  // measure 11
0100
0000
1100
0000
,  // measure 12
1001
0110
1001
0110
,  // measure 13
1000
0000
0100
0001
0100
0000
0000
0000
,  // measure 14
1000
0001
0100
0020
0000
0000
0030
0010
,  // measure 15
1000
0100
0010
0000
,  // measure 16
0001
0000
1000
0010
0000
0100
0100
0000
,  // measure 17
0001
0010
0100
0000
,  // measure 18
1000
0010
0100
0020
0000
0000
0030
1000
,  // measure 19
0000
0001
0000
0000
0100
0000
0010
0000
,  // measure 20
0100
0001
0100
0020
0000
0000
0030
0000
,  // measure 21
1000
0100
0001
0100
,  // measure 22
0010
0001
0100
0010
,  // measure 23
1000
0100
0010
0100
,  // measure 24
1000
0000
0001
0000
0010
0100
0100
0000
,  // measure 25
1000
0001
0100
0000
0010
0000
0000
0000
,  // measure 26
1000
0000
0100
0010
0000
0000
0001
0000
,  // measure 27
2000
0000
0000
3001
0000
0100
0000
0000
,  // measure 28
0001
0100
0001
0020
0000
0000
0030
0000
,  // measure 29
0000
0010
0001
0010
0100
0010
0000
0000
,  // measure 30
0000
0100
0000
0001
0100
0010
0000
0000
,  // measure 31
0000
0001
0000
0100
0010
1000
0000
0000
,  // measure 32
1100
0110
0011
1001
,  // measure 33
0001
0000
0100
0010
0000
0000
1000
0100
,  // measure 34
0000
0010
0001
0100
0001
0010
0000
0000
,  // measure 35
0011
0110
1100
1001
,  // measure 36
2002
0000
0000
3003
,  // measure 37
0001
0000
1000
0100
0000
0001
0000
0100
,  // measure 38
0000
1000
0001
0200
0000
0000
0300
0001
,  // measure 39
0100
1000
0100
0010
0000
0100
0000
0001
,  // measure 40
0010
0100
0000
0010
0000
0001
0000
1000
,  // measure 41
0001
0000
0100
1000
0000
0100
0000
0001
,  // measure 42
0000
1000
0100
0001
0000
0100
1000
0001
,  // measure 43
1000
0000
0010
0100
0000
0010
1000
0000
,  // measure 44
0011
0110
1100
1001
,  // measure 45
0001
0000
0100
0010
0000
1000
0000
0100
,  // measure 46
0000
0001
0100
1000
0000
0001
0100
0010
,  // measure 47
0100
0000
0001
0010
0000
0001
0100
0000
,  // measure 48
0010
0000
1000
0100
0000
0010
0001
1000
,  // measure 49
0010
0000
0100
0010
0000
1000
0010
0000
,  // measure 50
0100
0000
0002
2000
0000
0000
3003
0000
;

//---------------dance-single - Lisek----------------
#NOTES:
     dance-single:
     Lisek:
     Beginner:
     1:
     0.077,0.110,0.000,0.033,0.000:
0000
0000
0000
0000
,
0000
0000
0000
0000
,
0000
0000
0000
0000
,
0000
0000
0000
0000
,
1000
0000
0000
0000
,
0001
0000
0000
0000
,
1000
0000
0000
0000
,
0001
0000
0000
0000
,
0100
0000
0000
0000
,
0010
0000
0000
0000
,
0100
0000
0000
0000
,
0020
0000
0000
0000
,
1030
0000
0000
0000
,
0100
0000
0000
0000
,
0010
0000
0000
0000
,
0001
0000
0000
0000
,
1000
0000
0000
0000
,
0010
0000
0000
0000
,
0100
0000
0000
0000
,
0001
0000
0000
0000
,
1000
0000
0000
0000
,
0100
0000
0000
0000
,
1000
0000
0000
0000
,
0001
0000
0000
0000
,
0100
0000
0000
0000
,
0010
0000
0000
0000
,
0100
0000
0000
0000
,
0001
0000
0000
0000
,
1000
0000
0000
0000
,
1000
0000
0000
0000
,
0001
0000
0000
0000
,
0002
0000
0000
0000
,
0103
0000
0000
0000
,
0100
0000
0000
0000
,
0010
0000
0000
0000
,
0010
0000
0000
0000
,
1000
0000
0000
0000
,
0100
0000
0000
0000
,
0010
0000
0000
0000
,
0001
0000
0000
0000
,
1000
0000
0000
0000
,
0010
0000
0000
0000
,
0100
0000
0000
0000
,
0001
0000
0000
0000
,
1000
0000
0000
0000
,
0100
0000
0000
0000
,
1000
0000
0000
0000
,
0001
0000
0000
0000
,
0100
0000
0000
0000
,
0020
0000
0000
0030
;

//---------------dance-single - Lisek----------------
#NOTES:
     dance-single:
     Lisek:
     Easy:
     2:
     0.158,0.193,0.000,0.033,0.000:
0000
0000
0000
0000
,
0000
0000
0000
0000
,
0000
0000
0000
0000
,
0000
0000
0000
0000
,
1000
0000
0010
0000
,
0100
0000
0010
0000
,
1000
0000
0001
0000
,
1000
0001
1000
0000
,
0001
0000
0100
0000
,
0010
0000
1000
0000
,
0001
0000
1000
0000
,
0001
1000
0001
1000
,
0001
0000
0010
0000
,
0100
0000
1000
0000
,
0010
0000
0100
0000
,
0010
0000
1000
0000
,
0001
0000
0010
0000
,
0001
0000
0100
0000
,
0001
0000
1000
0000
,
0020
0000
0000
0030
,
1000
0000
0100
0000
,
0010
0000
0100
0000
,
1000
0000
0001
0000
,
0100
0000
0010
0000
,
0100
0000
0001
0000
,
1000
0000
0010
0000
,
0100
0000
0010
0000
,
1000
0000
0000
0000
,
0001
0000
0100
0000
,
0001
0000
0010
0000
,
0001
0000
0100
0000
,
0001
1000
0001
1000
,
0001
0000
1000
0000
,
0010
0000
0100
0000
,
0001
1000
0001
1000
,
0002
0000
0000
0003
,
1000
0000
0010
0000
,
0100
0000
0010
0000
,
1000
0000
0100
0000
,
0010
0000
0001
0000
,
1000
0000
0001
0000
,
0100
0000
0001
0000
,
1000
0000
0010
0000
,
0100
0010
0100
0010
,
0100
0000
0010
0000
,
1000
0000
0001
0000
,
0010
0000
0001
0000
,
1000
0000
0010
0000
,
0100
0000
0010
0000
,
2000
0000
0000
3000
;

//---------------dance-single - Lisek----------------
#NOTES:
     dance-single:
     Lisek:
     Medium:
     4:
     0.236,0.248,0.000,0.077,0.000:
0000
0000
0000
0000
,
0000
0000
0000
0000
,
0000
0000
0000
0000
,
0000
0000
0000
0000
,
1000
0100
0010
0001
,
1000
0010
0100
0001
,
1000
0000
0001
0000
,
1000
0001
1000
0000
,
0001
0010
0100
1000
,
0001
0100
0010
1000
,
0001
0000
1000
0000
,
0001
0100
0010
1000
,
0001
0010
0100
0000
,
1000
0010
0100
0000
,
0010
1000
0001
0000
,
0010
0100
1000
0000
,
0001
0100
0001
0000
,
1000
0010
0100
0000
,
0001
1000
0010
0100
,
0010
1000
0001
0000
,
1000
0100
0010
0001
,
1000
0010
0100
0010
,
1000
0001
0010
0001
,
1000
0010
0100
0001
,
1000
0100
1000
0000
,
0001
0010
0001
0000
,
1000
0000
0001
0000
,
1000
0010
1000
0001
,
2000
0000
0000
3000
,
0200
0000
0000
0300
,
0020
0000
0000
0030
,
0001
0100
0010
1000
,
0002
0000
0000
0003
,
0020
0000
0000
0030
,
0100
1000
0001
0010
,
0002
0000
0000
0003
,
1000
0001
0100
0010
,
0100
0001
1000
0000
,
0001
0100
0010
1000
,
0100
1000
0001
0000
,
1000
0100
0010
0001
,
1000
0010
1000
0000
,
0001
0010
0001
1000
,
0010
0100
0010
1000
,
0001
0010
0100
1000
,
0001
0100
0001
0000
,
1000
0100
0010
0100
,
1000
0001
0100
0000
,
0001
1000
0010
0100
,
0020
0000
0000
0030
;
