#VERSION:0.81;
#TITLE:Hot & Cold;
#SUBTITLE:;
#ARTIST:Joseph Birdsong;
#TITLETRANSLIT:;
#SUBTITLETRANSLIT:;
#ARTISTTRANSLIT:;
#GENRE:;
#ORIGIN:;
#CREDIT:;
#BANNER:[ROUND 8] - Hot & Cold.png;
#BACKGROUND:[ROUND 8] - Hot & Cold-bg.png;
#PREVIEWVID:;
#JACKET:[ROUND 8] - Hot & Cold-jacket.png;
#CDIMAGE:;
#DISCIMAGE:;
#LYRICSPATH:;
#CDTITLE:cdtitle.png;
#MUSIC:[ROUND 8] - Hot & Cold.ogg;
#OFFSET:-2.567;
#SAMPLESTART:36.834;
#SAMPLELENGTH:15.761;
#SELECTABLE:YES;
#BPMS:0.000=138.000;
#STOPS:;
#DELAYS:;
#WARPS:;
#TIMESIGNATURES:0.000=4=4;
#TICKCOUNTS:0.000=4;
#COMBOS:0.000=1;
#SPEEDS:0.000=1.000=0.000=0;
#SCROLLS:0.000=1.000;
#FAKES:;
#LABELS:0.000=Song Start;
#BGCHANGES:;
#KEYSOUNDS:;
#ATTACKS:
;

//---------------dance-single - ----------------
#NOTEDATA:;
#CHARTNAME:;
#STEPSTYPE:dance-single;
#DESCRIPTION:;
#CHARTSTYLE:;
#DIFFICULTY:Hard;
#METER:7;
#RADARVALUES:0.436,0.387,0.065,0.008,0.000,369.000,8.000,1.000,0.000,0.000,0.000,0.000,0.000,0.436,0.387,0.065,0.008,0.000,369.000,8.000,1.000,0.000,0.000,0.000,0.000,0.000;
#CREDIT:;
#NOTES:
0000
0000
0000
0000
,
0000
0000
0000
0000
,
0000
0000
0000
0000
,
0000
0000
0000
0000
,
1000
0000
0010
1000
0001
0000
0010
0001
,
0100
0010
0100
0001
0000
1000
0100
0010
,
0001
0100
1000
0100
0010
0000
0100
0001
,
1000
0100
0010
0100
1000
0000
1001
0000
,
0001
0000
1000
0010
0100
0000
0001
0010
,
0100
0010
0001
0100
0000
0010
1000
0100
,
0001
0100
0010
0001
0000
1000
0010
0100
,
0010
0000
1000
0001
0000
0000
0011
0000
,
0001
0100
1000
0000
0100
0000
0010
0000
,
1000
0100
0010
0000
0100
0000
1000
0000
,
0001
0010
1000
0000
0010
0000
0100
0000
,
1000
0010
0100
0000
0010
0000
1000
0000
,
0001
1000
0100
0000
0001
0000
0100
0000
,
1000
0001
0100
0000
1000
0000
0100
0000
,
0001
1000
0010
0000
0001
0000
0010
0000
,
1000
0100
0010
0001
0010
0100
0010
0001
,
1000
0000
0010
1000
0001
0000
0010
0100
,
1000
0100
0010
0000
0001
0000
1000
0001
,
0100
0000
0001
1000
0100
0000
1000
0001
,
0100
0001
1000
0000
0100
0000
0010
0001
,
0010
0000
0001
0100
0010
0000
1000
0100
,
0010
0000
0100
1000
0010
0000
0100
0001
,
1000
0100
0001
0010
,
1000
0100
0010
0100
1000
0001
1000
0010
,
0100
0000
0010
1000
0100
0000
0010
0001
,
0100
1000
0100
0001
0010
0000
0100
1000
,
0100
0000
0010
0001
0100
0000
0010
1000
,
0100
0000
0010
0100
1000
0000
0001
0100
,
0010
0000
1000
0000
0100
0000
1000
0010
,
0100
0000
0001
1000
0100
0000
0010
0001
,
0100
1000
0100
0010
0000
0000
0100
0001
,
0000
1000
0010
0100
0000
0010
1000
0000
,
0001
0010
0001
1001
,
1000
0000
0010
0000
1000
0000
0001
0010
,
0100
1000
0010
1010
,
1000
0000
0001
0000
0010
0100
1000
0100
,
0010
0000
0001
0100
1000
0000
0001
0010
,
1000
0010
0100
0001
0000
1000
0100
0010
,
0100
1000
0010
0001
0000
1000
0100
0010
,
0100
0001
0010
0100
0000
1000
0010
1000
,
0001
0010
1000
0010
0100
0000
1000
0001
,
0000
0000
1000
0010
0000
0100
0000
0110
,
0000
0010
1000
0000
0001
0000
0011
0000
,
0001
0000
0100
0010
1000
0000
0001
0010
,
0200
0000
0000
0000
0300
0000
1000
0010
,
0100
0000
0010
1000
0100
0000
0010
0001
,
0010
0100
1000
0001
0100
0000
0010
1000
,
0001
0000
0010
0001
1000
0000
0100
1000
,
0010
0100
0001
0010
0100
0000
1000
0000
,
0010
0000
0100
0010
1000
0000
0100
0010
,
0001
0000
1000
0010
0100
0000
0001
0010
,
0100
1000
0010
1000
,
0001
0000
1000
0100
0010
0000
0100
1000
,
0010
0000
0100
0010
1000
0000
0100
0010
,
0001
1000
0010
0100
0001
0000
1000
0100
,
0010
0000
0001
0100
0010
0000
0100
0001
,
1000
0000
0100
0010
0001
0000
1000
0010
,
0100
0000
0010
1000
0010
0000
1000
0000
,
0001
0000
0100
0010
1000
0000
0001
0010
,
0100
0000
0010
0001
0010
0000
0001
0000
,
0100
0000
0010
1000
0010
0000
0100
0001
,
1000
0100
0010
0011
,
0000
0000
0001
0000
0100
0000
0010
0100
,
0001
0010
0100
1100
,
0000
1000
0010
0100
0010
1000
0000
0000
;

//---------------dance-single - ----------------
#NOTEDATA:;
#CHARTNAME:;
#STEPSTYPE:dance-single;
#DESCRIPTION:;
#CHARTSTYLE:;
#DIFFICULTY:Medium;
#METER:4;
#RADARVALUES:0.265,0.249,0.169,0.008,0.000,208.000,21.000,1.000,0.000,0.000,0.000,0.000,0.000,0.265,0.249,0.169,0.008,0.000,208.000,21.000,1.000,0.000,0.000,0.000,0.000,0.000;
#CREDIT:;
#NOTES:
0000
0000
0000
0000
,
0000
0000
0000
0000
,
0000
0000
0000
0000
,
0000
0000
0000
0000
,
1000
0001
0010
0100
,
1000
0000
0010
0100
0000
0000
0010
0000
,
1000
0100
0010
0001
,
1000
0000
0001
0000
0100
0010
0100
0000
,
0001
0010
1000
0010
,
0001
1000
1001
0000
,
0001
0100
1000
0100
,
0001
1000
0100
0010
,
0001
0000
1001
0000
,
1000
0000
1001
0000
,
0001
0000
0101
0000
,
0100
0000
0101
0001
,
1000
0000
1100
0000
,
0100
0000
1100
0000
,
1000
0000
1010
0000
,
0010
0100
0010
1000
,
0001
0000
1000
0100
1000
0000
0001
0000
,
0100
0010
1000
0000
,
0001
0000
0010
0100
0010
0000
0100
0000
,
1000
0010
0100
0010
,
1000
0000
0100
0000
,
0001
0000
0100
0000
,
1000
0001
1000
0000
,
0001
0100
0001
1000
,
0100
0000
0010
0001
0010
0000
0001
0000
,
0100
0010
0100
0001
,
1000
0000
0100
0000
,
0001
0000
0100
0000
,
1000
0010
0100
0000
,
0110
0000
1001
0000
,
0110
0100
0001
0000
,
1000
0100
0010
0001
,
1000
0000
1010
0000
,
0010
0000
0110
0100
,
0001
0000
1001
0000
,
1000
0000
0110
0010
,
0001
0100
1000
0010
,
0001
0000
1000
0001
0000
0000
1000
0000
,
0100
0000
0010
0100
0000
0000
1000
0000
,
0010
0000
0100
0001
0000
0000
0100
0000
,
0001
0010
1000
0010
,
0100
0000
0010
0000
,
0001
1000
0001
0000
,
0100
0010
0100
0010
,
2000
0000
3000
0000
,
0001
0000
0010
0100
0010
0000
0001
0000
,
1000
0010
0100
0000
,
0010
0000
1000
0001
1000
0000
0100
0000
,
0001
0100
1000
0010
,
0100
0000
0101
0000
,
0010
0000
1010
0000
,
1000
0100
0010
0000
,
0100
1000
0010
0100
,
0001
0000
1000
0100
1000
0000
0010
0000
,
0100
0001
1000
0100
,
1000
0000
1010
0000
,
0100
0000
0101
0000
,
0001
0010
0100
1000
,
0001
1000
0010
1000
,
0001
0000
0011
0000
,
1000
0000
1100
0100
,
1000
0000
0010
0000
,
0100
0000
0001
1000
,
0001
0000
0010
0000
,
0100
1000
0001
0000
;

//---------------dance-single - ----------------
#NOTEDATA:;
#CHARTNAME:;
#STEPSTYPE:dance-single;
#DESCRIPTION:;
#CHARTSTYLE:;
#DIFFICULTY:Easy;
#METER:2;
#RADARVALUES:0.184,0.193,0.073,0.024,0.000,148.000,9.000,3.000,0.000,0.000,0.000,0.000,0.000,0.184,0.193,0.073,0.024,0.000,148.000,9.000,3.000,0.000,0.000,0.000,0.000,0.000;
#CREDIT:;
#NOTES:
// measure 0
0000
0000
0000
0000
,  // measure 1
0000
0000
0000
0000
,  // measure 2
0000
0000
0000
0000
,  // measure 3
0000
0000
0000
0000
,  // measure 4
1000
0000
1000
0000
,  // measure 5
0100
0010
0001
0000
,  // measure 6
1000
0000
1000
0000
,  // measure 7
0001
0100
0010
0100
,  // measure 8
0001
0000
0001
0000
,  // measure 9
1000
0100
1000
0000
,  // measure 10
0001
0100
0001
0000
,  // measure 11
1000
0010
1000
0000
,  // measure 12
0001
0000
0011
0000
,  // measure 13
0001
0000
1001
0000
,  // measure 14
1000
0000
1010
0000
,  // measure 15
1000
0000
1001
0000
,  // measure 16
0001
0000
0101
0000
,  // measure 17
0001
0000
1001
0000
,  // measure 18
1000
0000
1100
0000
,  // measure 19
1000
1000
1000
0010
,  // measure 20
1000
0000
0001
0000
,  // measure 21
1000
0100
1000
0000
,  // measure 22
0001
0000
1000
0000
,  // measure 23
0001
0100
0001
0000
,  // measure 24
1000
0000
0100
0000
,  // measure 25
0010
0000
0001
0000
,  // measure 26
2000
0000
3000
0000
,  // measure 27
0002
0000
0003
0000
,  // measure 28
0100
0000
0010
0000
,  // measure 29
1000
0001
1000
0000
,  // measure 30
0100
0000
0010
0000
,  // measure 31
0001
0000
1000
0000
,  // measure 32
0010
0010
0010
0000
,  // measure 33
0100
0000
0010
0000
,  // measure 34
0100
0000
0101
0000
,  // measure 35
0001
0000
1001
0000
,  // measure 36
1000
0000
1000
0000
,  // measure 37
0001
0000
0001
0001
,  // measure 38
0010
0000
0010
0000
,  // measure 39
0100
0000
0100
0100
,  // measure 40
0010
0000
0001
0000
,  // measure 41
0100
0010
0100
0000
,  // measure 42
0010
1000
0010
0000
,  // measure 43
1000
0100
1000
0000
,  // measure 44
0010
0000
0010
0000
,  // measure 45
0100
0000
0010
0000
,  // measure 46
1000
0000
0000
0000
,  // measure 47
0001
0000
0000
0000
,  // measure 48
2000
0000
3000
0000
,  // measure 49
0001
0000
1000
0000
,  // measure 50
0100
0010
0100
0000
,  // measure 51
1000
0000
0001
0000
,  // measure 52
0100
0010
0100
0000
,  // measure 53
0001
0000
0010
0000
,  // measure 54
0100
0000
1000
0000
,  // measure 55
0001
0001
0001
0000
,  // measure 56
1000
1000
1000
0000
,  // measure 57
0010
0000
0100
0000
,  // measure 58
0001
1000
0001
0000
,  // measure 59
0010
0000
0100
0000
,  // measure 60
1000
0000
0001
0000
,  // measure 61
0100
0000
0000
0010
,  // measure 62
1000
0000
0001
0000
,  // measure 63
1000
0100
1000
0000
,  // measure 64
0001
0100
0001
0000
,  // measure 65
1000
0000
1000
0000
,  // measure 66
0001
0000
0000
0000
,  // measure 67
0001
0000
0001
0000
,  // measure 68
1000
0000
0001
0000
;
