#TITLE:Fireflies (DJ Strobe Remix);
#SUBTITLE:;
#ARTIST:Owl City;
#TITLETRANSLIT:;
#SUBTITLETRANSLIT:;
#ARTISTTRANSLIT:;
#CREDIT:;
#BANNER:[ROUND 8] - Fireflies (DJ Strobe Remix).png;
#BACKGROUND:[ROUND 8] - Fireflies (DJ Strobe Remix)-bg.png;
#LYRICSPATH:;
#CDTITLE:;
#MUSIC:[ROUND 8] - Fireflies (DJ Strobe Remix).mp3;
#OFFSET:-8.093;
#SAMPLESTART:64.071;
#SAMPLELENGTH:16.000;
#SELECTABLE:YES;
#BPMS:0.000=120.000;
#STOPS:;
#BGCHANGES:;

//---------------dance-single - ----------------
#NOTES:
     dance-single:
     :
     Hard:
     7:
     0.397,0.382,0.088,0.273,0.236:
0010
0000
1001
0000
1000
0100
1000
0000
,
0010
0000
0101
0000
0001
0010
0001
0000
,
0100
1001
0010
1001
,
0100
0000
0000
0010
0100
0000
0000
0010
0100
0000
0000
0010
0200
0000
0000
0000
,
0310
0000
0000
1000
0000
0100
0000
0000
1000
0000
0010
0000
0100
0000
0000
0000
,
0001
0000
0010
0000
0100
1000
0001
0000
,
0100
0000
0000
0000
0010
0000
0000
0000
0100
0000
0001
0000
1000
0000
0000
0100
,
0000
0100
1000
0000
0010
0100
0001
0000
,
1000
0000
0000
0100
0000
1000
0000
0000
0010
0000
0100
0000
0001
0000
0000
0000
,
0010
0000
0000
0000
0100
0000
0000
0000
1000
0000
0000
0001
0000
0000
1000
0000
,
0010
0000
0100
0000
0001
0010
0100
1000
,
0000
0000
1001
0000
0010
0010
0010
0010
,
0010
0000
1000
0000
0100
0000
1000
0010
0000
0100
0000
0000
0001
0000
0100
0020
,
0000
0000
0000
0000
1030
0000
0000
0000
0100
0000
0010
0000
0001
0000
0100
0020
,
0000
0000
0000
0000
0000
0000
0000
0030
2000
0000
0000
0000
0000
0000
0000
0000
,
3200
0000
0000
0000
0000
0000
0000
0300
0002
0000
0000
0000
0000
0000
0000
0000
,
0013
0000
0000
0000
0000
0000
0000
0000
0000
1000
0000
0000
0000
0000
0000
0000
0000
0000
0100
0000
0000
0000
0000
0000
1000
0000
0000
0000
0010
0000
0000
0000
0000
0000
0000
0000
0100
0000
0000
0000
0000
0000
0000
0000
0000
0000
0000
0000
,
0001
0000
0000
0010
0000
0000
0100
0000
1000
0000
0000
0000
1100
0000
0000
0000
,
1000
0000
0001
0000
0100
0000
0010
0000
0100
0000
0100
0000
0000
0010
0000
1000
,
0000
0000
0000
0001
0000
0000
1000
0000
0000
0001
0000
0000
1000
0000
0100
0000
0010
0000
0002
0000
0000
0000
0000
0000
,
1003
0000
0000
0010
0000
0100
0000
0000
0010
0000
1000
0000
0100
0000
0000
0000
,
0010
0000
0001
0000
0100
0010
1000
0000
,
1000
0000
0001
0000
0010
0000
0000
0010
0000
0001
0000
0000
0100
0000
0100
0010
,
0000
1000
0100
0000
0001
0100
1000
0000
,
0010
0000
0000
0100
0000
0001
0000
0010
0100
0000
1000
0000
0001
0000
0000
0000
,
0001
0000
0100
0000
0010
0000
0100
0000
0001
0000
1000
0000
0100
0000
1000
0010
,
0000
0100
0000
0001
0000
0000
0010
0100
0000
0000
1000
0000
0010
0000
0100
0000
,
0002
0023
0230
1300
,
0000
0000
0010
0000
0100
0000
0001
1000
0000
0001
0000
0000
1000
0000
0010
0200
,
0000
0000
0000
0000
0001
0000
0000
0000
0310
0000
1000
0000
0100
0000
0010
0200
,
0000
0000
2300
0000
,
3020
0000
0000
0000
0000
0000
0000
0000
0032
0000
0000
0000
0000
0000
0000
0003
,
0100
0000
0000
0010
0000
0000
0001
0000
0100
0000
0000
0000
0110
0000
0000
0000
,
0010
0000
0000
1000
0000
0000
0100
0000
1000
0000
0000
0000
1001
0000
0000
0000
,
0001
0000
0010
0000
0100
0000
1000
0000
0010
0000
0100
0000
0000
0100
0000
0020
,
0000
0000
0000
0000
0001
0000
0000
0000
0130
0000
0001
0000
0010
0000
0000
0200
,
0000
0000
0300
1000
0001
1000
0001
1000
,
0000
0000
0010
0000
0100
0000
0001
0000
0100
0000
0000
0000
0010
0000
0000
0010
,
0000
1000
0100
0000
0100
1000
0001
0000
,
0100
0000
0010
0000
0100
0000
0000
0000
0001
0010
0000
0000
0010
0000
0000
0001
,
0000
2000
3002
0203
,
0300
0000
0010
0000
1000
0000
0000
0001
0000
1000
0000
0000
0010
0000
0100
0000
,
0002
0023
0230
2300
,
3001
0000
0000
0100
0000
0000
0010
0000
0000
0100
0000
0000
0001
0000
1000
0000
0000
0000
0100
0000
0000
1000
0000
0000
,
0020
0100
0100
0100
,
0130
0000
0001
0000
0010
0000
0010
0100
0000
1000
0000
0000
1000
0000
1000
0002
,
0000
0000
0000
0000
0103
0000
0000
0000
0010
0000
1000
0000
0100
0000
0100
2000
,
0000
0000
3020
0000
,
0032
0000
0203
0000
,
1300
0000
0000
0010
0000
0000
0100
0000
0001
0000
0000
0000
1001
0000
0000
0000
,
1000
0000
0000
0100
0000
0000
0010
0000
0001
0000
0000
0000
1001
0000
0000
0000
,
0010
0000
0100
0000
0001
0000
0100
0000
1000
0000
0010
0000
0000
0100
0000
0001
,
0000
0000
0000
0000
0010
0000
0000
0000
0100
0000
1000
0000
0010
0000
0000
0100
,
0000
0000
0001
0000
0010
0000
0001
0010
0000
0100
0000
0000
1000
0000
1000
0020
,
0000
0000
0000
0000
0230
0000
0000
0000
0301
0000
1000
0000
0100
0000
0010
0002
,
0000
0000
0203
0000
,
2300
0000
3020
0000
,
0031
0000
0000
0100
0000
0000
0010
0000
1000
0000
0000
0000
1001
0000
0000
0000
,
0100
0000
0000
0010
0000
0000
0001
0000
1000
0000
0000
0000
1010
0000
0000
0000
,
0010
0000
0100
0000
0001
0000
0000
0001
0100
0000
0010
0000
1000
0000
1000
0002
,
0000
1000
1000
1000
,
0003
0000
0000
0000
;

//---------------dance-single - ----------------
#NOTES:
     dance-single:
     :
     Medium:
     5:
     0.288,0.270,0.052,0.170,0.000:
0010
0010
1000
1000
,
0001
0001
0100
0100
,
0010
1000
0100
0010
,
0001
1001
1001
1001
,
1000
0000
0100
0000
1000
0010
0100
0000
,
0001
0000
0010
0000
0100
1000
0001
0000
,
0100
0010
0100
0001
,
1000
0000
0100
0000
0001
0100
1000
0000
,
0010
0000
0100
0000
0001
0010
0100
0000
,
1000
0000
0001
0000
0100
0010
0100
0000
,
0001
0010
0100
1000
,
0000
0000
1001
0000
1000
0001
1000
0001
,
1000
0000
0010
0000
0100
0001
0100
0000
,
0010
0000
1000
0000
0100
1000
0001
0000
,
0200
0300
2000
3000
,
0020
0030
0002
0003
,
0100
0000
0010
0000
0100
0001
1000
0000
,
0100
0010
0110
0000
,
0010
0000
0001
0000
1000
0010
0000
0100
,
0010
0100
0002
0003
,
1000
0000
0100
0000
0010
0001
0010
0000
,
0100
0000
1000
0000
0001
0100
0001
0000
,
0100
0010
1000
0100
,
0010
0000
0100
0000
1000
0001
1000
0000
,
0010
0000
0100
0000
0001
0010
0001
0000
,
1000
0000
0100
0000
0010
0001
0010
0000
,
0001
0100
1000
0001
,
0020
0230
0302
0003
,
0010
0000
0100
0000
1000
0001
1000
0000
,
0010
0000
0100
0000
0001
0010
0001
0000
,
0200
0300
2000
3000
,
0020
0030
0002
0003
,
0100
0000
0010
0000
0100
0001
1000
0000
,
0100
0010
0001
0000
,
0100
0000
0010
0000
0100
0001
0000
0001
,
1000
0100
0010
0001
,
2000
0000
0000
3000
,
0001
0010
0001
0100
,
0010
1000
0001
0010
,
0100
1000
0100
1000
,
0010
0100
0001
1000
,
0100
0010
0100
1000
,
0010
0100
0001
0010
,
0100
1000
0001
0100
,
0020
0000
0100
0130
,
0001
0001
0010
0000
0100
0100
1000
0000
,
0010
0000
0100
0000
0010
1000
0001
0000
,
0020
0030
2000
3000
,
0200
0300
0002
0003
,
0010
0000
0100
0000
1000
0001
0100
0000
,
0010
1000
1001
0000
,
0100
0000
0010
0000
0001
0100
0000
0001
,
1000
0100
0010
0001
,
0100
0000
0010
0000
0100
0001
1000
0000
,
0100
0000
0010
0000
0001
1000
0001
0000
,
0020
0000
2030
0000
,
3200
0000
0302
0000
,
0013
0000
0100
0000
0001
0010
0100
0000
,
1000
0001
0110
0000
,
0010
0000
1000
0000
0100
1000
0000
1000
,
0002
0000
0000
0000
,
0003
0000
0000
0000
;

//---------------dance-single - ----------------
#NOTES:
     dance-single:
     :
     Easy:
     3:
     0.161,0.202,0.022,0.074,0.000: // measure 1
0010
0000
0100
0000
,  // measure 2
0001
0000
1000
0000
,  // measure 3
1001
0000
0110
0000
,  // measure 4
2002
0000
3003
0000
,  // measure 5
0100
0000
0010
0000
,  // measure 6
0001
1000
0001
0000
,  // measure 7
0010
0000
0100
0000
,  // measure 8
2000
0000
3000
0000
,  // measure 9
0010
0000
0100
0000
,  // measure 10
0001
0010
0001
0000
,  // measure 11
1000
0000
0010
0000
,  // measure 12
0000
0100
0000
0000
,  // measure 13
0001
0000
0010
0000
,  // measure 14
0100
1000
0001
1000
,  // measure 15
0100
0000
0001
0000
,  // measure 16
0010
0000
1000
0000
,  // measure 17
0100
0010
0100
0100
,  // measure 18
1000
0001
0100
0000
,  // measure 19
0010
1000
0001
0010
,  // measure 20
0200
0000
0000
0300
,  // measure 21
1000
0000
0010
0000
,  // measure 22
0100
0001
0100
0000
,  // measure 23
0010
0000
1000
0000
,  // measure 24
0002
0000
0003
0000
,  // measure 25
0010
0000
0100
0000
,  // measure 26
1000
0010
1000
0000
,  // measure 27
0010
0000
0100
0000
,  // measure 28
0002
0000
0003
0000
,  // measure 29
0010
0000
0100
0000
,  // measure 30
1000
0010
0001
0010
,  // measure 31
0100
0000
0001
0000
,  // measure 32
0010
0000
1000
0000
,  // measure 33
0100
0010
0001
0001
,  // measure 34
1000
0010
0001
0000
,  // measure 35
0010
0100
1000
0001
,  // measure 36
0200
0000
0300
0000
,  // measure 37
0010
0000
0000
0000
,  // measure 38
1000
0000
0010
0000
,  // measure 39
0100
0000
0000
0000
,  // measure 40
0001
0000
0010
0000
,  // measure 41
0100
0000
0000
0000
,  // measure 42
1000
0000
0001
0000
,  // measure 43
0010
0000
0000
0000
,  // measure 44
0100
0000
1000
0000
,  // measure 45
0020
0000
0030
0000
,  // measure 46
0100
0000
0001
0000
,  // measure 47
0010
1000
0010
0100
,  // measure 48
1000
0000
0010
0000
,  // measure 49
0001
0000
0100
0000
,  // measure 50
1000
0010
0100
0100
,  // measure 51
0010
1000
0001
0000
,  // measure 52
0010
0100
1000
0001
,  // measure 53
0020
0000
0030
0000
,  // measure 54
0001
0000
0100
0000
,  // measure 55
1000
0100
0010
1000
,  // measure 56
0001
0000
0010
0000
,  // measure 57
1000
0000
0100
0000
,  // measure 58
0001
0010
0100
0100
,  // measure 59
0001
0010
1000
0000
,  // measure 60
0100
0100
0010
0001
,  // measure 61
2000
0000
0000
0000
,  // measure 62
3000
0000
0000
0000
;
