#TITLE:ANIMEGABBATTLE;
#SUBTITLE:;
#ARTIST:DJ SHARPNEL;
#TITLETRANSLIT:;
#SUBTITLETRANSLIT:;
#ARTISTTRANSLIT:;
#GENRE:;
#CREDIT:;
#BANNER:[ROUND 8] - ANIMEGABBATTLE.png;
#BACKGROUND:[ROUND 8] - ANIMEGABBATTLE-bg.png;
#LYRICSPATH:;
#CDTITLE:;
#MUSIC:[ROUND 8] - ANIMEGABBATTLE.mp3;
#OFFSET:-0.120;
#SAMPLESTART:37.085;
#SAMPLELENGTH:12.000;
#SELECTABLE:YES;
#BPMS:0.000=207.000
;
#STOPS:355.500=0.145,
356.000=0.145,
356.500=0.145,
357.000=0.145
;
#BGCHANGES:;
#KEYSOUNDS:;
#ATTACKS:;

//---------------dance-single - ----------------
#NOTES:
     dance-single:
     :
     Hard:
     10:
     0.878,0.771,0.260,0.183,0.102,811.000,37.000,26.000,0.000,0.000,0.000,0.878,0.771,0.260,0.183,0.102,811.000,37.000,26.000,0.000,0.000,0.000:
0000
0000
0000
0000
,
0000
0000
0000
0000
,
0000
0000
0000
0000
,
0000
0000
0000
0000
,
0000
0010
1000
0100
0001
0100
1000
0100
,
0010
0001
0100
0010
0000
1000
0010
0100
,
0010
1000
0010
0100
0001
0010
0100
0001
,
0100
1000
0001
0100
0000
0010
1000
0010
,
0000
0000
1000
0000
0010
0000
0100
0010
0000
0100
0000
0001
0010
0000
0100
0000
,
1000
0100
1000
0000
0100
0000
1000
0100
0000
0010
0000
0001
0100
0000
0010
0000
,
1000
0000
0001
0010
0001
0000
0010
0000
0100
0000
1000
0100
1000
0000
0100
0000
,
1000
0010
0100
0001
0010
0001
0100
0010
,
1000
0000
0010
0000
0100
0000
0001
0010
0000
0001
0000
0100
0010
0000
0100
0000
,
0001
0010
0001
1000
0000
0001
1000
0010
,
0100
0010
0100
0010
0100
0001
0100
0001
,
0010
0100
1000
0010
0100
0001
1000
0010
,
0100
0001
0100
0001
1000
0100
0010
0001
,
1000
0100
1000
0100
1000
0001
1000
0010
,
0100
0001
0100
0001
0010
0100
1000
0010
,
1000
0001
1000
0001
0010
0001
0100
0010
,
0100
0001
0100
0001
0010
0001
1000
0010
,
1000
0100
1000
0100
0010
0001
0100
0001
,
1000
0010
1000
0010
0100
0001
0010
0100
,
1000
0010
1000
0010
0100
0010
1000
0001
,
0000
0000
1000
0000
0010
0000
1000
0100
0000
0010
0000
0001
1000
0000
0100
0000
,
0010
0000
0100
0000
1000
0000
0000
0010
0000
0100
0000
0000
0001
0000
0010
0000
,
0001
0100
0001
0100
0001
0010
0001
0010
,
0100
0001
0100
1000
0010
0100
0010
1000
,
0000
0000
0001
0000
1000
0000
0001
0010
0000
0001
0000
0100
0010
0000
1000
0000
,
0010
0100
0010
1000
0000
0001
0010
0001
,
0100
0010
0001
0010
1000
0010
0100
0001
,
0010
0000
0100
1000
0100
0000
1000
0000
0010
0000
0100
0000
0001
0000
0010
0000
,
1100
1010
0110
0101
,
0001
0010
0001
0100
0000
0010
0001
0010
,
1010
1001
0011
1001
,
0001
0010
0100
1000
0000
0000
0001
1000
,
0001
0100
0001
0100
0001
0100
0001
0100
,
0001
0010
0001
0010
0001
0010
0001
0010
,
0100
0010
0100
0010
0100
1000
0100
1000
,
0200
0000
0320
0000
0032
0000
0103
0010
,
0110
0110
1010
1010
,
1000
0001
0010
0100
0000
1000
0010
1000
,
1001
1001
0101
0101
,
0001
0010
0100
1000
0000
0000
0001
0010
,
0002
1000
1000
1000
,
2003
0010
0010
0010
,
3020
0130
0200
0301
,
0200
0000
0302
0000
2003
0000
3001
1000
,
0001
0100
0001
0100
0001
0100
0001
0100
,
0001
0100
0001
0100
0001
0100
0010
1000
,
0100
0010
0100
0010
0100
0010
0100
0010
,
0100
0010
0100
0010
0100
0010
0100
0010
,
0001
1000
0001
1000
0001
1000
0001
1000
,
0001
1000
0001
1000
0001
0100
0001
0010
,
0100
1000
0100
1000
0001
1000
0001
1000
,
0010
0100
0001
1000
0001
0010
0100
1000
,
0001
0010
0001
0010
0001
0100
0001
0100
,
0010
0001
0010
1000
0000
0000
1100
0000
,
0100
0010
0100
0010
0100
1000
0100
1000
,
0100
1000
0000
1100
0000
1010
0000
0000
,
0001
1000
0001
1000
0010
1000
0010
1000
,
0100
0010
0100
1000
0000
0000
0010
0000
,
0100
0001
0100
0001
0010
0001
0010
0001
,
0000
0101
0000
1010
0000
0010
0100
0001
,
0010
0001
0010
0001
0010
0100
1000
0001
,
0100
0010
0100
0010
0100
0001
0100
0010
,
1000
0100
1000
0100
1000
0010
0100
1000
,
0100
0001
0000
1001
0000
1001
0000
0000
,
0001
1000
0001
1000
0010
1000
0010
1000
,
0100
1000
0100
1000
0100
0010
0100
0010
,
0001
0100
0010
1000
0001
0100
0010
1000
,
0000
0002
0000
2003
0000
3020
0000
0130
,
0001
0010
0100
1000
0010
0100
0010
1000
,
0010
0100
0010
1000
0001
0010
0001
0100
,
0001
0010
0100
0001
0100
1000
0010
0100
,
0001
1000
0010
0100
0010
1000
0010
1000
,
0001
0010
0001
0100
0001
0010
0100
0001
,
0100
1000
0100
1000
0100
0010
0100
0010
,
0001
0100
0001
0010
0001
0100
0010
0001
,
0010
1000
0001
1000
0001
1000
0001
1000
,
0001
0100
0001
0100
0001
0010
0001
0010
,
0100
0020
0000
0000
0000
0000
0000
0030
,
0200
2300
3020
0230
,
0310
0000
1000
0000
0001
0010
0100
1000
,
0010
0100
0010
0100
0001
0100
0001
0100
,
0001
2000
0000
0000
0000
0000
0000
3000
,
0002
0023
0230
2300
,
3001
0000
0100
0000
0010
1000
0010
0100
,
0002
0000
0000
0000
0000
0000
0003
1001
,
1100
0011
1001
1000
0001
0100
0001
0100
,
0010
0000
1000
0010
0100
0010
1000
0000
,
0001
1001
0011
1100
,
1010
0000
0110
0000
0010
1000
0001
0100
,
0000
0000
0010
0100
0001
0000
0001
0100
,
0000
0010
0000
0000
0001
0000
0010
1000
,
0000
0100
0010
0100
,
1000
0000
0001
0000
0000
0000
0000
0000
1000
0000
0000
0000
0001
0000
0000
0100
,
0000
0010
0000
0000
1000
0000
0100
1000
,
0010
0000
0100
0010
1000
0001
0100
0000
,
0010
1000
1010
1001
,
0011
0000
0110
0000
0100
1000
0010
0100
,
0000
0000
0010
0100
0001
1000
0001
1000
,
0001
0010
0100
1000
0010
0100
0010
0100
,
0010
1000
0010
0100
0001
0010
0001
0010
,
0100
0001
0100
1000
0001
0100
0010
1000
,
0001
0100
0010
1000
0001
0010
0001
0100
,
0001
1000
0001
0010
0100
0001
0100
1000
,
0100
0010
0100
1000
0010
0100
0010
0001
,
0010
1000
0010
0001
1000
0100
0001
0010
,
0001
0010
0100
1000
0010
0100
0010
0100
,
0010
1000
0010
1000
0001
0010
0100
1000
,
0001
0010
0100
1000
0001
0010
0001
0010
,
0100
1000
0100
1000
0001
1000
0010
0100
,
0010
0000
1000
0000
0010
0000
0100
0000
0001
0000
1000
0000
0001
0000
0000
1000
,
0000
0010
0000
0000
0100
0000
0010
0000
1000
0000
0100
0000
0010
0000
0000
0100
,
0000
1000
0000
0000
0010
0000
0100
0000
0010
0000
1000
0000
0010
0000
1000
0000
,
0010
0100
0010
0100
0001
0010
0100
0001
,
0100
0000
1000
0000
0010
0000
0100
0000
0010
0000
1000
0000
0001
0000
0010
0100
,
0000
1000
0000
0010
0100
0000
0001
0000
1000
0000
0001
0000
0100
0000
0010
0000
,
0000
0100
0010
1000
0001
0010
0001
0010
,
0100
0010
0100
0010
0100
1000
0010
0100
,
0001
1000
0010
0100
0220
0000
0330
0000
;

//---------------dance-single - ----------------
#NOTES:
     dance-single:
     :
     Medium:
     8:
     0.518,0.514,0.134,0.042,0.004,490.000,19.000,6.000,0.000,0.000,0.000,0.518,0.514,0.134,0.042,0.004,490.000,19.000,6.000,0.000,0.000,0.000:
0000
0000
0000
0000
,
0000
0000
0000
0000
,
0000
0000
0000
0000
,
0000
0000
0000
0000
,
0000
0001
1000
0010
,
1000
0010
1000
0010
0000
0000
1000
0000
,
0100
0010
0001
0100
,
0010
0100
0010
0100
0000
0000
0001
0000
,
1000
0001
1000
0000
0010
0000
0100
0000
,
0010
0100
0010
0000
1000
0000
0100
0000
,
0010
0100
0010
0000
0001
0010
0001
0000
,
1000
0000
0100
0000
0010
0001
0010
0000
,
0001
1000
0001
0000
0100
0000
0010
0000
,
1000
0001
1000
0000
1000
0010
1000
0000
,
0001
0010
0001
1000
,
0010
0100
0010
0100
0010
0100
0010
0100
,
0010
0010
1010
1010
,
1000
1000
1001
1001
,
0001
0001
0011
0011
,
0010
0010
0110
0110
,
0100
1000
1100
1100
,
0010
0000
0000
0100
0000
0000
0010
0000
,
0100
0010
1010
1010
,
0010
0000
0000
1000
0000
0000
0001
0000
,
1000
0010
0100
0100
,
0001
0010
0100
0100
,
0010
0001
0100
0010
,
0001
0000
0010
0000
1000
0001
1000
0000
,
0001
0001
1000
1000
,
0010
0100
1000
0100
,
0001
0010
0100
1000
,
0001
1000
0001
1000
0001
1000
0001
1000
,
0001
0100
0010
1000
,
0010
0000
0000
1000
0000
0000
0100
0000
,
0010
0010
0001
0001
,
0100
0000
0000
0010
0000
0000
0001
0000
,
0010
1000
0010
1000
,
0001
1000
0001
1000
,
0001
0010
0100
0010
,
0100
1000
0010
0100
,
0002
1000
1000
1000
,
1000
0000
0000
1000
0000
0000
1003
0000
,
2000
0010
0010
0010
,
0010
0000
0000
0010
0000
0000
3010
0000
,
0100
0000
0010
0000
,
1000
0100
0010
0000
,
0100
0100
1000
1000
,
0001
0000
0100
0000
0010
0000
1000
0010
,
1000
0000
0001
0000
0010
0001
0010
0000
,
0001
0000
0100
0000
0010
0100
0010
0000
,
0100
0000
0010
0000
1000
0010
1000
0000
,
0010
0000
1000
0000
0001
1000
0001
0000
,
0010
0000
0100
0000
1000
0100
1000
0000
,
0100
0000
1000
0000
0001
1000
0001
0000
,
1000
0000
0010
0000
1000
0010
1000
0000
,
0010
0100
0001
1000
,
0001
0001
0100
0100
,
0001
0010
0100
0000
,
1000
1000
0100
0100
,
1000
0001
0000
0100
0000
0010
0000
0100
,
0010
0010
1000
1000
,
0001
0000
0000
1000
0000
0000
0001
0000
,
0010
0000
0010
0000
0100
0000
0100
1000
,
0000
0001
0000
0100
0000
0010
1000
0010
,
1000
0010
1000
0010
,
1000
0001
1000
0001
,
0010
0001
0010
0001
,
0010
0001
0000
0010
0000
0100
0000
1000
,
0010
0010
0100
0100
,
0010
0000
0000
0100
0000
0000
0001
0000
,
0010
0010
0001
0001
,
1000
0001
0000
1000
0000
0010
0000
0100
,
0010
0010
1000
1000
,
0010
0000
0000
1000
0000
0000
0001
0000
,
0010
0010
0001
0001
,
1000
0000
0000
0001
0000
0000
1000
0000
,
0100
0010
0001
0100
,
0010
0000
0000
0001
0000
0000
0010
0000
,
1000
1000
0001
0001
,
1000
0000
0000
0001
0000
0000
0010
0000
,
0001
0001
0100
0100
,
0010
0100
0000
0000
0000
0000
0000
0000
,
0010
0010
1000
1000
,
0001
0001
1000
0001
,
1000
0001
0010
0100
,
0010
0100
0000
0000
0000
0000
0000
0000
,
1000
0010
0100
0010
,
1000
0000
0001
0000
0100
0001
0100
0001
,
0200
0000
0000
0000
0000
0000
0300
0010
,
0100
0110
0110
0010
0100
0000
0001
0000
,
0010
0000
0100
0010
0100
0000
1000
0000
,
0100
1100
1000
1000
,
0001
0000
0001
0000
0100
0010
0100
0010
,
0000
0000
0110
0000
0010
0000
1000
0010
,
0000
1000
0000
0000
0001
0000
1000
0001
,
0000
0010
0001
1000
,
0100
0000
1000
0000
0000
0000
0000
0000
0010
0000
0000
0000
0100
0000
0000
0010
,
0000
0100
0000
0000
0010
0000
0010
0000
,
1000
0000
1000
0001
1000
0000
0001
0000
,
1000
0000
0001
0001
,
0010
0000
0010
0000
0100
0010
0100
0010
,
0000
0000
0100
0000
1000
0000
0010
0100
,
0000
0010
0000
0000
1000
0000
0010
0100
,
0000
0001
0010
0001
0020
0000
0000
0000
,
0000
0030
0001
1000
,
1001
1001
0001
0100
,
0010
0000
0001
0000
0010
0000
0000
1000
,
0000
0001
0010
0010
,
0100
0000
0100
0000
1000
0000
0000
0001
,
0000
0100
0010
0010
,
1000
0000
1000
0000
0001
0000
0000
1000
,
0000
0001
0100
0010
,
0001
0000
0010
0000
1000
0000
0000
0010
,
0000
0000
1000
0000
0001
0100
0001
0000
,
0100
0000
0010
0000
1000
0010
1000
0000
,
0100
0000
0010
0000
0001
0010
0001
0000
,
0010
0100
0010
0000
0100
1000
0100
0000
,
1000
0010
1000
0000
0010
0000
0100
0000
,
0001
0100
0001
0000
0100
0000
0010
0000
,
1000
0010
1000
0000
0001
0000
0001
0000
,
1000
1000
0001
0010
,
0100
1000
2002
3003
;

//---------------dance-single - ----------------
#NOTES:
     dance-single:
     :
     Easy:
     5:
     0.364,0.343,0.000,0.007,0.000,361.000,0.000,1.000,0.000,0.000,0.000,0.364,0.343,0.000,0.007,0.000,361.000,0.000,1.000,0.000,0.000,0.000:
0000
0000
0000
0000
,
0000
0000
0000
0000
,
0000
0000
0000
0000
,
0000
0000
0000
0000
,
0000
0001
1000
0010
,
0100
0000
0100
0000
,
0010
0100
0001
1000
,
0001
0000
0001
0000
,
1000
0100
1000
1000
,
0010
0100
0010
0010
,
0100
0000
0001
0000
,
1000
0100
0010
0000
,
0001
0001
0100
0100
,
0001
1000
0010
0100
,
0001
1000
0001
1000
,
0010
0100
0010
0100
,
0010
0000
1000
0010
,
1000
0000
0001
0010
,
0001
0000
1000
0001
,
1000
0000
0010
1000
,
0010
0000
0100
0010
,
0100
0000
0001
0100
,
0001
0000
0010
0001
,
0010
0100
1000
0010
,
0100
0000
0100
0000
,
0001
0000
0001
0000
,
1000
1000
0001
0001
,
1000
0001
1000
0001
,
0100
0000
0100
0000
,
0010
0000
0010
0000
,
1000
0010
1000
0001
,
1000
0100
0010
0001
,
0100
0000
0100
0000
,
0010
0010
0010
0000
,
1000
0000
1000
0000
,
0001
0001
0001
0000
,
0010
0001
0010
0000
,
0100
1000
0100
0000
,
1000
1000
0010
0010
,
0100
0010
0100
0000
,
0010
1000
0010
1000
,
0010
0000
1000
0000
,
0001
1000
0001
1000
,
0001
0000
1000
0000
,
0001
0000
0010
0000
,
0100
0000
0010
0000
,
0100
0000
1000
0000
,
0010
0000
0100
0010
,
0100
0001
1000
1000
,
0001
1000
0100
0100
,
1000
0010
0100
0100
,
0010
1000
0001
0001
,
1000
0100
1000
1000
,
0010
0100
1000
1000
,
0100
0010
1000
1000
,
0001
0010
0100
0010
,
0001
0000
0100
0000
,
0010
0100
0010
0000
,
1000
0000
0001
0000
,
1000
0001
0010
0100
,
1000
0000
0010
0000
,
0100
0010
0100
0000
,
0001
0000
1000
0000
,
0001
0100
0010
0100
,
0010
1000
0010
1000
,
0010
1000
0010
1000
,
0001
1000
0001
1000
,
0001
0000
0010
0000
,
0100
1000
0100
1000
,
0100
0010
0100
0010
,
0100
0000
0010
0000
,
0001
0100
0010
1000
,
0001
0001
0100
0100
,
0010
0000
0010
0000
,
1000
1000
0001
0001
,
1000
0000
1000
0000
,
0001
0000
0001
0000
,
0100
0000
0100
0000
,
0010
0010
1000
1000
,
0001
1000
0001
1000
,
0001
0001
0100
0100
,
0010
0000
0000
0000
,
1000
0000
1000
0000
,
0001
0000
0001
0000
,
0010
0010
0100
0100
,
1000
0000
0000
0000
,
0010
0000
0100
0000
,
0010
0000
1000
0000
,
0001
0000
0000
0000
0000
0000
0000
1000
,
0001
1000
0001
0000
0100
0000
0100
0000
,
0100
0010
1000
1000
,
1000
0000
0001
0001
,
0010
0010
0001
0100
,
0010
0000
1000
0000
,
1000
0000
0001
0000
,
0001
0000
0010
0000
,
0001
0000
0100
0010
,
0100
0010
1000
0000
,
0001
0000
1000
0010
,
1000
0000
0100
0000
,
0010
0000
0100
0010
,
0100
0000
0010
0000
,
0001
0000
0100
0100
,
0100
0000
0010
0000
,
1000
0000
0001
0001
,
1000
1000
0001
0010
,
0100
1000
0010
0010
,
0100
0100
0010
1000
,
0001
0100
0010
0010
,
0100
0100
1000
0100
,
0001
0010
0100
0000
,
1000
0000
0001
0001
,
1000
1000
0010
0100
,
0010
0100
0010
0000
,
0010
0000
1000
0000
,
1000
0000
0001
0001
,
0010
0010
0100
1000
,
0010
0100
0010
0000
,
1000
0000
0001
1000
,
0001
0000
1000
0000
,
0001
0000
0010
0001
,
1000
0100
2000
3000
;

//---------------dance-single - ----------------
#NOTES:
     dance-single:
     :
     Beginner:
     3:
     0.187,0.257,0.000,0.007,0.000,185.000,0.000,1.000,0.000,0.000,0.000,0.187,0.257,0.000,0.007,0.000,185.000,0.000,1.000,0.000,0.000,0.000: // measure 0
0000
0000
0000
0000
,  // measure 1
0000
0000
0000
0000
,  // measure 2
0000
0000
0000
0000
,  // measure 3
0000
0000
0000
0000
,  // measure 4
0000
0000
0000
0000
,  // measure 5
0000
0000
0000
0000
,  // measure 6
0000
0000
0000
0000
,  // measure 7
0000
0000
0000
0000
,  // measure 8
1000
0000
0000
0000
,  // measure 9
0010
0000
0000
0000
,  // measure 10
0100
0000
0010
0000
,  // measure 11
0100
0000
0010
0000
,  // measure 12
1000
0000
0000
0000
,  // measure 13
0001
0000
0000
0000
,  // measure 14
0010
0000
0001
0000
,  // measure 15
0010
0010
0010
0010
,  // measure 16
0010
0000
0000
0000
,  // measure 17
0001
0000
0000
0000
,  // measure 18
0100
0000
0000
0000
,  // measure 19
0010
0000
0000
0000
,  // measure 20
1000
0000
0000
0000
,  // measure 21
0010
0000
0000
0000
,  // measure 22
0100
0000
0100
0000
,  // measure 23
0010
0000
0010
0000
,  // measure 24
0100
0000
0000
0000
,  // measure 25
0001
0000
0000
0000
,  // measure 26
0010
0000
0100
0000
,  // measure 27
1000
0000
0010
0000
,  // measure 28
0100
0000
0000
0000
,  // measure 29
0001
0000
0000
0000
,  // measure 30
1000
0000
0001
0000
,  // measure 31
0010
0000
0000
0000
,  // measure 32
0100
0000
1000
0000
,  // measure 33
0100
0000
0000
0000
,  // measure 34
0010
0000
0001
0000
,  // measure 35
0010
0000
0000
0000
,  // measure 36
0001
0000
0000
0000
,  // measure 37
0100
0000
0000
0000
,  // measure 38
0010
0000
0010
0000
,  // measure 39
1000
0000
1000
0000
,  // measure 40
0001
0000
0001
0000
,  // measure 41
0001
0000
0000
0000
,  // measure 42
0100
0000
0100
0000
,  // measure 43
0100
0000
0000
0000
,  // measure 44
0010
0000
0000
0000
,  // measure 45
1000
0000
0000
0000
,  // measure 46
0001
0000
0000
0000
,  // measure 47
0010
0000
0100
0000
,  // measure 48
1000
0000
0000
0000
,  // measure 49
0000
0000
0000
0000
,  // measure 50
0010
0000
0000
0000
,  // measure 51
0000
0000
0000
0000
,  // measure 52
0100
0000
0000
0000
,  // measure 53
0000
0000
0000
0000
,  // measure 54
0010
0000
0000
0000
,  // measure 55
1000
0000
0001
0000
,  // measure 56
0010
0000
0010
0000
,  // measure 57
0001
0000
0001
0000
,  // measure 58
0100
0000
0100
0000
,  // measure 59
0010
0000
0010
0000
,  // measure 60
1000
0000
0000
0000
,  // measure 61
1000
0000
0000
0000
,  // measure 62
0010
0000
0010
0000
,  // measure 63
0100
0100
0100
0100
,  // measure 64
0100
0000
0000
0000
,  // measure 65
0010
0000
0000
0000
,  // measure 66
1000
0000
0001
0000
,  // measure 67
1000
0000
1000
0000
,  // measure 68
0001
0000
0000
0000
,  // measure 69
0010
0000
0000
0000
,  // measure 70
0100
0000
1000
0000
,  // measure 71
0010
1000
0010
1000
,  // measure 72
0010
0000
0000
0000
,  // measure 73
0100
0000
0000
0000
,  // measure 74
0001
0000
0000
0000
,  // measure 75
0010
0000
0000
0000
,  // measure 76
0001
0000
0001
0000
,  // measure 77
1000
0000
1000
0000
,  // measure 78
0010
0000
0010
0000
,  // measure 79
1000
1000
1000
1000
,  // measure 80
1000
0000
0001
0000
,  // measure 81
0100
0000
0000
0000
,  // measure 82
0010
0000
0100
0000
,  // measure 83
0001
0000
1000
0000
,  // measure 84
0001
0001
0001
0001
,  // measure 85
0001
0000
0000
0000
,  // measure 86
0010
0000
0100
0000
,  // measure 87
1000
0000
0010
0000
,  // measure 88
0100
0000
0000
0000
,  // measure 89
0000
0000
0010
0000
,  // measure 90
0100
0000
0010
0000
,  // measure 91
0010
0000
1000
0000
,  // measure 92
1000
0000
0001
0000
,  // measure 93
0001
0000
0010
0000
,  // measure 94
0000
0000
0100
0000
,  // measure 95
0000
0000
1000
0000
,  // measure 96
0010
0000
0100
0100
,  // measure 97
0100
0000
0010
0000
,  // measure 98
0010
0000
1000
1000
,  // measure 99
1000
0000
0001
0000
,  // measure 100
0010
0000
0100
0100
,  // measure 101
0100
0000
1000
0000
,  // measure 102
0000
0000
0010
0000
,  // measure 103
0000
0000
0100
0000
,  // measure 104
0010
0000
1000
0000
,  // measure 105
0001
0001
0001
0000
,  // measure 106
0001
0000
0100
0000
,  // measure 107
0100
0000
0010
0000
,  // measure 108
0010
0000
1000
0000
,  // measure 109
1000
0000
0010
0000
,  // measure 110
0000
0000
1000
0000
,  // measure 111
0000
0000
0001
0000
,  // measure 112
0010
0000
0100
0100
,  // measure 113
0100
0000
1000
0000
,  // measure 114
0000
0000
0010
0000
,  // measure 115
0000
0000
0100
0000
,  // measure 116
0010
0000
0100
0000
,  // measure 117
0001
0000
1000
0000
,  // measure 118
0000
0000
0001
0000
,  // measure 119
0000
0000
0010
0000
,  // measure 120
0001
0000
0100
0000
,  // measure 121
0010
0000
0200
0300
;
