#TITLE:polygon;
#SUBTITLE:;
#ARTIST:Sota Fujimori;
#TITLETRANSLIT:;
#SUBTITLETRANSLIT:;
#ARTISTTRANSLIT:;
#CREDIT:Lisek;
#BANNER:bn.png;
#BACKGROUND:bg.png;
#LYRICSPATH:;
#CDTITLE:Lisek.png;
#MUSIC:polygon.ogg;
#OFFSET:-0.363;
#SAMPLESTART:3.120;
#SAMPLELENGTH:10.940;
#SELECTABLE:YES;
#DISPLAYBPM:87.000:174.000;
#BPMS:0.000=174.000,198.000=696.000,199.000=174.000,200.000=87.000,216.000=174.000;
#STOPS:198.000=0.129,198.500=0.129;
#BGCHANGES:;

//---------------dance-single - ----------------
#NOTES:
     dance-single:
     Lisek:
     Challenge:
     12:
     0.917,1.000,0.455,0.008,0.999: // measure 1
0000
0000
0000
0000
,  // measure 2
0000
0000
0000
0000
,  // measure 3
1000
0000
0000
0010
0000
0000
0100
0000
0000
0010
0000
0000
1000
0000
0100
0000
,  // measure 4
0010
0000
0000
0001
0000
0000
0100
0000
0110
0000
0000
0000
0101
0000
0000
0000
,  // measure 5
0001
0000
0000
0100
0000
0000
0010
0000
0000
0100
0000
0010
1000
0000
0100
0000
,  // measure 6
0010
0000
0000
0001
0000
0000
0010
0000
0000
0000
0001
0000
0100
0010
0100
0000
,  // measure 7
0001
0000
0000
0010
0000
0000
0100
0000
0000
1000
0000
0000
0001
0000
1000
0000
,  // measure 8
0010
0000
0000
0100
0000
0000
0001
0000
1000
0000
0000
0000
0100
0000
0000
0000
,  // measure 9
1000
0000
0000
0010
0000
0000
0100
0000
0000
0001
0000
0010
0100
0000
1000
0000
,  // measure 10
1100
0000
0000
1001
0000
0000
0101
0000
0000
0000
0001
0000
1000
0010
0100
0000
,  // measure 11
0010
0000
0100
0000
0010
1000
0010
0001
,  // measure 12
0010
1000
0010
0100
0010
0000
1000
0000
,  // measure 13
0001
0000
0100
0000
0001
0010
1000
0010
,  // measure 14
0001
0100
1000
0100
0001
0000
1000
0000
,  // measure 15
0010
0000
0100
0000
0010
0001
0010
0100
,  // measure 16
0010
0001
0010
1000
0001
0000
1000
0000
,  // measure 17
1100
0000
0000
0000
0110
0000
0000
0011
,  // measure 18
0000
1001
0000
0000
1001
1001
1001
0000
,  // measure 19
0001
0100
0010
0000
0100
0000
0001
0000
0010
0000
0100
0000
1000
0000
0001
0000
,  // measure 20
0100
0001
0100
0000
0010
0000
1000
0000
0100
0000
1000
0000
0010
0000
0100
0000
,  // measure 21
0010
1000
0010
0000
0100
0000
0010
0000
1000
0000
0001
0000
0010
0000
1000
0000
,  // measure 22
0010
0100
0010
0000
0100
0000
1000
0000
0001
0000
0100
0000
0001
0000
0010
0000
,  // measure 23
0001
0100
0001
0000
0100
0000
0010
0000
0100
0000
0001
0000
1000
0000
0010
0000
,  // measure 24
0100
0001
0100
0000
0010
0000
0100
0000
0001
0000
0010
0000
0100
0000
1000
0000
,  // measure 25
0001
0010
0001
0000
0010
0000
0100
0000
1000
0000
0001
0000
1000
0000
0010
0000
,  // measure 26
1010
0000
0000
0000
0000
0000
0110
0000
0000
0000
0000
0000
0101
0000
0000
0000
0000
0000
0000
0000
0001
0100
0001
0000
0100
0000
0010
0000
1000
0000
0000
0000
,  // measure 27
1010
0000
0000
0000
0100
0000
0001
0000
0011
0000
0000
0101
0000
0000
0110
0000
,  // measure 28
0000
1010
0000
0000
1000
0000
0010
0000
0100
0000
0010
0000
1000
0000
0000
0000
,  // measure 29
0011
0000
0000
0101
0000
0000
1000
0000
0001
0000
1001
0000
0000
0000
0011
0000
,  // measure 30
0000
0101
0000
0000
0110
0000
0101
0000
0000
0000
0101
0000
0110
0000
0000
0000
,  // measure 31
1010
0000
0000
1100
0000
0000
0001
0000
1000
0000
1010
0000
0000
0000
1100
0000
,  // measure 32
0000
1010
0000
0000
1000
0000
0100
0000
1000
0000
0010
0000
0100
0000
0000
0000
,  // measure 33
0101
0000
0000
0001
0010
0000
0100
0000
0010
0000
0001
0000
0000
0000
1001
0000
,  // measure 34
1000
0000
0000
0100
0000
0000
0020
0000
0000
0000
0000
0000
0031
0000
0000
0000
,  // measure 35
1000
0100
0001
0100
0010
0100
1000
0010
,  // measure 36
0100
1000
0100
0001
0010
0100
1000
0001
,  // measure 37
0100
1000
0100
0010
1000
0010
0100
0010
,  // measure 38
1000
0000
0100
0000
0010
0000
0001
0000
0100
0000
0001
0000
1000
0000
0100
0010
,  // measure 39
0100
1000
0001
0100
1000
0100
0010
1000
,  // measure 40
0100
0001
0100
0010
0100
1000
0001
0100
,  // measure 41
0010
1000
0010
0100
0001
0010
0100
0010
,  // measure 42
0011
0000
0000
0101
0000
0000
1001
0000
0000
0000
1000
0001
0100
0000
0000
0000
,  // measure 43
0001
0010
0100
0010
0000
0000
0001
1000
0010
0100
1000
0000
0100
0001
0100
0000
,  // measure 44
0010
1000
0001
0010
0000
0000
0100
1000
0001
0010
0100
0000
1000
0001
0000
0000
,  // measure 45
1000
0100
0001
1000
0010
0001
1000
0000
,  // measure 46
0001
0010
1000
0001
0100
1000
0001
0000
,  // measure 47
1000
0010
0100
0001
0000
0000
0010
0100
1000
0001
0100
0000
0010
0100
0001
0000
,  // measure 48
1000
0100
0010
0001
0000
0000
1000
0010
0100
0000
0010
0000
1000
0001
0000
0000
,  // measure 49
0011
0000
0000
0101
0000
0000
0000
0000
1100
0000
0000
1010
0000
0000
1001
0000
,  // measure 50
0011
0000
0000
0101
0000
0000
0000
0000
0001
0000
0010
0000
0100
0000
0000
0000
,  // measure 51
1000
0000
1000
0000
0100
0000
0100
0000
1000
0100
0010
0000
0001
0000
0001
0100
0010
0000
0010
0000
1000
0000
1000
0000
0010
0100
0001
0000
1000
0000
1000
0010
,  // measure 52
0100
0100
00M0
00M0
0001
0001
1000
1000
0010
0010
0100
0100
0001
0001
1000
1000
,  // measure 53
0001
0000
0001
0000
0010
0000
0010
0000
0100
1000
0001
0000
0100
0000
0100
0010
1000
0000
1000
0000
0100
0000
0100
0000
1000
0010
0100
0000
0010
0000
0010
1000
,  // measure 54
0001
0001
1000
1000
0010
0010
0100
0100
0001
0001
1000
1000
0001
0001
1000
0000
,  // measure 55
0001
0100
0010
1000
0100
0010
0001
0010
0100
1000
0001
0100
0010
0100
0001
1000
,  // measure 56
0001
0000
0000
0100
0000
0000
0010
1000
0010
0000
0000
1000
0000
0000
0001
0000
,  // measure 57
1000
0100
0010
0001
0100
0010
1000
0001
0100
0010
1000
0100
0010
0001
1000
0001
,  // measure 58
1000
0000
0000
0010
0000
0000
0100
0000
0010
0000
0000
0000
0100
0000
0000
0000
,  // measure 59
0001
0010
0100
1000
0001
0100
0010
0100
0001
1000
0100
0010
0001
1000
0010
1000
,  // measure 60
0001
0000
0000
1000
0000
0000
0010
0100
0001
0000
0000
1000
0000
0000
0001
0000
,  // measure 61
1000
0100
0010
0001
1000
0010
0100
0001
1000
0100
1000
0010
0100
0001
0010
0001
,  // measure 62
1000
0000
0000
0000
0000
0000
0010
0000
0000
0000
0000
0000
0100
0000
0000
0000
0010
0000
0000
0000
0000
0000
0100
0001
0100
0000
0001
0000
0100
0000
0000
0000
,  // measure 63
0001
0010
0100
1000
0001
0100
0010
0100
0001
1000
0100
0010
0001
1000
0001
0100
,  // measure 64
0001
0000
0000
1000
0000
0000
0010
0100
0010
0000
0000
1000
0000
0000
0001
0000
,  // measure 65
1000
0100
0010
0100
1000
0001
0100
0010
0100
0001
1000
0010
0100
0001
1000
0001
,  // measure 66
1000
0000
0000
0010
0000
0000
0100
0000
0010
0000
0000
0000
0100
0000
0000
0000
,  // measure 67
0001
0010
0100
1000
0001
0100
0010
0100
0001
1000
0100
0010
0001
1000
0010
1000
,  // measure 68
0001
0000
0000
0100
0000
0000
0010
0100
0001
0000
0000
0100
0000
0000
0010
0000
,  // measure 69
1000
0100
0010
0001
1000
0010
0100
0001
0010
0100
0010
0001
0100
0001
0100
0000
,  // measure 70
0101
0000
0000
0110
0000
0000
1010
0000
0110
0000
0000
0000
1001
0000
0000
0000
,  // measure 71
1000
0100
1000
0100
1000
0100
1000
0100
0010
0001
0010
0001
0010
0001
0010
0001
,  // measure 72
1000
0010
1000
0010
1000
0010
1000
0010
0100
0001
0100
0001
0100
0001
0100
0001
,  // measure 73
1000
0100
1000
0100
1000
0100
1000
0100
0010
0001
0010
0001
0010
0001
0010
0001
,  // measure 74
1000
0010
1000
0010
1000
0010
1000
0010
0100
0001
0100
0001
0100
0001
0100
0001
,  // measure 75
1000
0100
1000
0100
1000
0100
1000
0100
0010
0001
0010
0001
0010
0001
0010
0001
,  // measure 76
1000
0010
1000
0010
1000
0010
1000
0010
0100
0001
0100
0001
0100
0001
0100
0001
,  // measure 77
1000
0100
1000
0100
1000
0100
1000
0100
0010
0001
0010
0001
0010
0001
0010
0000
,  // measure 78
0011
0000
0000
0110
0000
0000
1000
0000
0001
0000
0000
0000
1001
0000
0000
0000
;

//---------------dance-single - ----------------
#NOTES:
     dance-single:
     Lisek:
     Hard:
     9:
     0.638,0.655,0.253,0.084,0.228:
0000
0000
0000
0000
,
0000
0000
0000
0000
,
1000
0000
0000
0001
0000
0000
0100
0000
0000
0010
0000
0000
0100
0000
0001
0000
,
0100
0000
0000
0010
0000
0000
1000
0000
0001
0000
0000
0000
1000
0000
0000
0000
,
0001
0000
0000
0010
0000
0000
0100
0000
0000
1000
0000
0000
0001
0000
0100
0000
,
0001
0000
0000
1000
0000
0000
0010
0000
0100
0000
0000
0000
0010
0000
0000
0000
,
1000
0000
0000
0100
0000
0000
0010
0000
0000
0100
0000
0000
1000
0000
0001
0000
,
0100
0000
0000
0010
0000
0000
0100
0000
0001
0000
0000
0000
1000
0000
0000
0000
,
0001
0000
0000
0010
0000
0000
0100
0000
0000
0010
0000
0000
0001
0000
0100
0000
,
0010
0000
0000
1000
0000
0000
0010
0000
0000
0000
1000
0000
0001
0000
0000
0000
,
1000
0000
0100
0000
1000
0100
0001
0100
,
1000
0010
0001
0010
1000
0000
0001
0000
,
0100
0000
0001
0000
0010
0100
1000
0100
,
0010
0001
0010
0100
1000
0000
0001
0000
,
0100
0000
0010
0000
0100
1000
0100
0001
,
0100
0010
0100
0001
0100
0000
0001
0000
,
2000
3010
0200
0310
,
1000
0100
0010
0001
0100
0100
0100
0000
,
0001
0100
0001
0010
0001
0100
0001
0000
,
1000
0010
0100
0010
1000
0010
0100
0000
,
0001
0100
0010
0100
0001
0010
0100
0000
,
1000
0010
0100
0010
1000
0100
0010
0000
,
0001
1000
0001
0100
0001
1000
0001
0000
,
1000
0001
0100
0001
1000
0001
0100
0000
,
0010
1000
0100
0010
0001
0010
0100
1000
,
1100
0000
0000
1010
0000
0000
0110
0000
0000
0000
0100
0000
0010
0000
1000
0000
,
0001
0000
0000
0010
0100
0000
1000
0000
0010
0000
0000
0100
0000
0000
0010
0000
,
0000
1000
0000
0000
0001
0000
0000
0000
0100
0000
0000
0000
0001
0000
0000
0000
,
1000
0000
0000
0100
0010
0000
0001
0000
1000
0000
0010
0000
0000
0000
1000
0000
,
0000
0100
0000
0000
0010
0000
0001
0000
0000
0000
1000
0000
0001
0000
0100
0000
,
0001
0000
0000
0100
0010
0000
1000
0000
0100
0000
0010
0000
0000
0000
0001
0000
,
0000
1000
0001
0000
0100
0000
0001
0000
,
1000
0000
0000
0010
0100
0000
0010
0000
1000
0000
0100
0000
0000
0000
1000
0000
,
0000
0010
0000
0000
0100
0000
0001
0000
0000
0000
1000
0000
0001
0000
0000
0000
,
1000
0010
0100
0000
0010
0000
1000
0000
0100
0000
0010
0000
0100
0000
0000
0000
,
1000
0001
0100
0000
0010
0000
0100
0000
0001
0000
1000
0000
0001
0000
0000
0000
,
0010
0100
1000
0000
0010
0000
0100
0000
0001
0000
0010
0000
0001
0000
0000
0000
,
0100
0010
1000
0000
0100
0000
0010
0000
0001
0000
0100
0000
0010
0000
1000
0010
,
0100
0110
1010
1100
,
0110
0011
0101
0110
,
1010
1100
1001
0101
,
1001
0000
0000
0101
0000
0000
1001
0000
0000
0000
1000
0001
1000
0000
0000
0000
,
0001
0100
0010
0000
1000
0000
0100
0000
0010
0000
0100
0000
1000
0000
0001
0000
,
1000
0010
0100
0000
0010
0000
1000
0000
0100
0000
0010
0000
0100
0000
1000
0000
,
0010
0100
0001
0100
,
0010
1000
0001
0100
,
0001
0010
0001
0000
0010
0000
0100
0000
0010
0000
0001
0000
0100
0000
0010
0000
,
1000
0010
0100
0000
0010
0000
1000
0000
0100
0000
0010
0000
0100
0000
1000
0000
,
1010
0000
0000
1010
0000
0000
0000
0000
0101
0000
0000
0101
0000
0000
1001
0000
,
1001
0000
0001
0000
1000
0001
1000
0000
,
0001
0010
0100
0001
0100
0010
0001
0100
,
0010
0001
0010
0100
0001
0010
0001
1000
,
1000
0100
0010
1000
0010
0100
1000
0010
,
0100
0000
1000
0000
0100
0000
0010
0000
1000
0000
0001
0000
1000
0001
1000
0000
,
0001
0100
1000
0100
0002
0000
0100
0000
,
1003
0000
0000
0100
0000
0000
1000
0010
1000
0000
0001
0000
0100
0000
0000
0000
,
0010
0100
1000
0100
0020
0000
0100
0000
,
1030
0000
0000
0100
0000
0000
1000
0001
1000
0000
0000
0000
1001
0000
0000
0000
,
1000
0100
0001
0100
2000
0000
0010
0000
,
3001
0000
0000
0100
0000
0000
0001
1000
0001
0000
0100
0000
0010
0000
0000
0000
,
0100
0010
0001
0010
0200
0000
0010
0000
,
0301
0000
0000
0010
0000
0000
0100
1000
0100
0000
0000
0000
1001
0000
0000
0000
,
0001
0010
1000
0010
0002
0000
0100
0000
,
1003
0000
0000
0100
0000
0000
1000
0010
1000
0000
0001
0000
0100
0000
0000
0000
,
0010
0100
1000
0100
0020
0000
0100
0000
,
1030
0000
0000
0100
0000
0000
1000
0001
1000
0000
0000
0000
1001
0000
0000
0000
,
1000
0010
0001
0010
2000
0000
0010
0000
,
3001
0000
0000
0100
0000
0000
0001
0010
0001
0000
1000
0000
0010
0000
0000
0000
,
0100
0010
0001
0010
0200
0000
0010
0000
,
0301
0000
0000
0100
0000
0000
0001
0000
1000
0000
0010
0000
0100
0000
0001
0000
,
1000
0000
0000
0100
1000
0000
0000
0000
0010
0000
0100
0000
0001
0000
0100
0000
,
0010
0000
0000
1000
0100
0000
0000
0000
0010
0000
0001
0000
0100
0000
0001
0000
,
1000
0100
1000
0000
0010
0000
0100
0000
0000
0000
0010
0000
0000
0000
1000
0000
,
0001
0010
0100
1000
0000
0010
0000
0100
,
0010
1000
0100
0010
0100
1000
0010
0100
,
0001
0010
0100
0010
0001
0100
0010
0100
,
0001
0100
0010
1000
0100
0010
0001
1000
,
1100
0000
0000
0110
0000
0000
0011
0000
0001
0000
0000
0000
1001
0000
0000
0000
;

//---------------dance-single - ----------------
#NOTES:
     dance-single:
     Lisek:
     Beginner:
     1:
     0.104,0.162,0.000,0.000,0.000:
0000
0000
0000
0000
,
0000
0000
0000
0000
,
1000
0000
0000
0000
,
0001
0000
0000
0000
,
1000
0000
0000
0000
,
0001
0000
0000
0000
,
0100
0000
0000
0000
,
0010
0000
0000
0000
,
0100
0000
0000
0000
,
0010
0000
0000
0000
,
1000
0000
0000
0000
,
0100
0000
0000
0000
,
1000
0000
0000
0000
,
0010
0000
0000
0000
,
1000
0000
0000
0000
,
0100
0000
0000
0000
,
1000
0000
0000
0000
,
0001
0000
0000
0000
,
0100
0000
0000
0000
,
0010
0000
0000
0000
,
0100
0000
0000
0000
,
0001
0000
0000
0000
,
0100
0000
0000
0000
,
0010
0000
0000
0000
,
0100
0000
0000
0000
,
0001
0000
0000
0000
,
1000
0000
0000
0000
,
0100
0000
0000
0000
,
1000
0000
0000
0000
,
0010
0000
0000
0000
,
0100
0000
0000
0000
,
0001
0000
0000
0000
,
0010
0000
0000
0000
,
0001
0000
0000
0000
,
1000
0000
0000
0000
,
0001
0000
0000
0000
,
1000
0000
0000
0000
,
0001
0000
0000
0000
,
0100
0000
0000
0000
,
0010
0000
0000
0000
,
0100
0000
0000
0000
,
0010
0000
0000
0000
,
1000
0000
0001
0000
,
1000
0000
0001
0000
,
1000
0000
0000
0000
,
0000
0000
0000
0000
,
0010
0000
0100
0000
,
0010
0000
0100
0000
,
0010
0000
0000
0000
,
0000
0000
0000
0000
,
1000
0000
0100
0000
,
0010
0000
0001
0000
,
0001
0000
0010
0000
,
0100
0000
1000
0000
,
0001
0000
0000
0000
,
0100
0000
0000
0000
,
0001
0000
0000
0000
,
0010
0000
0000
0000
,
0001
0000
0000
0000
,
1000
0000
0000
0000
,
0010
0000
0000
0000
,
1000
0000
0000
0000
,
0100
0000
0000
0000
,
1000
0000
0000
0000
,
0001
0000
0000
0000
,
0100
0000
0000
0000
,
0010
0000
0000
0000
,
1000
0000
0000
0000
,
0001
0000
0000
0000
,
0100
0000
0000
0000
,
0001
0000
1000
0000
,
0001
0000
0000
0000
,
0100
0000
0010
0000
,
0100
0000
0000
0000
,
0001
0000
1000
0000
,
0001
0000
0000
0000
,
0100
0000
0010
0000
,
0100
0000
0000
0000
;

//---------------dance-single - ----------------
#NOTES:
     dance-single:
     Lisek:
     Easy:
     3:
     0.264,0.295,0.008,0.126,0.000:
0000
0000
0000
0000
,
0000
0000
0000
0000
,
1000
0000
0010
0000
,
0200
0000
0300
0000
,
0001
0000
0010
0000
,
0200
0000
0300
0000
,
1000
0000
0001
0000
,
0200
0000
0300
0000
,
0010
0000
1000
0000
,
0002
0000
0003
0000
,
1000
0100
1000
0100
,
1000
0100
1000
0000
,
0001
0100
0001
0100
,
0001
0100
0001
0000
,
1000
0010
1000
0010
,
1000
0010
1000
0000
,
0001
0010
0001
0010
,
0001
0010
0001
0000
,
1000
0000
0100
0000
,
0010
0000
0001
0000
,
1000
0000
0010
0000
,
0100
0000
0001
1000
,
0001
0000
0010
0000
,
0100
0000
1000
0000
,
0010
0000
0100
0000
,
0001
1000
0001
0000
,
1000
0100
0010
0001
,
1000
0000
0001
0000
,
1000
0010
0100
0001
,
1000
0000
0001
0000
,
1000
0001
0010
0100
,
1000
0000
0001
0000
,
1000
0010
0100
0001
,
0010
0000
0001
0000
,
1000
0010
1000
0000
,
0010
1000
0010
0000
,
0100
0001
0100
0000
,
0001
0100
0001
0000
,
0010
0001
0010
0000
,
0001
0010
0001
0000
,
1000
0010
1000
0000
,
0001
1000
0001
0000
,
1000
0100
1000
0000
,
0100
0000
0010
0000
,
0001
0000
0100
0000
,
0001
0000
1000
0000
,
0010
1000
0010
0000
,
0100
0000
0010
0000
,
1000
0000
0001
0000
,
1000
0001
2000
3000
,
0001
0010
0100
1000
,
0001
0010
0100
1000
,
1000
0100
0010
0001
,
1000
0100
0010
0001
,
1000
0010
2000
0000
,
3001
0000
0100
0000
,
0001
0100
0002
0000
,
1003
0000
0010
0000
,
1000
0100
2000
0000
,
3001
0000
0100
0000
,
0001
0010
0002
0000
,
1003
0000
0001
0000
,
1000
0100
2000
0000
,
3010
0000
0100
0000
,
0010
0100
0020
0000
,
0130
0000
0001
0000
,
0100
0001
0200
0000
,
0301
0000
0010
0000
,
0001
0010
0002
0000
,
1003
0000
0001
0000
,
1000
0100
1000
0000
,
0100
0010
0100
0000
,
0010
0001
0010
0000
,
0001
0100
0001
0000
,
1000
0010
1000
0000
,
0001
0010
0001
0000
,
1000
0001
1000
0000
,
2002
0000
0000
3003
;

//---------------dance-single - ----------------
#NOTES:
     dance-single:
     Lisek:
     Medium:
     6:
     0.415,0.557,0.017,0.084,0.051:
0000
0000
0000
0000
,
0000
0000
0000
0000
,
1000
0010
0100
0010
,
1000
0001
1000
0000
,
0001
0010
0100
0010
,
0001
1000
0001
0000
,
0100
0010
1000
0010
,
0100
0010
1000
0000
,
0001
0010
0100
1000
,
0001
0000
0000
1000
0000
0000
0001
0000
0000
0000
0000
0000
0000
0000
0000
0000
,
1000
0000
0010
0000
0100
0010
0100
0000
,
0010
1000
0010
0100
0000
0000
0001
0000
,
0100
0000
0001
0000
0010
0001
0010
0000
,
0001
0010
0001
0100
0000
0000
0010
0000
,
1000
0000
0100
0000
1000
0010
1000
0000
,
0010
0100
0001
0100
0000
0000
0010
0000
,
1010
0000
0000
0000
1001
0000
0000
0001
,
0000
1000
0000
0000
0001
1000
0001
0000
,
1000
0000
0010
0000
0100
0010
1000
0000
,
0100
0000
0010
0000
0001
1000
0001
0000
,
0100
0010
1000
0100
,
0010
0001
1000
0010
,
0100
0000
0001
0000
0010
0001
0100
0000
,
0010
0000
1000
0000
0100
0010
0001
0000
,
1000
0010
0100
0010
,
1000
0000
0000
0001
0000
0000
0100
0000
0000
0000
0000
0000
0000
0000
0000
0000
,
0001
0000
0000
0001
0010
0000
0000
0000
0100
0000
0000
0000
1000
0000
0000
0000
,
0010
0100
0010
1000
,
0010
0000
0000
0010
1000
0000
0000
0000
0001
0000
0000
0000
0100
0000
0000
0000
,
0010
0100
0001
1000
,
0001
0000
0000
0001
0010
0000
0000
0000
0100
0000
0000
0000
1000
0000
0000
0000
,
0010
0100
0010
1000
,
0010
0000
0000
0010
0100
0000
0000
0000
0001
0000
0000
0000
1000
0000
0000
0000
,
0001
0000
0000
0010
0000
0000
0100
0000
0000
0000
0000
0000
1000
0000
0000
0000
,
0001
0100
0010
0000
0100
0000
0010
0000
,
0100
0001
1000
0000
0010
0000
1000
0000
,
0010
0100
0001
0000
0100
0000
0001
0000
,
0100
0010
1000
0000
0100
0000
1000
0000
,
0010
0100
0001
0000
0100
0000
0010
0000
,
0100
0001
1000
0000
0010
0000
0100
0000
,
0010
1000
0001
0000
1000
0000
0100
0000
,
1000
0000
0000
0001
0000
0000
1000
0000
0000
0000
0000
0000
0000
0000
0000
0000
,
0001
0000
0100
0000
0010
0100
0001
0000
,
1000
0000
0100
0000
0010
0100
1000
0000
,
0010
0100
0010
1000
,
0001
0010
0001
1000
,
0010
0000
0100
0000
0001
0100
0010
0000
,
1000
0000
0100
0000
0010
0100
1000
0000
,
0010
0000
0000
0100
0000
0000
0000
0000
0100
0000
0000
0010
0000
0000
0000
0000
,
1000
0000
0001
0000
1000
0001
1000
0000
,
0001
0010
0100
0010
0001
0100
0010
0100
,
0001
0001
0100
0100
0001
0001
0100
0001
,
1000
0100
0010
0100
1000
0010
0100
0010
,
1000
1000
0010
0010
1000
1000
0020
0030
,
1000
0100
2000
0000
,
3010
0000
0100
0000
0001
0100
0000
0000
,
0001
0010
0200
0000
,
0310
0001
0100
0000
,
0001
1000
0020
0000
,
0130
0000
0001
0000
1000
0100
0000
0000
,
1000
0001
0200
0000
,
0310
1000
0001
0000
,
1000
0100
0020
0000
,
0031
0000
0100
0000
0001
0010
0000
0000
,
0100
1000
0200
0000
,
0310
0100
1000
0000
,
0001
0100
0020
0000
,
0130
0000
0001
0000
1000
0100
0000
0000
,
1000
0010
0200
0000
,
0301
0000
0000
1000
0000
0000
0001
0000
1000
0000
0000
0000
0001
0000
0000
0000
,
1000
0000
0100
0000
0010
0001
0010
0000
,
0001
0000
0100
0000
0010
1000
0010
0000
,
0100
0001
1000
0100
,
0010
0001
1000
0010
,
0100
0000
0001
0000
0100
0001
0100
0000
,
0010
0000
1000
0000
0100
0010
0001
0000
,
1000
0010
0100
0001
,
1000
0000
0000
0001
0000
0000
1000
0000
0002
0000
0000
0000
1003
0000
0000
0000
;
