#TITLE:Riot of Color;
#SUBTITLE:;
#ARTIST:TAG;
#TITLETRANSLIT:;
#SUBTITLETRANSLIT:;
#ARTISTTRANSLIT:;
#GENRE:;
#CREDIT:;
#BANNER:[ROUND 7] - Riot of Color.png;
#BACKGROUND:[ROUND 7] - Riot of Color-bg.png;
#LYRICSPATH:;
#CDTITLE:;
#MUSIC:[ROUND 7] - Riot of Color.ogg;
#OFFSET:-1.351;
#SAMPLESTART:14.150;
#SAMPLELENGTH:25.597;
#SELECTABLE:YES;
#BPMS:0.000=150.020
;
#STOPS:
;
#BGCHANGES:;
#KEYSOUNDS:;
#ATTACKS:;

//---------------dance-single - ----------------
#NOTES:
     dance-single:
     :
     Hard:
     10:
     0.911,1.000,0.307,0.388,1.000,630.000,34.000,43.000,0.000,0.000,0.000,0.911,1.000,0.307,0.388,1.000,630.000,34.000,43.000,0.000,0.000,0.000: // measure 0
0000
0000
0000
0000
,  // measure 1
0000
0000
0000
0000
,  // measure 2
0000
0000
0000
1100
0000
0000
0000
0000
0000
0101
0000
0000
0000
0000
0000
1010
,  // measure 3
0000
0000
0000
0000
0000
0011
0000
0000
1000
0001
1000
0001
0010
0000
0100
0010
,  // measure 4
0100
1000
0001
1000
0000
0000
0010
0100
0001
0100
0000
0000
0010
1000
0001
1000
,  // measure 5
0000
0000
0100
0010
0001
0010
0000
0000
0100
0010
0100
0010
0001
0000
1000
0001
,  // measure 6
0100
0001
1000
0001
0000
0000
0010
0100
1000
0100
0000
0000
0010
0001
1000
0001
,  // measure 7
0100
0000
0000
0000
0010
0000
1000
0000
0001
0000
0100
0000
0010
0000
0000
0000
0110
0000
0000
0000
0000
0000
1000
0001
1000
0000
0000
0000
0010
0000
0100
0000
,  // measure 8
0002
0000
0000
2003
0000
0000
3200
0000
0000
0000
0310
0000
0110
0000
0100
0000
,  // measure 9
1000
0000
0001
0100
0010
0001
0000
0010
0000
1000
0001
0000
1000
0000
0010
0000
,  // measure 10
2000
0000
0000
3002
0000
0000
0203
0000
0000
0000
0310
0000
0110
0000
1000
0000
,  // measure 11
0001
0000
1000
0100
0000
1000
0010
1000
0100
1000
0000
0001
1000
0000
0100
0010
,  // measure 12
0002
0000
0000
2003
0000
0000
3020
0000
0000
0000
0130
0000
0110
0000
0010
0000
,  // measure 13
1000
0000
0001
0010
0100
0001
0000
0100
0000
1000
0001
0000
1000
0000
0100
0000
,  // measure 14
0020
0000
0000
0032
0000
0003
2000
0000
0000
0000
3010
0000
0110
0000
0000
0000
,  // measure 15
0001
0100
0001
0000
1000
0001
0000
0100
0001
1000
0000
0001
0100
0001
1000
0100
,  // measure 16
0010
0000
0001
1000
0000
0100
0000
0001
0000
0100
0010
0100
1000
0001
1000
0100
,  // measure 17
0010
0000
0001
1000
0000
0010
0000
0200
0000
0000
0301
0000
0101
0000
1000
0100
,  // measure 18
2000
0000
0000
0000
3000
0000
0001
1000
0100
1000
0100
1000
0001
0100
0001
0100
,  // measure 19
0020
0000
0000
2030
0000
0000
3001
0000
0100
0001
0100
0001
1000
0000
1000
0000
,  // measure 20
0010
0000
1000
0001
0000
0100
0000
1000
0000
0100
0010
0100
0001
1000
0001
0010
,  // measure 21
0100
0000
1000
0001
0000
0010
0000
0200
0000
0000
1300
0000
1100
0000
0001
0100
,  // measure 22
0020
0000
0000
0000
0030
0000
1000
0001
0100
0001
0100
0001
1000
0100
1000
0100
,  // measure 23
0020
0000
0000
0032
0000
0000
0013
0100
2000
0000
0000
0000
3001
0000
0000
0000
,  // measure 24
1000
0001
1000
0010
0000
0100
0001
1000
0001
0010
0000
0100
1000
0001
1000
0010
,  // measure 25
0100
0010
1000
0001
0000
0010
0001
1000
0010
0100
0000
0001
0010
0100
1000
0001
,  // measure 26
0100
0001
0100
0010
0000
1000
0001
1000
0100
0010
0000
0001
1000
0001
0100
0010
,  // measure 27
1000
0010
0100
0001
0000
1000
0001
1000
0100
0010
0000
0100
0001
0100
0010
0001
,  // measure 28
1000
0100
1000
0010
0000
0100
0001
0010
0001
1000
0000
0010
1000
0100
0010
0001
,  // measure 29
1000
0010
0100
0001
0000
1000
0100
0010
0001
1000
0000
0010
0001
0010
0100
0010
,  // measure 30
1000
0001
1000
0010
0000
0100
0001
1000
0001
0100
0001
0010
0000
0100
1000
0001
,  // measure 31
0100
0000
1001
0000
0000
1100
0000
0000
1000
0001
0100
0001
1000
0100
0010
0001
,  // measure 32
2000
0000
0001
0000
3100
1000
0001
1000
,  // measure 33
0020
0000
0100
0030
1010
0000
1000
0000
,  // measure 34
0012
0000
1003
0002
0100
0000
0103
0010
,  // measure 35
1020
0000
0000
0000
0130
0000
0010
0100
1000
0000
0000
0000
0110
0000
0000
0000
,  // measure 36
1002
0000
1000
0000
0013
0001
1000
0001
,  // measure 37
0200
0000
0000
0000
0310
0000
0100
0010
1000
0000
0000
0000
0001
0000
0000
0000
,  // measure 38
2100
0000
3001
0100
0002
0000
1003
0100
,  // measure 39
0010
0100
1000
0001
0000
1000
0010
0100
0020
0000
0000
0000
0030
0000
0000
0000
,  // measure 40
0110
0000
0000
0001
0000
0000
1000
0000
1001
0000
0000
0000
0001
0000
1000
0000
,  // measure 41
0001
0000
1000
0100
0010
1000
0000
0010
0000
0001
1000
0000
0001
0000
0010
0000
,  // measure 42
0002
0000
0000
2003
0000
0000
3020
0000
0100
0000
0030
0000
0110
0000
0000
0000
,  // measure 43
0001
0000
1000
0001
1000
0010
1000
0010
0100
0010
0100
0010
0100
0001
1000
0100
,  // measure 44
0010
0000
0000
0001
0000
0000
1000
0000
1001
0000
0000
0000
1000
0000
0100
0000
,  // measure 45
1000
0000
0001
0100
0010
0001
0000
0010
0000
1000
0001
0000
1000
0000
0100
0000
,  // measure 46
0012
0000
0003
0000
0001
0010
0100
1000
,  // measure 47
0001
1000
0001
0100
0000
0000
0010
0000
1010
0000
0000
1000
0001
0010
0001
1000
,  // measure 48
0010
0000
0100
0010
0000
0100
0001
0000
1000
0000
0001
0000
0100
0000
0001
0100
,  // measure 49
1000
0000
0000
0000
0000
0000
0100
0000
0000
0000
0000
0000
0001
0000
0000
0000
0000
0000
1000
0000
0001
0000
1000
0000
0100
0000
0000
0000
0000
0000
0100
0000
0000
0010
0000
0000
0000
0000
0000
0010
0000
0000
0001
0000
0000
0000
0000
0000
,  // measure 50
2000
0000
3001
0010
0100
1000
0001
1000
0010
0000
0100
0001
1000
0001
0010
0100
,  // measure 51
1000
0000
0001
1000
0010
1000
0001
1000
0100
0010
0000
0100
1000
0001
0100
0010
,  // measure 52
1000
0000
0000
0101
0000
0000
1010
0000
0000
0000
0001
0000
1001
0000
1000
0000
,  // measure 53
0100
0010
0011
0001
1000
0010
0110
0100
,  // measure 54
2000
0000
0000
3200
0000
0000
0302
0000
0000
0000
1003
0000
0011
0000
0011
0000
,  // measure 55
0010
0000
0000
0020
0000
0000
0130
0000
2000
0000
0000
0000
3010
0000
1000
0001
,  // measure 56
0100
0001
1000
0001
0000
0000
0010
0100
1000
0100
0000
0000
0010
0001
1000
0001
,  // measure 57
0000
0000
0100
0010
1000
0010
0000
0000
0100
0010
0100
0010
1000
0000
0001
1000
,  // measure 58
0100
1000
0001
1000
0100
0000
0010
0001
1000
0100
0010
0000
0001
1000
0100
0010
,  // measure 59
0001
0000
1000
0001
1000
0100
0010
0000
0011
0000
0000
1000
0001
0100
0001
0100
,  // measure 60
0010
1000
0010
0100
0000
0000
0001
1000
0100
0010
0000
0000
0100
1000
0001
0100
,  // measure 61
0000
0000
0010
0100
0001
1000
0000
0000
0100
0010
0100
1000
0001
1000
0100
0010
,  // measure 62
0001
1000
0001
1000
0001
1000
0001
1000
0001
1000
0001
1000
0001
1000
0001
1000
0001
1000
0001
1000
0001
1000
0001
1000
,  // measure 63
0001
1000
0001
1000
0001
1000
0001
1000
0001
1000
0001
1000
0001
1000
0001
1000
0001
1000
0001
1000
0001
1000
0001
1000
,  // measure 64
0001
0000
0000
0100
0000
0000
0220
0000
0000
0000
0000
0000
0000
0000
0000
0000
,  // measure 65
0000
0000
0000
0000
,  // measure 66
0330
0000
0000
0000
;

//---------------dance-single - ----------------
#NOTES:
     dance-single:
     :
     Medium:
     8:
     0.579,0.595,0.298,0.271,0.442,386.000,33.000,30.000,0.000,0.000,0.000,0.579,0.595,0.298,0.271,0.442,386.000,33.000,30.000,0.000,0.000,0.000: // measure 0
0000
0000
0000
0000
,  // measure 1
0000
0000
0000
0000
,  // measure 2
0000
0000
0000
0000
,  // measure 3
0000
0000
0000
0000
,  // measure 4
1000
0010
0000
0100
0000
0000
0001
0010
0000
0100
0000
0000
1000
0001
0000
0100
,  // measure 5
0000
0000
0001
0010
0000
0100
0000
0000
1000
0000
0100
0000
0001
0000
0100
0000
,  // measure 6
1000
0001
0000
0100
0000
0000
0010
1000
0000
0100
0000
0000
0010
0001
0000
1000
,  // measure 7
0010
0000
0100
0001
0000
0100
0010
0000
1000
0000
0000
0000
0001
0000
1000
0000
,  // measure 8
0200
0000
0000
0320
0000
0000
0032
0000
0000
0000
1003
0000
0001
0000
1000
0000
,  // measure 9
0010
0000
0000
1010
0000
0000
0110
0000
0000
0000
0001
0000
0100
0000
0010
0000
,  // measure 10
2000
0000
0000
3020
0000
0000
0230
0000
0000
0000
0301
0000
0100
0000
0001
0000
,  // measure 11
1000
0000
1100
0000
0000
1001
0000
0000
0100
0001
0000
0000
1000
0000
0001
0000
,  // measure 12
0200
0000
0000
0320
0000
0000
2030
0000
0000
0000
3001
0000
1000
0000
0001
0000
,  // measure 13
0100
0000
0000
0101
0000
0000
0110
0000
0000
0000
1000
0000
0001
0000
1000
0000
,  // measure 14
0200
0000
0000
0320
0000
0000
0032
0000
0000
0000
1003
0000
1001
0000
0000
0000
,  // measure 15
1000
0000
0010
0000
0100
0001
0000
0000
1000
0000
0001
0000
0100
0000
0010
0000
,  // measure 16
1000
0000
0000
0001
0000
0010
0000
0100
0000
0000
0010
0000
0001
0000
1000
0000
,  // measure 17
0010
0000
0000
1000
0000
0010
0000
0200
0000
0000
0000
0000
0301
0000
0100
0000
,  // measure 18
1000
0000
0100
0001
1000
0100
0001
0100
,  // measure 19
1000
0000
0001
0100
0100
0000
0001
1000
,  // measure 20
0001
0000
0000
1000
0000
0010
0000
0100
0000
0000
0010
0000
1000
0000
0100
0000
,  // measure 21
0001
0000
0000
0100
0000
0010
0000
0001
0000
0000
1000
0000
0001
0000
0010
0000
,  // measure 22
1000
0000
0010
0001
1000
0010
0001
0010
,  // measure 23
0100
0000
0000
0001
0000
0000
0100
0010
0100
0000
0000
0000
0001
0000
0000
0000
,  // measure 24
1000
0000
0000
0001
0000
0000
1000
0000
0000
0100
0000
0000
1000
0001
1000
0100
,  // measure 25
1000
0000
0000
0001
0000
0000
1000
0000
0000
0000
1000
0000
0010
0000
0100
0000
,  // measure 26
0001
0000
0000
1000
0000
0000
0001
0000
0000
0100
0000
0000
0001
1000
0001
0100
,  // measure 27
0001
0000
0000
1000
0000
0000
0001
0000
0000
0000
0010
0000
1000
0000
0010
0000
,  // measure 28
0100
0000
0000
0010
0000
0000
0100
0000
0000
1000
0000
0000
0100
1000
0100
1000
,  // measure 29
0001
0000
0000
0100
0000
0000
0010
0000
0000
0000
0100
0000
1000
0000
0100
0000
,  // measure 30
0001
0000
0000
0100
0000
0000
0001
0000
1000
0000
0100
0000
0000
0000
1000
0000
,  // measure 31
0001
0000
0000
0000
0000
0000
0011
0000
0000
0000
0000
0000
0000
0000
0000
1001
0000
0000
0000
0000
0000
0000
0000
0000
0110
0000
0000
0000
0000
0000
0000
0000
0000
0000
0000
0000
1000
0000
0000
0000
0010
0000
0000
0000
0100
0000
0000
0000
,  // measure 32
0002
0000
0000
0000
1003
0001
0000
0001
,  // measure 33
0020
0000
0130
1000
,  // measure 34
2100
0000
3000
1000
0001
0000
0100
0000
,  // measure 35
0120
1000
0230
0301
,  // measure 36
2001
0000
0000
0000
3001
1000
0000
1000
,  // measure 37
0020
0000
0130
0001
,  // measure 38
0021
0000
0030
0010
0100
0000
1000
0001
,  // measure 39
0200
0000
0000
0010
0020
0000
0330
0000
,  // measure 40
1001
0000
0000
0001
0000
0000
0101
0000
0000
0000
0000
0000
0100
0000
0000
0000
,  // measure 41
0010
0000
1000
0000
0001
0000
1000
0100
0000
0000
0000
0000
0100
0000
0010
0000
,  // measure 42
0001
0000
0000
1000
0000
0000
1100
0000
0000
0000
0000
0000
0100
0000
0000
0000
,  // measure 43
0010
0001
1000
0001
0100
0000
0110
0000
,  // measure 44
1010
0000
0000
1000
0000
0000
1001
0000
0000
0000
0000
0000
0001
0000
0000
0000
,  // measure 45
0010
0000
0001
0000
1000
0000
0001
0100
0001
0000
0000
0000
0000
0000
0000
0000
,  // measure 46
1000
0000
0000
0010
0000
0000
0100
0000
1000
0000
0100
0000
0010
0000
0100
0000
,  // measure 47
0001
0000
1000
0001
0000
1000
0100
0000
0010
0000
0000
0000
0100
0000
0000
0000
,  // measure 48
0011
0000
0000
1000
0000
0000
1100
0000
1000
0000
0001
0000
1000
0000
0100
0000
,  // measure 49
0010
0001
1000
0010
0100
0010
1000
0001
,  // measure 50
0100
0010
0100
0010
0100
0001
0100
0001
,  // measure 51
1000
0100
1000
0100
0010
0000
0001
1000
,  // measure 52
1010
0000
0000
0001
0000
0000
0101
0000
0000
0000
1000
0000
0001
0000
0100
0000
,  // measure 53
0010
0100
1000
0100
0001
1000
0100
0010
,  // measure 54
0002
0000
0000
2003
0000
0000
3020
0000
0130
0000
0010
0000
0110
0000
0110
0000
,  // measure 55
2002
0000
3003
1001
,  // measure 56
0001
0010
0000
0100
0000
0000
1000
0010
0000
0100
0000
0000
0001
1000
0000
0100
,  // measure 57
0000
0000
1000
0010
0000
0100
0000
0000
0001
0000
0100
0000
1000
0000
0100
0000
,  // measure 58
0001
1000
0000
1000
0100
0000
0010
0001
0000
0001
1000
0000
0010
1000
0000
0010
,  // measure 59
0100
0000
0001
0100
0000
0001
1000
0000
0001
0000
0010
0000
1000
0000
0010
0000
,  // measure 60
0001
0000
0000
1010
0000
0000
1000
0000
0000
0101
0000
0000
0010
0000
0000
1100
,  // measure 61
0000
0000
0001
0000
0000
0011
0000
0000
1000
0000
0001
0000
0010
0000
0100
0000
,  // measure 62
1000
0001
0000
0100
0000
0000
0010
1000
0000
0100
0000
0000
0010
0001
0000
0100
,  // measure 63
0000
0000
0010
1000
0000
0100
0000
0000
1000
0000
0010
0000
0100
0000
0001
0000
,  // measure 64
1000
0000
0000
0001
0000
0000
0220
0000
0000
0000
0000
0000
0000
0000
0000
0000
,  // measure 65
0000
0000
0000
0000
,  // measure 66
0330
0000
0000
0000
;

//---------------dance-single - ----------------
#NOTES:
     dance-single:
     :
     Easy:
     6:
     0.476,0.476,0.180,0.343,0.180,311.000,20.000,38.000,0.000,0.000,0.000,0.476,0.476,0.180,0.343,0.180,311.000,20.000,38.000,0.000,0.000,0.000: // measure 0
0000
0000
0000
0000
,  // measure 1
0000
0000
0000
0000
,  // measure 2
0000
0000
0000
0000
,  // measure 3
0000
0000
0000
0000
,  // measure 4
0001
0000
0000
0100
0000
0000
0010
0000
0000
0100
0000
0000
0001
0000
0000
0100
,  // measure 5
0000
0000
0010
0000
0000
0100
0000
0000
0001
0000
0010
0000
0100
0000
1000
0000
,  // measure 6
0001
0000
0000
0010
0000
0000
0100
0000
0000
0010
0000
0000
0001
0000
0000
0000
,  // measure 7
1000
0000
0010
0000
0100
0001
0100
0010
,  // measure 8
2000
0000
0000
3020
0000
0000
0230
0000
0000
0000
0000
0000
0301
0000
0000
0000
,  // measure 9
0101
0000
0000
1000
0000
0000
0100
0000
0000
0000
0000
0000
0100
0000
0010
0000
,  // measure 10
0002
0000
0000
0023
0000
0000
0230
0000
0000
0000
0000
0000
0300
0000
0000
0000
,  // measure 11
1000
0000
0001
0000
0000
1001
0000
0000
0101
0000
0000
0000
0100
0000
0010
0000
,  // measure 12
2000
0000
0000
3020
0000
0000
0230
0000
0000
0000
0000
0000
0301
0000
0000
0000
,  // measure 13
0101
0000
0000
1000
0000
0000
0100
0000
0000
0000
0000
0000
0100
0000
0010
0000
,  // measure 14
0002
0000
0000
2003
0000
0000
3020
0000
0000
0000
0000
0000
0030
0000
0000
0000
,  // measure 15
1000
0000
0001
0000
0000
0010
0000
0000
0110
0000
0000
0000
1100
0000
0000
0000
,  // measure 16
0001
0000
1000
0001
0100
0000
0001
0100
,  // measure 17
0010
1000
0100
0010
,  // measure 18
0001
0000
1000
0001
1000
1000
0100
0010
,  // measure 19
0001
1000
0010
0000
,  // measure 20
1000
0000
0001
1000
0100
0000
1000
0010
,  // measure 21
0001
0010
0100
0010
,  // measure 22
1000
0000
0001
1000
0001
0001
0100
0010
,  // measure 23
1000
0001
0010
0000
,  // measure 24
0100
0010
0100
1000
0100
0010
0100
0000
,  // measure 25
1000
0001
1000
0010
1000
0001
0100
0000
,  // measure 26
0010
1000
0010
0100
0010
1000
0010
0000
,  // measure 27
0100
0001
1000
0001
0100
0001
0010
0100
,  // measure 28
1000
0001
1000
0001
1000
0001
1000
0000
,  // measure 29
0001
0100
0001
0100
0001
0100
0010
0000
,  // measure 30
1000
0010
1000
0010
0100
0001
0100
0001
,  // measure 31
1000
0000
0001
0000
0000
1001
0000
0000
1100
0000
0000
0000
0100
0000
0010
0000
,  // measure 32
0002
0000
0000
0000
0000
1000
0003
0001
,  // measure 33
0020
0000
0230
0000
,  // measure 34
2300
0000
0000
0010
0020
0000
3030
0000
,  // measure 35
0002
0000
2003
0000
3020
0000
0100
0030
,  // measure 36
2001
0000
0000
0000
0000
0001
3000
1000
,  // measure 37
1200
0000
0000
0000
0320
0000
0001
0030
,  // measure 38
1002
0000
0000
0100
0203
0000
0000
0001
,  // measure 39
0320
0000
0000
0100
2000
0000
3030
0000
,  // measure 40
0010
0000
0000
0100
0000
0000
0001
0000
0000
0000
0000
0000
1000
0000
0000
0000
,  // measure 41
0001
1000
0100
0000
0010
0001
1000
0000
,  // measure 42
0001
0000
0000
0010
0000
0000
0100
0000
0000
0000
0000
0000
1000
0000
0000
0000
,  // measure 43
0001
0100
0010
0100
0001
0000
1000
0001
,  // measure 44
0010
0000
0000
0100
0000
0000
1000
0000
0000
0000
0000
0000
0001
0000
0000
0000
,  // measure 45
1000
0010
0100
0000
0001
1000
0001
1000
,  // measure 46
0200
0000
0000
0000
,  // measure 47
0310
0000
1001
0100
,  // measure 48
0210
0000
0000
0010
0000
0000
0020
0000
0000
0000
0000
0000
0330
0000
1000
0000
,  // measure 49
0001
0000
0100
0000
0001
0000
0100
0000
0010
0000
0000
0100
0000
0000
0001
0000
,  // measure 50
1000
0100
0010
0100
1000
0100
0010
0000
,  // measure 51
0001
0010
0100
0010
0001
0000
1000
0010
,  // measure 52
0100
0000
0000
0110
0000
0000
2002
0000
0000
0000
0000
0000
3003
0000
1000
0000
,  // measure 53
0010
0100
0001
1000
0100
0010
0001
0000
,  // measure 54
2000
0000
0000
0100
0000
0000
0002
0000
3000
0000
1003
0000
0001
0000
1000
0000
,  // measure 55
0010
0000
0000
0020
0000
0000
0130
0000
0002
0000
0000
0000
1003
0000
0000
0000
,  // measure 56
0001
0000
0000
0100
0000
0000
0010
0000
0000
0100
0000
0000
0001
0000
0000
0100
,  // measure 57
0000
0000
0010
0000
0000
0100
0000
0000
0001
0000
0001
0000
0010
0000
0100
0000
,  // measure 58
1000
0000
0000
0100
0000
0000
0010
0000
0000
0100
0000
0000
1000
0000
0000
0100
,  // measure 59
0000
0000
0010
0000
0000
0100
0000
0000
1000
0000
0001
0000
0100
0000
0100
0000
,  // measure 60
0010
0000
0000
1010
0000
0000
0000
0000
0000
0110
0000
0000
0000
0000
0000
0101
,  // measure 61
0000
0000
0000
0000
0000
1001
0000
0000
0001
0000
1000
0000
0001
0000
1000
0000
,  // measure 62
0100
0000
0000
0010
0000
0000
0100
0000
0000
1000
0000
0000
0001
0000
0000
1000
,  // measure 63
0000
0000
0010
0000
0000
0100
0000
0000
1000
0000
0100
0000
0010
0000
1000
0000
,  // measure 64
0001
0000
0000
1000
0000
0000
0220
0000
0000
0000
0000
0000
0000
0000
0000
0000
,  // measure 65
0000
0000
0000
0000
,  // measure 66
0330
0000
0000
0000
;

//---------------dance-single - ----------------
#NOTES:
     dance-single:
     :
     Beginner:
     2:
     0.093,0.238,0.045,0.018,0.005,65.000,5.000,2.000,0.000,0.000,0.000,0.093,0.238,0.045,0.018,0.005,65.000,5.000,2.000,0.000,0.000,0.000: // measure 0
0000
0000
0000
0000
,  // measure 1
0000
0000
0000
0000
,  // measure 2
0000
0000
0000
0000
,  // measure 3
0000
0000
0000
0000
,  // measure 4
1000
0000
0000
0000
,  // measure 5
0000
0000
0000
0000
,  // measure 6
0001
0000
0000
0000
,  // measure 7
0000
0000
0000
0000
,  // measure 8
0100
0000
0000
0000
,  // measure 9
0100
0000
0000
0000
,  // measure 10
0010
0000
0000
0000
,  // measure 11
0000
0000
0000
0000
,  // measure 12
0100
0000
0000
0000
,  // measure 13
0100
0000
0000
0000
,  // measure 14
0010
0000
0000
0000
,  // measure 15
0000
0000
0000
0000
,  // measure 16
0001
0000
0000
0000
,  // measure 17
1000
0000
0000
0000
,  // measure 18
0100
0000
0000
0000
,  // measure 19
0010
0000
0000
0000
,  // measure 20
1000
0000
0000
0000
,  // measure 21
0001
0000
0000
0000
,  // measure 22
0100
0000
0000
0000
,  // measure 23
0010
0000
0000
0000
,  // measure 24
1000
0000
1000
0000
,  // measure 25
1000
0000
0000
0000
,  // measure 26
0001
0000
0001
0000
,  // measure 27
0001
0000
0000
0000
,  // measure 28
0010
0000
0010
0000
,  // measure 29
0010
0000
0000
0000
,  // measure 30
0100
0000
0100
0000
,  // measure 31
0100
0000
0000
0000
,  // measure 32
1000
0000
0000
0000
,  // measure 33
0001
0000
0000
0000
,  // measure 34
0100
0000
0000
0000
,  // measure 35
0010
0000
0000
0000
,  // measure 36
1000
0000
0000
0000
,  // measure 37
0010
0000
0000
0000
,  // measure 38
0100
0000
0000
0000
,  // measure 39
0001
0000
0000
0000
,  // measure 40
1000
0000
0000
0000
,  // measure 41
0000
0000
0000
0000
,  // measure 42
1001
0000
0000
0000
,  // measure 43
0000
0000
0000
0000
,  // measure 44
0001
0000
0000
0000
,  // measure 45
0000
0000
0000
0000
,  // measure 46
1001
0000
0000
0000
,  // measure 47
0100
0000
0000
0000
,  // measure 48
0110
0000
0000
0000
,  // measure 49
0000
0000
0000
0000
,  // measure 50
0001
0000
0000
0000
,  // measure 51
1000
0000
0000
0000
,  // measure 52
0110
0000
0000
0000
,  // measure 53
0000
0000
0000
0000
,  // measure 54
1000
0000
0000
0000
,  // measure 55
0001
0000
0000
0000
,  // measure 56
0100
0000
0000
0000
,  // measure 57
0000
0000
0000
0000
,  // measure 58
0100
0000
0000
0000
,  // measure 59
0100
0000
0000
0000
,  // measure 60
0100
0000
0100
0000
,  // measure 61
0100
0000
0100
0000
,  // measure 62
0100
0100
0100
0100
,  // measure 63
0100
0100
0100
0100
,  // measure 64
0001
0000
0000
1000
0000
0000
0220
0000
0000
0000
0000
0000
0000
0000
0000
0000
,  // measure 65
0000
0000
0000
0000
,  // measure 66
0330
0000
0000
0000
;
