#TITLE:Remix 6;
#SUBTITLE:;
#ARTIST:Rhythm Heaven Fever;
#TITLETRANSLIT:;
#SUBTITLETRANSLIT:;
#ARTISTTRANSLIT:;
#GENRE:;
#CREDIT:;
#BANNER:[ROUND 7] - Remix 6.png;
#BACKGROUND:[ROUND 7] - Remix 6-bg.png;
#LYRICSPATH:;
#CDTITLE:cdtitle.png;
#MUSIC:[ROUND 7] - Remix 6.ogg;
#OFFSET:-0.415;
#SAMPLESTART:39.125;
#SAMPLELENGTH:12.000;
#SELECTABLE:YES;
#BPMS:0.000=155.000
;
#STOPS:140.000=1.162
;
#BGCHANGES:;
#KEYSOUNDS:;
#ATTACKS:;

//---------------dance-single - ----------------
#NOTES:
     dance-single:
     :
     Medium:
     6:
     0.359,0.373,0.123,0.088,0.189,262.000,14.000,10.000,0.000,0.000,0.000,0.359,0.373,0.123,0.088,0.189,262.000,14.000,10.000,0.000,0.000,0.000:
0000
0000
0000
0000
,
0000
0000
0000
0000
,
0000
0000
0000
0000
,
0000
0000
0000
0000
,
0001
0000
0000
1000
0000
0000
0010
0000
1000
0100
0000
0000
,
1000
0000
0000
0001
0000
0000
0100
0000
0010
0000
0000
0000
,
0100
0001
0010
1000
,
0010
0100
0110
0000
,
1000
0000
1000
0000
0000
0000
0001
0000
0001
0000
0000
0000
,
0100
0000
0100
0000
0000
0000
0010
0000
0010
0000
0000
0000
,
0100
0001
1000
0100
,
0020
0000
0000
0030
,
0001
0000
0000
0100
0000
0000
0001
0000
1000
0100
0000
0000
,
1000
0010
0001
0010
,
0001
0010
1000
0001
,
0010
0100
0110
0000
,
0010
0000
0010
0000
0000
0000
0001
0000
0001
0000
0000
0000
,
1000
0000
1000
0000
0000
0000
0010
0000
0010
0000
0000
0000
,
1000
0100
0010
0001
,
2000
0000
0000
3000
,
0001
0000
0100
0010
0100
0000
0010
0000
,
1000
0000
0001
0010
0001
0000
0100
0000
,
0010
1000
0001
1000
,
0100
0010
0001
0000
1000
0100
0010
0000
,
0001
0000
0100
0000
0001
1000
0001
0000
,
1000
0000
0100
0000
1000
0001
1000
0000
,
1001
0000
0110
0000
,
1001
0000
1000
0100
,
1000
0000
0000
0010
0000
0000
0100
0000
0001
0010
0000
0001
,
1000
0010
1000
0000
,
0001
0100
0001
0010
,
0100
0000
1100
0000
,
1000
0000
1000
0000
0000
0000
0010
0000
0010
0000
0000
0000
,
0100
0000
0100
0000
0000
0000
0001
0000
0001
0000
0000
0000
,
0010
0100
0010
0000
,
0110
0000
0000
0100
0000
0000
1000
0000
0000
0001
0000
0100
,
0010
0000
0000
0100
0000
0000
0001
0000
0000
1000
0000
0100
,
1000
0010
0001
0010
,
0100
0001
1000
1001
,
0000
0000
0000
1000
0000
1000
0000
0000
0000
0100
0000
0100
,
0000
0000
0000
0001
0000
0001
0000
0000
0000
0010
0000
0010
,
0000
1000
0100
0010
,
0001
2000
0000
0000
,
3000
0000
0000
0001
0000
1000
0100
0000
0000
1000
0000
0001
,
0100
0000
0000
0001
0000
1000
0010
0000
0000
1000
0000
0001
,
0010
0001
0100
0101
,
0000
0001
1000
1001
,
0000
0000
0000
1000
0000
1000
0100
0000
0000
0100
0000
0100
,
1000
0000
0000
1000
0000
1000
0010
0000
0000
0010
0000
0010
,
1000
0001
0010
0100
,
0010
0001
1000
1001
,
0000
0000
0000
1000
0000
0010
0100
0000
0000
1000
0000
0001
,
0100
0000
0002
0003
0020
0030
2000
3000
,
0200
0300
0001
0000
0010
0000
0100
0000
,
1000
0010
0100
0110
,
0000
0000
0000
0010
0000
1000
0000
0000
0000
1000
0000
0001
,
0000
1000
1000
0100
,
0100
1000
0010
0100
,
0010
1000
0000
1100
,
0000
0000
1000
0000
0010
0000
1000
0001
,
1000
0200
0000
0300
,
0010
0000
0000
0001
0000
0000
0010
0000
0000
0000
0010
0000
0001
0000
0000
0000
0000
0000
0001
0000
0000
0000
0001
0000
,
1000
0010
1000
0100
,
0010
0000
0001
0100
0001
0000
1000
0010
,
1000
0001
0010
0100
,
1000
0000
0000
0010
0000
0100
0001
0000
0000
0100
0000
0010
,
1000
0001
0010
0100
,
1000
0000
0000
0001
0000
1000
0000
0000
0000
0000
0000
0000
,
0010
0000
1000
0000
0000
0001
0000
0000
2002
0000
0000
0000
,
0000
0000
0000
0000
,
0000
0000
0000
3003
;

//---------------dance-single - ----------------
#NOTES:
     dance-single:
     :
     Easy:
     4:
     0.264,0.249,0.228,0.079,0.004,175.000,26.000,9.000,0.000,0.000,0.000,0.264,0.249,0.228,0.079,0.004,175.000,26.000,9.000,0.000,0.000,0.000:
0000
0000
0000
0000
,
0000
0000
0000
0000
,
0000
0000
0000
0000
,
0000
0000
0000
0000
,
1000
0100
1000
0000
,
0001
0100
0001
0010
,
1000
0010
0001
0100
,
0001
0000
1001
0000
,
1000
0000
1100
0000
,
0001
0000
0101
0000
,
0001
0010
0100
1000
,
0002
0000
0000
0003
,
1000
0010
1000
0000
,
0001
0100
0001
0010
,
1000
0010
0001
0100
,
0001
0000
1001
0000
,
1000
0000
1010
0000
,
0001
0000
0011
0000
,
0001
0100
0010
1000
,
0002
0000
0000
0003
,
1000
0100
0010
0100
,
1000
0010
0100
0010
,
1000
0001
0010
0100
,
0010
0001
0100
0010
,
0100
0001
1000
0001
,
0010
0001
1000
0001
,
1001
0000
0110
0000
,
1001
0000
0110
0000
,
0010
0001
0010
0000
,
0001
0100
0001
1000
,
0100
0010
0001
0000
,
1000
0000
1001
0000
,
0001
0000
0101
0000
,
1000
0000
1100
0000
,
0001
0100
0001
0000
,
1001
1000
0000
0001
,
0000
0100
0010
0100
,
0000
0001
0010
0100
,
1000
0001
0000
1001
,
0000
1000
0000
1010
,
0000
0001
0000
0011
,
0000
0001
0100
0010
,
1000
0002
0000
0000
,
0003
1000
0100
1000
,
0000
0001
0010
0001
,
0000
1000
0000
1010
,
0000
0001
0000
0101
,
0000
0001
0000
0001
,
0000
1000
0000
1000
,
0000
0010
0100
0010
,
0000
0100
0001
0100
,
0000
0001
0000
0001
,
0000
1000
0100
0010
,
0001
1000
0000
1000
,
0000
0010
0000
0010
,
0000
1000
0000
1100
,
0000
1000
0001
1000
,
0001
0100
0000
0010
,
0000
0220
0000
0000
,
0330
0100
0001
0100
,
0001
2000
0000
3000
,
0001
0010
0000
0011
,
0000
0001
0000
0101
,
0000
0001
0010
0001
,
0010
0200
0000
0300
,
1000
0010
0000
1010
,
0000
1000
0000
1001
,
0000
1000
0000
0001
,
0000
0000
0000
1000
0000
0000
0000
0000
2002
0000
0000
0000
,
0000
0000
0000
0000
,
0000
0000
0000
3003
;

//---------------dance-single - ----------------
#NOTES:
     dance-single:
     :
     Beginner:
     2:
     0.143,0.186,0.061,0.061,0.000,100.000,7.000,7.000,0.000,0.000,0.000,0.143,0.186,0.061,0.061,0.000,100.000,7.000,7.000,0.000,0.000,0.000:
0000
0000
0000
0000
,
0000
0000
0000
0000
,
0000
0000
0000
0000
,
0000
0000
0000
0000
,
1000
0000
1000
0000
,
1000
0000
0000
0000
,
0001
0000
0001
0000
,
0001
0000
0000
0000
,
0100
0000
0100
0000
,
0010
0000
0010
0000
,
0100
0000
0000
0000
,
0020
0000
0000
0030
,
1000
0000
1000
0000
,
1000
0000
0000
0000
,
0001
0000
0001
0000
,
0001
0000
0000
0000
,
0010
0000
0010
0000
,
0100
0000
0100
0000
,
0010
0000
0000
0000
,
0200
0000
0000
0300
,
1000
0000
1000
0000
,
0001
0000
0001
0000
,
1001
0000
0000
0000
,
1001
0000
0000
0000
,
0001
0000
0001
0000
,
0100
0000
0100
0000
,
0001
0000
1000
0000
,
2002
0000
3003
0000
,
0001
0000
0001
0000
,
0001
0000
0000
0000
,
1000
0000
1000
0000
,
1000
0000
0001
0000
,
1001
0000
0000
0000
,
0110
0000
0000
0000
,
0010
0000
0100
0000
,
0010
1000
0000
1000
,
0000
1000
0000
0001
,
0000
1000
0000
1000
,
0000
1000
0000
0000
,
0000
0001
0000
0001
,
0000
0100
0000
0100
,
0000
0001
0000
1000
,
0000
0002
0000
0000
,
0003
1000
0000
0000
,
0000
1000
0000
0000
,
0000
0001
0000
0000
,
0000
0001
0000
0000
,
0000
0100
0000
0000
,
0000
0100
0000
0000
,
0000
0010
0000
0010
,
0000
0010
0000
0000
,
0000
1000
0000
1000
,
0000
0100
0000
0100
,
0000
1000
0000
0000
,
0000
0001
0000
0000
,
0000
0001
0000
0001
,
0000
0100
0000
0100
,
0000
0001
0000
0000
,
0000
1001
0000
0000
,
0000
1000
0000
1000
,
0000
1000
0000
0000
,
0000
0001
0000
0001
,
0000
0001
0000
0000
,
0000
1000
0000
1000
,
0000
1000
0000
0000
,
0000
0001
0000
1000
,
0000
0001
0000
1000
,
0000
0001
0000
0000
,
0000
1000
0000
2002
,
0000
0000
0000
0000
,
0000
0000
0000
3003
;

//---------------dance-single - ----------------
#NOTES:
     dance-single:
     :
     Hard:
     8:
     0.481,0.497,0.141,0.369,0.602,325.000,16.000,42.000,0.000,0.000,0.000,0.481,0.497,0.141,0.369,0.602,325.000,16.000,42.000,0.000,0.000,0.000:
0000
0000
0000
0000
,
0000
0000
0000
0000
,
0000
0000
0000
0000
,
0000
0000
0000
0000
,
0001
0000
0000
0101
0000
0000
0001
0000
0001
0010
0000
0001
,
0000
0000
1000
0000
0000
0001
0100
0001
1000
0000
0000
1000
,
0100
0000
0000
1000
0010
0001
0010
0000
0100
0000
0000
0002
,
0000
0000
0000
0003
,
1000
0000
1000
0000
0000
0001
0100
0000
0100
0000
0000
0000
,
0001
0000
0001
0000
0000
1000
0010
0000
0010
0000
0000
0000
,
1000
0000
0000
0100
0000
1000
0010
0000
0100
0000
0000
0020
,
0000
0000
0000
0030
,
1000
0000
0000
1001
0000
0000
1000
0000
1000
0010
0000
0010
,
0100
0000
0001
0000
0000
1000
0000
0000
0100
0001
0000
0100
,
1000
0000
0010
1000
0001
1000
0100
0000
0010
0000
0000
0002
,
0000
0003
2000
3000
,
0001
0000
0001
0000
0000
1000
0010
0000
0010
0000
0000
0000
,
1000
0000
1000
0000
0000
0001
0100
0000
0100
0000
0000
0000
,
0001
0000
0000
1000
0000
0100
1000
0000
0010
0000
0000
0200
,
0000
0000
0000
0300
,
0102
0000
0003
1000
0200
0000
0300
0100
,
2000
0000
3000
1000
0020
0000
0030
0010
,
2000
0100
0001
3100
,
0002
0100
1000
0103
,
2001
0000
3000
0001
0100
0002
0003
0000
,
1002
0000
0003
1000
0010
2000
3000
0000
,
0001
0010
0100
1000
0001
0010
0100
1000
,
0002
0000
0000
0000
0000
0000
0003
0000
0000
1000
0000
0000
0010
0000
0100
0000
0010
0000
0100
0000
0000
0000
0000
0000
,
0010
0000
0000
1000
0000
0000
0100
0000
0100
0010
0000
0100
,
0000
0000
1000
0000
0000
0001
0100
0001
0010
0000
0000
0010
,
0001
0000
0001
1000
0010
0001
0010
0000
0100
0000
0000
0020
,
0000
0000
0030
0000
,
0100
0000
0100
0000
0000
0001
0010
0000
0010
0000
0000
0000
,
0100
0000
0100
0000
0000
1000
0010
0000
0010
0000
0000
0000
,
1000
0000
0000
0001
0000
1000
0100
0010
0001
0000
0000
0000
,
1001
0000
0000
0000
0000
0000
0001
0000
0000
1000
0000
1000
,
0001
0000
0001
0010
0000
0001
0000
0000
0100
0000
0000
0001
,
0010
0000
0001
0100
0000
0010
1000
0100
0001
0100
0000
0010
,
0000
0000
0002
0000
0000
0000
0000
0000
0000
0003
0000
0000
,
0000
0000
0000
0001
0000
0100
0000
0000
0000
0100
0000
0010
,
0000
0000
0000
0010
0000
1000
0000
0000
0000
1000
0000
0001
,
0000
0000
0000
1000
0000
0000
0100
0000
0010
0001
0000
0010
,
0000
0000
0200
0000
0000
0000
0000
0000
0000
0000
0000
0000
,
0300
0000
0000
1000
0000
1000
0010
0000
0010
1000
0000
1000
,
0001
0000
0000
0000
0020
0000
0000
0000
0000
0030
0001
0000
0100
0000
0000
0000
0020
0000
0000
0000
0000
0030
0100
0000
,
0001
0000
0010
0200
0000
0000
1300
0000
0000
0020
0000
0000
,
0031
2000
3010
0002
,
0103
0000
0000
0001
0000
0001
0100
0000
0100
0001
0000
0001
,
1000
0000
0000
0000
0200
0000
0000
0000
0000
0300
1000
0000
0001
0000
0000
0000
0200
0000
0000
0000
0000
0300
0001
0000
,
1000
0000
0010
1000
0000
0100
0000
0010
0000
0001
0000
1000
,
0000
0000
0100
0000
0000
0000
0020
0000
0000
0030
0000
0000
0002
0000
0000
0003
0000
0000
2000
0000
0000
3000
0000
0000
,
0020
0000
0000
0030
0000
0000
1000
0000
0000
0000
1000
0000
0100
0000
0000
0000
0100
0000
0001
0000
0000
0000
0001
0000
,
0020
0030
2000
3000
0200
0300
0020
0030
,
0002
0000
0000
0003
0000
0000
1000
0000
0000
0000
1000
0000
0010
0000
0000
0000
1000
0000
0001
0000
0000
0000
0010
0000
,
0001
0000
0001
1000
0000
1000
0100
0000
1000
0001
0000
1000
,
0010
0000
0010
1000
0000
0200
0300
0000
0000
0001
0000
0020
,
0030
0000
0000
0001
0000
0001
0000
0001
0000
1000
0000
1000
,
0000
1000
0000
0010
0000
0010
1000
0000
0001
0100
0000
0100
,
0001
0000
1000
0001
0000
0000
0011
0000
0000
1100
0000
0000
,
1001
0000
0001
0000
0100
0000
0001
0010
,
1000
0020
0000
0000
0000
0000
0030
0000
,
0100
0000
0000
1000
0000
0000
0100
0000
0000
0000
0000
0000
0010
0000
0000
0000
0010
0000
0001
0000
0000
0000
0000
0000
,
0001
0000
0001
0100
0000
0000
0100
0000
0100
0001
0000
0001
,
1000
0000
0000
0000
1000
0000
0100
0000
0000
0000
0000
0000
1000
0000
0000
0000
0000
0000
0001
0000
0000
0100
0000
0000
,
1000
0100
0020
0000
0000
0000
0030
0000
,
1000
0000
0000
0100
0000
0000
1000
0000
0000
0000
0001
0000
0010
0000
0001
0000
0010
0000
0001
0000
0000
0000
1000
0000
,
0100
1000
0100
1000
0000
0000
1100
0000
0000
0011
0000
0000
,
0101
0000
0000
1000
0000
1010
0000
0000
0000
0000
0000
0000
,
0001
0000
0011
0000
0000
1100
0000
0000
2002
0000
0000
0000
,
0000
0000
0000
0000
,
0000
0000
0000
3003
;

//---------------dance-single - test----------------
#NOTES:
     dance-single:
     :
     Challenge:
     8:
     0.568,0.528,0.290,0.097,0.672,409.000,33.000,11.000,0.000,0.000,0.000,0.568,0.528,0.290,0.097,0.672,409.000,33.000,11.000,0.000,0.000,0.000:
0000
0000
0000
0000
,
0000
0000
0000
0000
,
0000
0000
0000
0000
,
0000
0000
0000
0000
,
1000
0000
0010
0100
0000
0000
1000
0000
0001
0100
0000
0001
,
1000
0000
0001
0000
0000
1000
0100
0010
0100
0000
0000
0010
,
0001
0000
0000
1000
0010
1000
0001
0000
0010
0000
0000
0100
,
0000
0011
1001
0101
,
0001
0000
0001
0100
0000
0000
0001
0000
0001
1000
0000
0000
,
1000
0000
1000
0010
0000
0000
1000
0000
1000
0001
0000
0000
,
1000
0000
0100
1000
0000
0001
1000
0000
0001
0000
0000
0200
,
0000
0000
0000
0300
,
0001
0000
0010
0100
0000
0000
0010
0000
0010
0001
0000
0001
,
1000
0000
0010
0000
0000
1000
0000
0000
0001
0010
0000
1000
,
0010
0000
0100
1000
0100
0010
0001
0000
1000
0000
0000
0010
,
0000
1010
1001
1100
,
1000
0000
1000
0100
0000
0000
1000
0000
1000
0001
0000
0000
,
0001
0000
0001
0100
0000
0000
0001
0000
0001
0010
0000
0010
,
0001
0000
1000
0010
0000
0100
0001
0000
1000
0000
0000
0200
,
0000
0000
0000
0300
,
1000
0010
0100
0010
1000
0001
0100
0001
,
1000
0100
0001
0100
0010
0001
1000
0010
,
0100
0110
1010
1001
,
0001
0100
1000
0100
0001
1000
0100
0010
,
0001
1000
0010
1000
0001
0100
0010
0100
,
0001
1000
0100
0010
0100
1000
0010
0100
,
0001
0000
1000
0100
1000
0000
0001
0100
,
0001
0000
0000
0010
0000
0000
0100
0000
0000
0010
0000
0000
0001
0000
1000
0000
0001
0000
1000
0000
0000
0000
0000
0000
,
0001
0000
0100
0010
0000
0000
0100
0000
0001
1000
0000
0001
,
0010
0000
0100
0000
0000
0010
0001
1000
0001
0000
0000
1000
,
0010
0000
1000
0100
0001
0100
1000
0000
0010
0000
0000
0010
,
0100
0000
0100
0001
0010
0100
1000
0000
0000
0000
0000
0000
,
0101
0000
0001
1000
0000
0000
1001
0000
1000
0100
0000
0000
,
1100
0000
0100
0010
0000
0000
0011
0000
0001
0100
0000
0000
,
0001
0000
1000
0100
0000
1000
0010
0100
0001
0000
0000
0000
,
1001
0000
0000
1000
0000
0001
0100
0000
0000
0001
0000
0001
,
1000
0000
1000
0100
0000
0010
0000
0000
0001
0000
0000
1000
,
0010
0000
0001
0010
0000
1000
0100
0010
0001
1000
0000
0010
,
0000
0000
0010
1000
0000
0001
0010
0000
1000
0020
0000
0000
,
0030
0000
0000
0110
0000
0100
1000
0000
0000
1100
0000
1000
,
0001
0000
0000
0101
0000
0001
0010
0000
0000
0011
0000
0010
,
0100
0000
0000
1000
0000
0010
1000
0000
0001
0010
0000
0001
,
0000
0000
0200
0000
0000
0000
0000
0000
0000
0020
0000
0000
,
0330
0000
0000
0100
0000
0100
0001
0000
1000
0100
0000
1000
,
0010
0000
0100
0000
0000
0001
1000
0000
1000
0001
0000
0010
,
0100
0000
0010
0001
0000
0000
0101
0000
0000
1000
0000
0000
,
1100
0000
0000
1000
0000
1000
0010
0000
0010
0100
0000
0100
,
0001
0000
0001
0010
0000
0010
0100
0000
1000
0100
0000
1000
,
0001
0000
0001
0100
0000
0100
0001
0000
1000
0100
0000
0010
,
0100
0000
0100
1000
0000
0010
0000
1000
0000
0001
0000
0010
,
0000
0100
0000
1000
0000
0000
1010
0000
0000
1001
0000
0000
,
0011
0000
0000
0010
0000
0001
0100
0000
1000
0100
0000
0001
,
0010
0000
0000
0000
0010
0000
0200
0000
0000
0300
0000
0000
2000
0000
0000
3000
0000
0000
0020
0000
0000
0030
0000
0000
,
0200
0000
0000
0300
0000
0000
0001
0000
0000
0000
0001
0000
0100
0000
0000
0000
0010
0000
1000
0000
0000
0000
1000
0000
,
0001
0000
1000
0100
0000
0100
1000
0000
0001
0100
0000
0100
,
0001
0000
0010
0001
0000
0100
0010
0000
0000
1000
0000
0100
,
0010
0000
0000
0001
0000
0100
0000
0101
0000
0001
0000
1000
,
0000
1001
0000
1000
0000
1000
0001
0000
0010
0001
0000
0001
,
0100
1010
0110
0101
,
1001
0000
1000
0000
0100
0000
1000
0010
,
0001
0010
0100
0000
0001
0000
1000
0000
,
0100
0000
0000
0010
0000
0000
0100
0000
0000
0000
0100
0000
1000
0000
0000
0000
1000
0000
0001
0000
0000
0000
0001
0000
,
0100
0000
0100
0001
0000
0001
0010
0000
0010
1000
0000
1000
,
0010
0000
0000
0000
0010
0000
0100
0000
0000
1000
0000
0000
0001
0000
0000
1000
0000
0000
0010
0000
0000
0100
0000
0000
,
0001
1000
0001
0100
1000
0100
0001
1000
,
0100
0000
0000
1000
0000
0000
0010
0000
0000
0000
1000
0000
0010
0000
0100
0000
0010
0000
1000
0000
0000
0000
0001
0000
,
0010
0100
0010
0001
0000
0000
0011
0000
0000
1001
0000
0000
,
1010
0000
0000
1000
0000
0010
0100
0000
0000
0010
0000
1000
,
0001
0000
0010
0000
0000
0100
0000
0000
0220
0000
0000
0000
,
0000
0000
0000
0000
,
0000
0000
0000
0330
;
