#VERSION:0.81;
#TITLE:Rage of Demon;
#SUBTITLE:;
#ARTIST:NieN;
#TITLETRANSLIT:;
#SUBTITLETRANSLIT:;
#ARTISTTRANSLIT:;
#GENRE:;
#ORIGIN:;
#CREDIT:;
#BANNER:[ROUND 7] - Rage of Demon.png;
#BACKGROUND:[ROUND 7] - Rage of Demon-bg.png;
#PREVIEWVID:;
#JACKET:[ROUND 7] - Rage of Demon-jacket.png;
#CDIMAGE:;
#DISCIMAGE:;
#LYRICSPATH:;
#CDTITLE:cdtitle.png;
#MUSIC:[ROUND 7] - Rage of Demon.ogg;
#OFFSET:-1.640;
#SAMPLESTART:70.029;
#SAMPLELENGTH:12.000;
#SELECTABLE:YES;
#BPMS:0.000=196.000;
#STOPS:;
#DELAYS:;
#WARPS:;
#TIMESIGNATURES:0.000=4=4;
#TICKCOUNTS:0.000=4;
#COMBOS:0.000=1;
#SPEEDS:0.000=1.000=0.000=0;
#SCROLLS:0.000=1.000;
#FAKES:;
#LABELS:0.000=Song Start;
#BGCHANGES:;
#KEYSOUNDS:;
#ATTACKS:
;

//---------------dance-single - ----------------
#NOTEDATA:;
#CHARTNAME:;
#STEPSTYPE:dance-single;
#DESCRIPTION:;
#CHARTSTYLE:;
#DIFFICULTY:Hard;
#METER:9;
#RADARVALUES:0.756,0.781,0.377,0.158,0.096,543.000,43.000,18.000,0.000,0.000,0.000,0.000,0.000,0.756,0.781,0.377,0.158,0.096,543.000,43.000,18.000,0.000,0.000,0.000,0.000,0.000;
#CREDIT:;
#NOTES:
0000
0000
0000
0000
0000
0000
0000
1010
,
0000
0000
1000
0000
1000
0000
1000
1001
,
0000
0000
0001
0000
0001
0100
0100
0110
,
0000
0000
0100
0000
0100
0000
0100
0101
,
0000
0000
0001
0100
0001
1000
0100
1100
,
0000
0000
1000
0001
1000
0010
0100
0001
,
0000
1000
0100
1000
0001
0010
0100
0010
,
0000
0001
0100
0010
0100
0001
1000
2002
,
0000
0000
0000
0000
0000
3003
0000
1100
,
0000
1000
0100
1000
0001
1000
0010
1000
,
0001
0100
0010
0100
0001
1000
0100
1000
,
0000
0001
0100
0001
1000
0001
0010
0001
,
1000
0001
0100
0010
1000
0100
1000
1010
,
0000
0010
1000
0010
0100
0001
1000
0001
,
0100
0010
1000
0100
0001
0100
0010
0001
,
0000
1000
0010
1000
0001
1000
0100
1000
,
0001
1000
0010
0001
0010
0100
0001
1000
,
0000
0100
0100
1000
0001
0100
0100
0001
,
1000
0010
0010
1000
2002
0000
0000
0000
,
0000
0000
0000
0000
0000
3003
0000
1010
,
0000
0010
0100
0010
1000
0001
0100
0001
,
0000
1000
0100
1000
0010
0100
0001
0010
,
0000
0001
0100
0001
1000
0001
0010
0001
,
1000
0001
0100
0001
0010
0100
1000
1100
,
0000
1000
0001
0100
0001
1000
0100
0010
,
0000
0100
1000
0001
1000
0010
0100
0001
,
0000
0010
0001
0100
1000
0100
0010
1000
,
0100
0001
0100
0010
0001
0100
0001
0101
,
0000
0001
1000
0100
1000
0010
0100
0010
,
0000
1000
0100
1000
0001
0100
0010
0100
,
0000
0010
1000
0001
0010
1000
0010
0001
,
0100
0010
1000
0001
0100
0001
0010
0110
,
0000
0100
1000
0100
0010
0001
1000
0001
,
0000
1000
0010
1000
0001
0010
0100
0010
,
0000
0001
0100
0010
0100
0001
1000
0100
,
1000
0001
1000
0010
0100
0001
0000
1001
,
0000
0000
1000
0000
0001
0100
0001
0000
1000
0000
0000
0000
0001
0010
0001
0000
,
1000
0000
0000
0000
0001
0100
0001
0100
0001
0000
1000
0000
0010
0000
1010
0000
,
0000
0000
0010
0000
1000
0100
1000
0000
0001
0000
0000
0000
1000
0010
1000
0000
,
0001
0000
0000
0000
1000
0100
1000
0100
1000
0000
0001
0000
0100
0000
0101
0000
,
0000
0001
1001
0000
1000
0100
0100
1100
,
0000
1000
1001
0000
0001
0100
0100
0101
,
0000
0001
0011
0000
0010
0100
0100
1100
,
0000
1000
1010
0000
0010
0100
0100
0110
,
0000
0010
0100
0000
0101
0000
0000
1001
,
0000
1000
0100
0000
1000
0001
0100
0001
,
0000
0001
0010
0000
0001
0100
1000
0100
,
0000
0100
0010
0000
0100
0001
1000
0002
,
0000
0000
0000
0000
0000
0003
0000
0200
,
0000
0000
0000
0000
0000
0300
0010
2000
,
0000
0000
0000
0000
0000
3000
0000
0200
,
0000
0000
0000
0000
0000
0300
0000
1100
,
0000
0000
0000
0000
1000
0100
1000
0000
0010
0000
0000
0000
1000
0100
1000
0000
,
0001
0000
0000
0000
1000
0010
1000
0000
0001
0000
0100
0000
0001
0000
0010
0000
,
0000
0000
0000
0000
0001
0100
0001
0000
0010
0000
0000
0000
0001
0100
0001
0000
,
2000
0000
0000
0000
0000
3000
0000
0101
,
0000
0001
0010
1000
0010
0100
0000
1100
,
0000
1000
0010
1000
0001
0100
0001
1000
,
0000
0001
0010
1000
0010
0001
0100
1000
,
0100
0001
1000
0100
1000
0001
0010
0011
,
0000
0001
0100
1000
0100
0010
0000
0110
,
0000
0100
0001
1000
0100
1000
0001
0010
,
0000
0001
0100
1000
0100
0001
0010
0100
,
0010
0001
1000
0010
1000
0100
0010
0200
,
0300
1000
0010
1000
0001
0010
0100
0020
,
0030
0001
0100
1000
0100
0010
1000
0002
,
0003
1000
0100
0010
0100
1000
0010
0100
,
0010
1000
0001
0100
0001
0010
0100
2000
,
3000
0001
0100
1000
0100
0010
0100
0002
,
0003
1000
0100
0010
0100
1000
0001
2000
,
3000
0001
0100
0010
0100
0001
0010
0100
,
0010
0001
1000
0010
1000
0100
0010
0002
,
0003
1000
0010
0100
0010
1000
0001
0010
,
0001
1000
0100
0010
0001
1000
0000
1001
,
0000
0001
0001
0100
0010
1000
1000
0100
,
0010
0001
0100
1000
0100
0010
1000
1100
,
0000
1000
1001
0000
0001
0101
0000
0001
,
1001
0000
1000
0100
1000
0001
0100
0101
,
0000
0001
1001
0000
1000
1100
0000
1000
,
1010
0000
0010
1000
0100
1000
0001
0011
,
0000
0000
0001
0000
0010
0100
0010
0000
0100
0000
0000
0000
1000
0100
1000
0000
,
0001
0000
0000
0000
1000
0010
1000
0010
1000
0000
0100
0000
1000
0000
1001
0000
,
0000
0000
0001
0000
0100
0010
0100
0000
0010
0000
1000
0000
0001
0100
0001
0100
,
0001
0000
1000
0000
0100
1000
0100
1000
0100
0000
1000
0000
0001
0000
1000
0000
,
0000
0000
0000
0000
0000
0000
0000
2002
,
0000
0000
0000
0000
,
0000
0000
0000
0000
,
0000
0000
0000
0000
,
0000
0000
0000
0000
,
0000
3003
0000
0000
0000
0000
0000
0000
;

//---------------dance-single - ----------------
#NOTEDATA:;
#CHARTNAME:;
#STEPSTYPE:dance-single;
#DESCRIPTION:;
#CHARTSTYLE:;
#DIFFICULTY:Medium;
#METER:8;
#RADARVALUES:0.576,0.586,0.193,0.131,0.000,423.000,22.000,15.000,0.000,0.000,0.000,0.000,0.000,0.576,0.586,0.193,0.131,0.000,423.000,22.000,15.000,0.000,0.000,0.000,0.000,0.000;
#CREDIT:;
#NOTES:
0000
0000
0000
0000
0000
0000
0000
2002
,
0000
0000
0000
0000
0000
0003
0000
0020
,
0000
0000
0000
0000
0000
3000
0000
0200
,
0000
0000
0000
0000
0000
0030
0000
0002
,
0000
0000
0000
0000
0000
0303
0000
1000
,
0000
0100
1000
0001
,
0100
0010
1000
0100
,
1000
0000
0010
0000
0100
0000
0001
2002
,
0000
0000
0000
0000
0000
3003
0000
0101
,
0000
0001
0010
0000
0001
0100
0001
0000
,
1000
0010
1000
0000
0001
0010
0100
1000
,
0000
0010
1000
0100
1000
0000
0010
0100
,
0010
0000
1000
0100
1000
0010
0100
0001
,
0000
1000
0100
0000
1000
0010
1000
0000
,
0001
0100
0001
0000
1000
0100
0010
0001
,
0000
1000
0010
0100
0010
0000
1000
0001
,
1000
0000
0001
0010
0100
0010
0001
1000
,
0000
0000
0010
0010
1000
0000
0001
0001
,
1000
0000
0001
0001
0020
0000
0000
0000
,
0000
0000
0000
0000
0000
0030
0000
0011
,
0000
0001
0100
0000
0010
1000
0001
1000
,
0000
0100
0010
0000
0001
0100
1000
0100
,
0000
0001
1000
0000
0100
0010
0001
0000
,
0100
0010
1000
0000
0001
0010
0001
0101
,
0000
0010
1000
0000
0001
0010
1000
0010
,
0000
0001
0100
0000
0010
1000
0001
1000
,
0000
0100
0010
0000
0100
1000
0010
0000
,
0100
0001
0010
0000
0100
1000
0001
1001
,
0000
1000
0010
0000
1000
0100
0001
0100
,
0000
0010
0001
0000
1000
0010
1000
0001
,
0000
1000
0100
0000
1000
0010
0100
0000
,
0001
0010
0100
0000
0010
0001
1000
1010
,
0000
0010
0100
0000
0001
1000
0100
1000
,
0000
0001
0010
0000
0100
1000
0001
0100
,
0000
0001
0010
0001
1000
0010
1000
0100
,
1000
0001
0100
0010
1000
0100
0010
0001
,
0000
1000
0010
1000
0001
0000
0010
0001
,
0010
0000
0001
0100
0001
1000
0010
0100
,
0000
0010
1000
0100
1000
0000
0001
0100
,
0001
0000
1000
0010
1000
0001
0100
0001
,
0000
0000
1001
0000
1000
1000
0000
0001
,
0000
0000
0011
0000
0001
0001
0000
1000
,
0000
0000
1010
0000
0010
1000
0010
0100
,
0000
0000
0101
0000
0001
0001
0000
1000
,
0000
0100
1100
0000
1000
0000
0001
0100
,
0000
0010
0110
0000
0100
0001
0100
0010
,
0000
1000
1010
0000
0010
0100
0000
0010
,
0000
1000
1001
0000
1000
0010
0100
0002
,
0000
0000
0000
0000
0000
0003
0000
2000
,
0000
0000
0000
0000
0000
3000
0100
0020
,
0000
0000
0000
0000
0000
0030
0000
0200
,
0000
0000
0000
0000
0000
0300
0000
1001
,
0000
0001
1000
0010
1000
0000
0001
0010
,
0001
0000
1000
0100
1000
0001
0100
0010
,
0000
0000
0100
0001
0100
0000
0010
1000
,
0002
0000
0000
0000
0000
0003
0000
1100
,
0000
0000
1000
0000
0001
0100
0001
0010
,
0000
0000
0100
0000
1000
0010
0001
0010
,
0000
1000
0100
0000
0010
0001
0100
0000
,
0010
0100
0001
0000
0010
0100
1000
0100
,
0000
0100
1000
0000
0001
0100
0000
0010
,
0000
0100
0001
0000
1000
0100
0010
0001
,
0000
1000
0001
0000
0010
0100
1000
0000
,
0001
0100
0010
0000
1000
0001
0010
0001
,
0000
1000
0010
0000
1000
0001
0000
1001
,
0000
0001
0100
0000
0001
0010
0000
0011
,
0000
0001
0100
0000
0010
1000
0100
0000
,
1000
0010
0100
0000
0010
1000
0001
0100
,
0000
0001
1000
0000
0001
0010
0000
0011
,
0000
0001
0100
0000
0001
1000
0000
1010
,
0000
1000
0100
0000
0010
0001
0100
0000
,
0010
0100
0001
0000
0010
0100
1000
0001
,
0000
1000
0010
0100
0010
0000
1000
0100
,
0010
0000
0001
1000
0010
1000
0100
0010
,
0000
0001
0100
0001
1000
0000
0100
0010
,
0001
0000
1000
0010
0100
0010
1000
0001
,
0000
0000
0100
0000
0000
1000
0000
0000
,
0100
0000
0001
0000
1000
0100
1000
0001
,
0000
0000
0010
0000
0000
1000
0000
0000
,
0010
0000
0001
0000
1000
0010
1000
0100
,
0000
0000
1000
0010
1000
0000
0001
0100
,
0001
0000
1000
0100
1000
0001
1000
0010
,
0000
0000
0100
0001
0100
0000
0010
1000
,
0010
0000
1000
0100
1000
0001
1000
0010
,
0000
0000
0000
0000
0000
0000
0000
2002
,
0000
0000
0000
0000
,
0000
0000
0000
0000
,
0000
0000
0000
0000
,
0000
0000
0000
0000
,
0000
3003
0000
0000
0000
0000
0000
0000
;

//---------------dance-single - ----------------
#NOTEDATA:;
#CHARTNAME:;
#STEPSTYPE:dance-single;
#DESCRIPTION:;
#CHARTSTYLE:;
#DIFFICULTY:Easy;
#METER:6;
#RADARVALUES:0.373,0.390,0.096,0.123,0.000,273.000,11.000,14.000,0.000,0.000,0.000,0.000,0.000,0.373,0.390,0.096,0.123,0.000,273.000,11.000,14.000,0.000,0.000,0.000,0.000,0.000;
#CREDIT:;
#NOTES:
// measure 0
0000
0000
0000
0000
,  // measure 1
2000
0000
0000
3000
,  // measure 2
0020
0000
0000
0030
,  // measure 3
0200
0000
0000
0300
,  // measure 4
0002
0000
0000
0000
0000
0000
0003
1000
,  // measure 5
0000
0001
0100
0001
,  // measure 6
0000
1000
0100
1000
,  // measure 7
0001
0000
1000
0000
0010
0000
2000
0002
,  // measure 8
0000
0000
0000
0000
3003
0000
0000
1000
,  // measure 9
0000
0001
0100
0000
0001
0000
1000
0000
,  // measure 10
0100
0000
1000
0000
0010
0000
0100
0001
,  // measure 11
0000
1000
0100
0001
,  // measure 12
0100
0000
1000
0000
0010
0000
0100
0001
,  // measure 13
0000
1000
0100
1000
,  // measure 14
0010
0000
0100
0000
0001
0000
1000
0100
,  // measure 15
0000
1000
0010
0001
,  // measure 16
0010
0000
1000
0000
0001
0000
0010
0001
,  // measure 17
0000
1000
0010
1000
,  // measure 18
0001
1000
0200
0000
,  // measure 19
0000
0000
0000
0000
0300
0000
0000
1100
,  // measure 20
0000
0000
1000
0000
0001
0000
1000
0010
,  // measure 21
0000
0000
1000
0000
0001
0000
0100
0001
,  // measure 22
0000
1000
0100
0001
,  // measure 23
0100
0000
1000
0000
0010
0000
0100
0010
,  // measure 24
0000
0000
1000
0000
0001
0000
0100
0010
,  // measure 25
0000
0000
0100
0000
0001
0000
1000
0100
,  // measure 26
0000
1000
0010
0001
,  // measure 27
0010
0000
1000
0000
0100
0000
0010
0100
,  // measure 28
0000
0000
1000
0000
0010
0000
1000
0001
,  // measure 29
0000
0000
0010
0000
0001
0000
0100
0001
,  // measure 30
0000
1000
0100
1000
,  // measure 31
0001
0000
1000
0000
0010
0000
1000
0001
,  // measure 32
0000
0000
0010
0000
0100
0000
1000
0010
,  // measure 33
0000
0000
1000
0000
0001
0000
0100
0001
,  // measure 34
0000
0010
0001
1000
,  // measure 35
0001
0000
0100
0000
0001
0000
1000
0010
,  // measure 36
0000
1000
0000
1001
,  // measure 37
0000
0000
0001
0000
0100
0000
0001
1000
,  // measure 38
0000
0001
0000
1001
,  // measure 39
0000
0000
1000
0000
0100
0000
1000
0010
,  // measure 40
1000
0000
1001
0000
,  // measure 41
0001
0000
0101
0000
,  // measure 42
0100
0000
0110
0000
,  // measure 43
0010
0000
1010
0000
,  // measure 44
1000
0100
1000
0000
,  // measure 45
0001
0100
0001
0000
,  // measure 46
1000
0010
1000
0000
,  // measure 47
0001
0010
0001
1000
,  // measure 48
0020
0000
0000
0030
,  // measure 49
0200
0000
0000
0300
,  // measure 50
0002
0000
0000
0003
,  // measure 51
2000
0000
0000
3000
,  // measure 52
0001
0010
0001
0010
,  // measure 53
0100
1000
0100
1000
,  // measure 54
0010
0100
0001
1000
,  // measure 55
0200
0000
0000
0000
0000
0300
0000
1100
,  // measure 56
0000
1000
0100
1000
,  // measure 57
0000
0000
0010
0000
1000
0000
0010
0100
,  // measure 58
0000
0001
0010
1000
,  // measure 59
0010
0000
0001
0000
1000
0000
0001
0100
,  // measure 60
0000
0001
0010
0001
,  // measure 61
0000
0000
1000
0000
0100
0000
1000
0010
,  // measure 62
0000
1000
0100
0001
,  // measure 63
0100
0000
1000
0000
0001
0000
1000
0010
,  // measure 64
0000
1000
0100
1000
,  // measure 65
0000
0000
0001
0000
0100
0000
0001
1000
,  // measure 66
0000
0001
0100
0010
,  // measure 67
1000
0000
0001
0000
1000
0000
0100
1000
,  // measure 68
0000
0001
0100
0001
,  // measure 69
0000
0000
1000
0000
0100
0000
1000
0001
,  // measure 70
0000
1000
0010
0100
,  // measure 71
0001
0000
1000
0000
0001
0000
0010
0001
,  // measure 72
0000
1000
0010
1000
,  // measure 73
0001
0000
0010
0000
0100
0000
0010
0001
,  // measure 74
0000
0001
0100
0001
,  // measure 75
1000
0000
0100
0000
1000
0000
0010
1000
,  // measure 76
0000
0001
0000
1000
,  // measure 77
0000
0000
0001
0000
1000
0000
0100
1000
,  // measure 78
0000
0010
0000
0100
,  // measure 79
0000
0000
0010
0000
1000
0000
0001
0010
,  // measure 80
0000
0001
0000
1001
,  // measure 81
0000
0000
1000
0000
0010
0000
1000
0001
,  // measure 82
0000
1000
0000
1001
,  // measure 83
0000
0000
0001
0000
0100
0000
0001
1000
,  // measure 84
0000
0000
0000
0000
0000
0000
0000
2002
,  // measure 85
0000
0000
0000
0000
,  // measure 86
0000
0000
0000
0000
,  // measure 87
0000
0000
0000
0000
,  // measure 88
0000
0000
0000
0000
,  // measure 89
0000
3003
0000
0000
0000
0000
0000
0000
;
