#VERSION:0.81;
#TITLE:ON THE BEACH;
#SUBTITLE:;
#ARTIST:DJ SHARPNEL;
#TITLETRANSLIT:;
#SUBTITLETRANSLIT:;
#ARTISTTRANSLIT:;
#GENRE:;
#ORIGIN:;
#CREDIT:;
#BANNER:[ROUND 7] - ON THE BEACH.png;
#BACKGROUND:[ROUND 7] - ON THE BEACH-bg.png;
#PREVIEWVID:;
#JACKET:;
#CDIMAGE:;
#DISCIMAGE:;
#LYRICSPATH:;
#CDTITLE:;
#MUSIC:[ROUND 7] - ON THE BEACH.MP3;
#OFFSET:1.865;
#SAMPLESTART:69.947;
#SAMPLELENGTH:12.000;
#SELECTABLE:YES;
#BPMS:0.000=174.200;
#STOPS:31.000=1.033,
184.000=0.086,
184.250=0.086,
184.500=0.086,
184.750=0.086,
185.000=0.086,
185.250=0.086,
185.500=0.086,
185.750=0.086;
#DELAYS:;
#WARPS:;
#TIMESIGNATURES:0.000=4=4,
184.000=2=4,
186.000=4=4;
#TICKCOUNTS:0.000=4;
#COMBOS:0.000=1;
#SPEEDS:0.000=1.000=0.000=0;
#SCROLLS:0.000=1.000;
#FAKES:;
#LABELS:0.000=Song Start;
#BGCHANGES:;
#KEYSOUNDS:;
#ATTACKS:
;

//---------------dance-single - ----------------
#NOTEDATA:;
#CHARTNAME:;
#STEPSTYPE:dance-single;
#DESCRIPTION:;
#CHARTSTYLE:;
#DIFFICULTY:Hard;
#METER:9;
#RADARVALUES:0.650,0.653,0.112,0.344,0.064,512.000,14.000,43.000,0.000,0.000,0.000,0.000,0.000,0.650,0.653,0.112,0.344,0.064,512.000,14.000,43.000,0.000,0.000,0.000,0.000,0.000;
#CREDIT:;
#NOTES:
// measure 0
0000
0000
0000
0000
,  // measure 1
0000
0000
0000
0000
,  // measure 2
0000
0000
0000
0000
,  // measure 3
0000
0000
0000
0000
,  // measure 4
0000
0000
0000
0000
,  // measure 5
0000
0000
0000
0000
,  // measure 6
0000
0000
0000
0000
,  // measure 7
0000
0000
0000
0000
,  // measure 8
1000
0000
0010
0000
0100
0000
0000
0000
0001
0100
0001
0000
0100
0000
0000
0000
,  // measure 9
0001
0000
0010
0000
0001
0000
1000
0000
0001
0100
0001
0000
0010
0000
0000
0000
,  // measure 10
0100
0000
1000
0000
0010
0000
0000
0000
0100
0010
0100
0000
0001
0000
1000
0000
,  // measure 11
0010
0000
0100
0000
0001
0000
0010
0000
0100
1000
0100
0000
1000
0000
0000
0000
,  // measure 12
0100
0000
1000
0000
0010
0000
0000
0000
0100
0010
0100
0000
0010
0000
0100
0000
,  // measure 13
0001
0000
1000
0000
0100
0000
0000
0000
1000
0100
1000
0000
0001
0000
0000
0000
,  // measure 14
1000
0010
0100
0010
1000
0100
0010
0100
,  // measure 15
1000
0000
0010
0000
0100
0001
0010
0000
,  // measure 16
0001
0000
0100
0010
0001
0010
1000
0001
,  // measure 17
0010
0000
0010
0000
0010
0000
0000
0000
0001
1000
0001
0000
0010
0000
0000
0000
,  // measure 18
0001
0100
0010
1000
0010
0001
0020
0000
,  // measure 19
1030
0100
0010
0100
1000
0010
0200
0000
,  // measure 20
0301
0010
0001
0100
0001
0010
0200
0000
,  // measure 21
1300
0010
0100
0010
1000
0001
0200
0000
,  // measure 22
0320
0000
2030
0000
3200
0000
0310
0001
,  // measure 23
0000
0000
1000
0100
1000
0100
1000
0000
,  // measure 24
0100
0000
1000
0001
0100
1000
0100
0000
,  // measure 25
0002
0000
2003
0000
3001
0100
0010
1000
,  // measure 26
0001
0000
1000
0010
0100
0001
0101
0000
,  // measure 27
0100
0000
0001
0010
0100
0001
1100
0000
,  // measure 28
0100
1000
0010
0100
0001
1000
1001
0000
,  // measure 29
0001
0100
0010
0001
0010
1000
0101
0000
,  // measure 30
0001
0000
0100
0000
0010
0001
0010
0000
,  // measure 31
1000
0000
0100
0000
0001
0100
1000
0000
,  // measure 32
0001
0000
0100
0000
0010
0100
0010
0000
,  // measure 33
1000
0000
1001
0000
1001
0000
1000
0001
,  // measure 34
2000
3020
0230
0000
,  // measure 35
0302
0023
0230
0000
,  // measure 36
1300
1000
0010
0010
,  // measure 37
0100
0010
0100
0001
0010
0100
1000
0000
,  // measure 38
0002
0203
0320
0000
,  // measure 39
2030
3200
0320
0000
,  // measure 40
0130
1000
0010
0100
,  // measure 41
0010
1000
0001
0100
0010
0100
0001
0000
,  // measure 42
1000
0010
1000
0010
1000
0001
1000
0001
,  // measure 43
1000
0100
1000
0100
0010
0100
0010
0000
,  // measure 44
0001
0010
0001
0010
0001
0100
0001
0100
,  // measure 45
0001
0010
0001
0010
0001
1000
0001
0000
,  // measure 46
1000
1000
1000
1000
0001
0001
0001
0001
0100
0000
0000
0000
0001
0000
0000
0000
,  // measure 47
0010
0100
1000
0010
0100
0000
0010
1000
,  // measure 48
0010
0000
1000
0100
1000
0000
0010
0100
,  // measure 49
0010
0000
1000
0001
1000
0010
1000
0010
,  // measure 50
1000
0001
0010
0100
1000
0001
1000
0001
,  // measure 51
1000
0010
0100
0001
1000
0100
1000
0100
,  // measure 52
0010
0001
0100
0010
0100
0001
0100
0001
,  // measure 53
1000
0000
0001
1000
0001
0000
0100
0000
0010
0000
1000
0000
0100
0000
0010
0000
,  // measure 54
1000
0010
0001
0100
0010
1000
0100
1000
,  // measure 55
0010
0100
1000
0100
0002
0000
2003
0000
,  // measure 56
3100
0010
0001
0100
0020
0000
2030
0000
,  // measure 57
3001
0000
0100
0001
0100
0000
0001
0000
1002
0000
0000
0000
0010
0000
0000
0000
,  // measure 58
1000
1000
1003
0000
0120
0000
1000
0000
,  // measure 59
0100
0100
0130
0000
0102
0000
0010
0000
,  // measure 60
1000
1000
1003
0000
1200
0000
0010
0000
,  // measure 61
0001
0001
0301
0000
0100
0000
1000
0000
,  // measure 62
0010
0000
0100
0010
0100
0000
0001
0000
,  // measure 63
1000
0000
0000
0001
0000
0000
0010
0000
0100
0000
0000
0000
1000
0000
0000
0000
,  // measure 64
0010
0100
0010
1000
0001
0000
0100
0000
,  // measure 65
0001
0000
1000
0010
1000
0000
0010
0000
1000
0000
0000
0000
0010
0000
0000
0000
,  // measure 66
0100
0010
0100
0000
0001
0000
0010
0000
,  // measure 67
0100
0010
0100
0000
1000
0000
0001
0000
,  // measure 68
0100
0001
0100
0000
0010
0000
0001
0000
,  // measure 69
0010
1000
0010
0000
1000
0000
1001
0000
,  // measure 70
0100
0110
0001
0101
,  // measure 71
0001
0000
1000
0001
1000
0000
0010
0000
,  // measure 72
0100
0000
0010
1000
0010
0000
1000
0000
,  // measure 73
0001
0000
0010
0001
0100
0100
0200
0000
,  // measure 74
0010
0010
0320
0000
1000
1000
2030
0000
,  // measure 75
0100
0100
3200
0000
0320
0001
0032
0100
,  // measure 76
0203
0010
0320
0000
0130
0001
0002
0010
,  // measure 77
0023
0100
0230
0000
1300
0000
0010
0000
,  // measure 78
0100
0000
0010
1000
0010
0000
1010
0000
,  // measure 79
1000
0000
0000
0010
0000
0000
1000
0000
0200
0000
0000
0000
0000
0000
0000
0000
,  // measure 80
1300
0100
0010
0002
0000
0000
1000
0000
,  // measure 81
1003
0100
1000
0010
0100
0010
0100
0001
,  // measure 82
0010
0100
0001
0100
1000
0010
0100
0010
,  // measure 83
1000
0001
0100
0000
0001
0010
0001
0100
,  // measure 84
0001
0010
0100
0001
0100
1000
0010
0100
,  // measure 85
0010
1000
0010
0000
1000
0010
1000
0100
,  // measure 86
0010
1000
0010
0001
0100
0010
0100
0001
,  // measure 87
1000
0100
1000
0010
1000
0100
0010
0001
,  // measure 88
0100
0010
1000
0001
0010
0001
0001
0001
,  // measure 89
0001
0100
0010
0100
0020
0000
0000
0000
,  // measure 90
0000
0000
0000
0030
;

//---------------dance-single - ----------------
#NOTEDATA:;
#CHARTNAME:;
#STEPSTYPE:dance-single;
#DESCRIPTION:;
#CHARTSTYLE:;
#DIFFICULTY:Medium;
#METER:7;
#RADARVALUES:0.473,0.581,0.136,0.040,0.008,392.000,17.000,5.000,0.000,0.000,0.000,0.000,0.000,0.473,0.581,0.136,0.040,0.008,392.000,17.000,5.000,0.000,0.000,0.000,0.000,0.000;
#CREDIT:;
#NOTES:
0000
0000
0000
0000
,
0000
0000
0000
0000
,
0000
0000
0000
0000
,
0000
0000
0000
0000
,
0000
0000
0000
0000
,
0000
0000
0000
0000
,
0000
0000
0000
0000
,
0000
0000
0000
0000
,
1000
0000
0001
0000
0010
0001
0010
0000
,
0100
0000
0001
0000
0100
1000
0100
0000
,
1000
0000
0010
0000
0100
0010
0100
0010
,
0100
0000
0001
0000
0010
0001
0010
0000
,
0100
0000
1000
0000
0010
1000
0010
1000
,
0010
0000
0100
0000
0001
0100
0001
0000
,
0100
0000
0001
0000
1000
0001
1000
0001
,
1000
0100
0010
0000
0001
0100
0001
0000
,
1000
0010
0100
0001
,
1000
0001
1000
0000
0010
0100
0010
0000
,
1000
0000
0001
0000
0010
0001
0010
0000
,
0001
0000
0100
0000
0010
0100
0010
0000
,
1000
0000
0001
0000
1000
0001
1000
0000
,
0001
0000
0010
0000
0100
0010
0100
0000
,
1100
0000
1010
0000
0010
0100
0010
0000
,
0101
0000
0011
0000
0001
1000
0001
0000
,
1010
0000
0101
0000
0010
0001
0010
0000
,
0001
0000
1001
0000
0001
0100
0001
0100
,
0001
0000
1000
0000
0010
0000
0100
0010
,
1000
0001
0010
0000
0001
0000
0010
0000
,
0100
0000
1000
0000
0001
0000
1000
0010
,
0100
0010
1000
0000
0100
0000
0010
0000
,
0001
0000
1000
0000
0010
1000
0010
0000
,
1000
0000
0001
0000
0010
0001
0010
0000
,
0100
0000
1000
0000
0001
1000
0001
0000
,
1001
0110
1001
0110
,
1000
1000
1000
0000
,
0001
0001
0001
0000
,
0100
0000
0010
0000
,
1000
0000
0001
0000
1000
0001
1000
0000
,
0010
0100
0010
0000
,
1000
0100
0001
0000
,
0100
0100
1000
1000
,
0010
0100
0010
1000
0001
0000
1000
0000
,
0001
0001
0100
0100
,
0010
0000
0010
0000
1000
0010
1000
0000
,
0001
0001
0010
0010
,
0100
0000
0100
0000
0010
0001
0010
0000
,
0001
0000
1000
0000
0010
0100
0010
0100
0010
0000
0000
0000
1000
0000
0000
0000
,
0001
1000
0001
1000
0001
0010
0001
0010
,
0100
0010
0100
0010
0100
1000
0100
1000
,
0001
1000
0001
1000
0001
0000
0001
0000
,
0100
0100
0010
0010
,
1000
0000
1000
0000
1000
0100
1000
0100
,
1000
0100
1000
0000
0001
0010
0001
0010
,
0001
0010
0001
0000
0100
0000
0100
0000
,
0010
0010
1000
0001
,
1000
0001
0010
0001
,
0010
0100
0010
0100
0010
0000
0100
0000
,
1000
0100
1000
0100
1000
0000
0010
0000
,
0010
0100
0100
0001
,
0001
0010
0001
0100
,
0010
0100
0010
0000
1000
0000
0001
0000
,
0010
0001
0010
0000
0100
0000
1000
0000
,
0010
0000
0100
0010
0100
0000
0010
0000
,
1000
0001
1000
0000
,
0001
0010
0100
0000
,
0010
0001
0100
0010
,
0100
0110
0010
1000
,
0010
1010
1000
0001
,
1000
1001
0001
0010
,
0001
0011
0100
0100
,
1000
1000
0010
0100
,
0001
0000
0100
0001
0100
0000
0000
0000
,
0010
0000
0100
0010
0100
0000
0000
0000
,
0010
1000
0002
0100
,
0100
0203
0010
0010
,
0010
0320
1000
1000
,
1000
2030
0100
0100
,
0100
3100
0010
0001
,
0100
0000
0010
0100
0010
0000
1000
0000
,
0001
1000
1001
0000
,
0001
0010
0011
0000
,
0100
0000
1000
0100
1000
0000
0010
0000
,
0100
0000
0001
0000
0100
0001
0100
0001
,
0100
0001
0100
0000
0010
0000
1000
0000
,
0001
0000
0010
0000
0100
1000
0100
1000
,
0100
1000
0100
0000
0100
0000
1000
0000
,
0100
0000
0001
0000
1000
0000
0010
0100
,
0010
0100
0010
0000
0001
0000
1000
0000
,
0001
0000
0010
0000
0100
0010
0100
0010
,
0100
0000
1000
0001
0200
0000
0000
0000
,
0000
0000
0000
0300
;

//---------------dance-single - ----------------
#NOTEDATA:;
#CHARTNAME:;
#STEPSTYPE:dance-single;
#DESCRIPTION:;
#CHARTSTYLE:;
#DIFFICULTY:Easy;
#METER:4;
#RADARVALUES:0.307,0.358,0.008,0.032,0.000,264.000,1.000,4.000,0.000,0.000,0.000,0.000,0.000,0.307,0.358,0.008,0.032,0.000,264.000,1.000,4.000,0.000,0.000,0.000,0.000,0.000;
#CREDIT:;
#NOTES:
0000
0000
0000
0000
,
0000
0000
0000
0000
,
0000
0000
0000
0000
,
0000
0000
0000
0000
,
0000
0000
0000
0000
,
0000
0000
0000
0000
,
0000
0000
0000
0000
,
0000
0000
0000
0000
,
1000
0010
0100
0100
,
0010
0100
0001
0001
,
1000
0100
0010
0010
,
0100
1000
0010
0010
,
0100
0001
0010
0010
,
0001
0100
0001
0001
,
1000
0100
0010
0010
,
0100
1000
0001
0001
,
1000
0010
0100
0001
,
0010
0100
1000
1001
,
0001
0100
0010
0100
,
0010
1000
0100
1000
,
0100
0010
0001
0010
,
0001
0100
0010
0100
,
0010
0010
1000
1000
,
0001
0001
1000
1000
,
0001
0010
0100
1000
,
0001
1000
0001
1000
,
0001
0000
0000
0000
,
0100
0000
0010
0000
,
1000
0000
0000
0000
,
0001
0000
1000
0000
,
0100
0000
0000
0000
,
0010
0000
0001
0000
,
0100
0000
0000
0000
,
0010
0010
0010
0010
,
0200
0000
0010
0000
,
0010
0010
0310
0000
,
0002
0000
1000
0000
,
1000
1000
1003
0000
,
2000
0000
0001
0000
,
0001
0001
3001
0000
,
0020
0000
0100
0000
,
0100
0100
0130
0000
,
0100
1000
0100
1000
,
0100
1000
0100
1000
,
0001
1000
0001
1000
,
0001
1000
0001
1000
,
0001
0001
1000
1000
0001
0000
0100
0000
,
0010
0010
1000
1000
,
0001
1000
0001
0001
,
0010
0010
0100
0000
,
0100
0000
1000
0000
,
1000
0000
0001
0001
,
0001
0001
0100
0100
,
0100
0100
0010
0000
,
0010
0000
1000
0000
,
1000
0000
0001
0000
,
0000
0000
1000
0000
,
0001
0000
0100
0001
,
0100
0001
1000
0010
,
1000
0010
1000
0001
,
1000
0001
0010
0100
,
0010
0100
1000
0000
,
0001
0000
0100
0000
,
0001
0001
0010
0000
,
0100
0100
1000
0000
,
0010
0100
0001
0001
,
1000
1000
0010
0010
,
0100
0100
0001
0010
,
0100
1000
1000
0100
,
0010
0001
0001
0000
,
1000
0000
0010
0000
,
0100
0100
0100
0000
,
0010
0010
0010
0000
,
1000
0001
0010
0100
,
1000
1000
0100
0010
,
0001
0001
0100
0010
,
0001
0001
0010
1000
,
0001
0001
1000
0000
,
1000
0000
0001
0000
,
0100
0100
0100
0000
,
0010
0010
0010
0000
,
1000
0001
1000
0001
,
0010
0001
0100
0010
,
0100
0010
0000
1000
,
1000
0001
0001
1000
,
0001
1000
0000
0100
,
0000
0010
0000
0001
,
0100
0001
0000
0100
,
0000
0010
0000
1000
,
0001
1000
0001
0000
;

//---------------dance-single - ----------------
#NOTEDATA:;
#CHARTNAME:;
#STEPSTYPE:dance-single;
#DESCRIPTION:;
#CHARTSTYLE:;
#DIFFICULTY:Beginner;
#METER:2;
#RADARVALUES:0.149,0.179,0.000,0.000,0.000,130.000,0.000,0.000,0.000,0.000,0.000,0.000,0.000,0.149,0.179,0.000,0.000,0.000,130.000,0.000,0.000,0.000,0.000,0.000,0.000,0.000;
#CREDIT:;
#NOTES:
0000
0000
0000
0000
,
0000
0000
0000
0000
,
0000
0000
0000
0000
,
0000
0000
0000
0000
,
0000
0000
0000
0000
,
0000
0000
0000
0000
,
0000
0000
0000
0000
,
0000
0000
0000
0000
,
1000
0000
0000
0000
,
0000
0000
0000
0000
,
0010
0000
0000
0000
,
0000
0000
0000
0000
,
0100
0000
0000
0000
,
0000
0000
0000
0000
,
0001
0000
0000
0000
,
0000
0000
0000
0000
,
0010
0000
0000
0000
,
0000
0000
0000
0000
,
0001
0000
0000
0000
,
0001
0000
0001
0000
,
1000
0000
0000
0000
,
1000
0000
1000
0000
,
0010
0000
0010
0000
,
0010
0000
0000
0000
,
0100
0000
0100
0000
,
0100
0000
0010
0000
,
1000
0000
0000
0000
,
1000
0000
1000
0000
,
0001
0000
0000
0000
,
0001
0000
0001
0000
,
0010
0000
0000
0000
,
0100
0000
0100
0000
,
1000
0000
0000
0000
,
0001
0000
0001
0000
,
0001
0000
0000
0000
,
0001
0001
0001
0000
,
0100
0000
0000
0000
,
0100
0100
0100
0000
,
0010
0000
0000
0000
,
1000
1000
1000
0000
,
0001
0000
0000
0000
,
1000
1000
1000
0000
,
0001
0000
0000
0000
,
0001
0000
0100
0000
,
0010
0000
0000
0000
,
0010
0000
1000
0000
,
0001
1000
0001
0000
,
0100
0000
0100
0000
,
0100
0000
0100
0000
,
0100
0000
0010
0000
,
0100
0000
0010
0000
,
0100
0000
0001
0000
,
0000
0000
1000
0000
,
0000
0000
0001
0000
,
0010
0000
0001
0000
,
0010
0000
0001
0000
,
0000
0000
1000
0000
,
0000
0000
0100
0000
,
0010
0000
0100
0000
,
0010
0000
0001
0000
,
0000
0000
1000
0000
,
0000
0000
0001
0000
,
0100
0000
0010
0000
,
0001
0000
0010
0000
,
0000
0000
1000
0000
,
0000
0000
0001
0000
,
0001
0000
1000
0000
,
1000
0000
0010
0000
,
0010
0000
0100
0000
,
0100
0000
0001
0000
,
1000
0000
0001
0000
,
0000
0000
0010
0000
,
0000
0000
0100
0000
,
0000
0000
1000
0000
,
0100
0000
1000
0000
,
0100
0000
0010
0000
,
0000
0000
0001
0000
,
0100
0000
0001
0000
,
0000
0000
0100
0000
,
0000
0000
0010
0000
,
1000
0000
0001
0000
,
0000
0000
0000
1000
,
0000
1000
0000
0010
,
0010
0010
0000
0100
,
0000
0100
0000
0001
,
0001
0001
0000
1000
,
0000
1000
0000
0001
,
0001
0001
0000
0010
,
0000
0010
0000
0100
,
0100
0100
0100
0000
;
